osu file format v14

[General]
AudioFilename: Rokuchounentoichiyamonogatari.mp3
AudioLeadIn: 0
PreviewTime: 53885
Countdown: 0
SampleSet: Soft
StackLeniency: 0.7
Mode: 3
LetterboxInBreaks: 0
SpecialStyle: 0
WidescreenStoryboard: 0

[Editor]
Bookmarks: 2053
DistanceSpacing: 0.8
BeatDivisor: 4
GridSize: 16
TimelineZoom: 3.299999

[Metadata]
Title:Six Trillion Years and Overnight Story
TitleUnicode:六兆年と一夜物語
Artist:kemu feat. IA
ArtistUnicode:kemu feat. IA
Creator:-SoraGami-
Version:ADVANCED
Source:SOUND VOLTEX BOOTH
Tags:sdvx pandora voxx reflec beat plus exit tunes vocaloid vocaloid3 rokuchounen to ichiya monogatari
BeatmapID:674984
BeatmapSetID:301004

[Difficulty]
HPDrainRate:7
CircleSize:4
OverallDifficulty:8
ApproachRate:5
SliderMultiplier:1.4
SliderTickRate:1

[Events]
//Background and Video events
0,0,"BG.jpg",0,0
//Break Periods
//Storyboard Layer 0 (Background)
//Storyboard Layer 1 (Fail)
//Storyboard Layer 2 (Pass)
//Storyboard Layer 3 (Foreground)
//Storyboard Sound Samples

[TimingPoints]
337,322.58064516129,4,2,1,20,1,0
54530,-100,4,2,1,20,0,1
86143,342.857142857143,4,2,1,20,1,0
86166,-94.3396226415094,4,2,1,20,0,0
86828,387.096774193548,4,2,1,20,1,0
86828,-83.3333333333333,4,2,1,20,0,0
87021,392.156862745098,4,2,1,20,1,0
87021,-81.9672131147541,4,2,1,20,0,0
87217,419.58041958042,4,2,1,20,1,0
87217,-76.9230769230769,4,2,1,20,0,0
87426,428.571428571429,4,2,1,20,1,0
87426,-75.187969924812,4,2,1,20,0,0
87640,444.444444444444,4,2,1,20,1,0
87640,-72.463768115942,4,2,1,20,0,0
87862,500,4,2,1,20,1,0
87862,-64.5161290322581,4,2,1,20,0,0
88112,545.454545454546,4,2,1,20,1,0
88112,-58.8235294117647,4,2,1,20,0,0
88384,319.148936170213,4,2,1,20,1,0
88384,-101.010101010101,4,2,1,20,0,0
89660,322.58064516129,4,2,1,20,1,0

[HitObjects]
64,192,12917,5,0,0:0:0:0:
192,192,12998,1,0,0:0:0:0:
320,192,13078,1,0,0:0:0:0:
448,192,13159,1,0,0:0:0:0:
64,192,13240,1,2,0:0:0:0:
192,192,13240,1,0,0:0:0:0:
320,192,13401,1,0,0:0:0:0:
448,192,13401,1,2,0:0:0:0:
192,192,13562,1,0,0:0:0:0:
448,192,13724,1,0,0:0:0:0:
320,192,13804,1,0,0:0:0:0:
64,192,13885,1,0,0:0:0:0:
192,192,13966,1,0,0:0:0:0:
320,192,14046,1,0,0:0:0:0:
448,192,14127,1,0,0:0:0:0:
320,192,14207,1,0,0:0:0:0:
64,192,14369,1,0,0:0:0:0:
320,192,14530,1,8,0:0:0:0:
192,192,14530,1,0,0:0:0:0:
448,192,14691,1,8,0:0:0:0:
64,192,14691,1,0,0:0:0:0:
320,192,14853,1,0,0:0:0:0:
448,192,15014,1,0,0:0:0:0:
320,192,15095,1,0,0:0:0:0:
64,192,15175,1,0,0:0:0:0:
192,192,15256,1,0,0:0:0:0:
320,192,15336,1,0,0:0:0:0:
448,192,15417,1,0,0:0:0:0:
192,192,15498,1,0,0:0:0:0:
320,192,15659,1,0,0:0:0:0:
64,192,15820,1,8,0:0:0:0:
448,192,15820,1,0,0:0:0:0:
448,192,15982,1,0,0:0:0:0:
64,192,15982,1,8,0:0:0:0:
192,192,16143,1,0,0:0:0:0:
320,192,16304,1,0,0:0:0:0:
448,192,16385,1,0,0:0:0:0:
64,192,16466,1,0,0:0:0:0:
192,192,16546,1,0,0:0:0:0:
320,192,16627,1,0,0:0:0:0:
192,192,16707,1,0,0:0:0:0:
64,192,16788,1,0,0:0:0:0:
192,192,16949,1,0,0:0:0:0:
320,192,17030,1,0,0:0:0:0:
448,192,17111,1,0,0:0:0:0:
64,192,17111,1,4,0:0:0:0:
192,192,17111,1,8,0:0:0:0:
320,192,17272,1,0,0:0:0:0:
64,192,17272,1,8,0:0:0:0:
192,192,17353,1,0,0:0:0:0:
448,192,17433,1,0,0:0:0:0:
320,192,17514,1,0,0:0:0:0:
192,192,17595,1,0,0:0:0:0:
64,192,17675,1,0,0:0:0:0:
320,192,17756,1,4,0:0:0:0:
448,192,17756,1,0,0:0:0:0:
192,192,17917,1,0,0:0:0:0:
64,192,17998,1,0,0:0:0:0:
448,192,18078,1,0,0:0:0:0:
320,192,18159,1,0,0:0:0:0:
192,192,18240,1,0,0:0:0:0:
320,192,18320,1,0,0:0:0:0:
448,192,18401,1,0,0:0:0:0:
64,192,18401,1,4,0:0:0:0:
192,192,18401,1,2,0:0:0:0:
320,192,18562,1,0,0:0:0:0:
192,192,18724,1,8,0:0:0:0:
448,192,18724,1,8,0:0:0:0:
320,192,18885,1,0,0:0:0:0:
192,192,19046,1,0,0:0:0:0:
64,192,19046,1,8,0:0:0:0:
320,192,19207,1,0,0:0:0:0:
448,192,19369,1,8,0:0:0:0:
64,192,19369,1,8,0:0:0:0:
320,192,19530,1,0,0:0:0:0:
192,192,19691,1,0,0:0:0:0:
64,192,19691,1,8,0:0:0:0:
320,192,19853,1,0,0:0:0:0:
448,192,20014,1,8,0:0:0:0:
64,192,20014,1,8,0:0:0:0:
192,192,20175,1,8,0:0:0:0:
320,192,20256,1,8,0:0:0:0:
64,192,20336,1,8,0:0:0:0:
448,192,20336,1,4,0:0:0:0:
320,192,20498,1,8,0:0:0:0:
448,192,20578,1,8,0:0:0:0:
320,192,20659,1,8,0:0:0:0:
192,192,20740,1,8,0:0:0:0:
64,192,20820,1,8,0:0:0:0:
192,192,20901,1,8,0:0:0:0:
64,192,20982,1,8,0:0:0:0:
448,192,20982,1,2,0:0:0:0:
192,192,21062,1,8,0:0:0:0:
320,192,21143,1,8,0:0:0:0:
448,192,21224,1,8,0:0:0:0:
320,192,21304,1,8,0:0:0:0:
192,192,21466,1,0,0:0:0:0:
64,192,21466,1,8,0:0:0:0:
448,192,21546,1,8,0:0:0:0:
64,192,21627,1,8,0:0:0:0:
192,192,21707,1,8,0:0:0:0:
320,192,21788,1,8,0:0:0:0:
448,192,21949,1,0,0:0:0:0:
64,192,21949,1,8,0:0:0:0:
320,192,22030,1,8,0:0:0:0:
192,192,22111,1,8,0:0:0:0:
64,192,22191,1,8,0:0:0:0:
192,192,22272,1,8,0:0:0:0:
320,192,22433,1,0,0:0:0:0:
448,192,22433,1,8,0:0:0:0:
64,192,22514,1,8,0:0:0:0:
192,192,22595,1,8,0:0:0:0:
320,192,22675,1,8,0:0:0:0:
448,192,22756,1,8,0:0:0:0:
192,192,22917,128,0,23240:0:0:0:0:
320,192,23240,1,0,0:0:0:0:
64,192,23401,1,0,0:0:0:0:
448,192,23562,1,8,0:0:0:0:
192,192,23562,1,4,0:0:0:0:
320,192,23562,1,0,0:0:0:0:
64,192,23885,1,8,0:0:0:0:
320,192,24046,1,0,0:0:0:0:
192,192,24207,1,0,0:0:0:0:
448,192,24207,1,8,0:0:0:0:
64,192,24530,1,8,0:0:0:0:
192,192,24691,1,0,0:0:0:0:
448,192,24853,1,8,0:0:0:0:
320,192,24853,1,0,0:0:0:0:
64,192,25014,1,0,0:0:0:0:
320,192,25175,1,8,0:0:0:0:
192,192,25336,1,0,0:0:0:0:
448,192,25498,1,8,0:0:0:0:
64,192,25498,1,0,0:0:0:0:
192,192,25820,1,8,0:0:0:0:
320,192,25982,1,0,0:0:0:0:
448,192,26143,1,8,0:0:0:0:
64,192,26143,1,0,0:0:0:0:
192,192,26466,1,8,0:0:0:0:
64,192,26627,1,0,0:0:0:0:
448,192,26788,1,8,0:0:0:0:
320,192,26788,1,0,0:0:0:0:
64,192,27111,1,8,0:0:0:0:
320,192,27272,1,0,0:0:0:0:
192,192,27433,1,0,0:0:0:0:
448,192,27433,1,8,0:0:0:0:
64,192,27595,1,0,0:0:0:0:
320,192,27756,1,8,0:0:0:0:
448,192,27917,1,0,0:0:0:0:
192,192,28078,1,0,0:0:0:0:
64,192,28078,1,8,0:0:0:0:
320,192,28401,1,8,0:0:0:0:
192,192,28562,1,8,0:0:0:0:
448,192,28724,1,8,0:0:0:0:
64,192,28724,1,0,0:0:0:0:
64,192,29046,1,8,0:0:0:0:
192,192,29207,1,0,0:0:0:0:
320,192,29369,1,0,0:0:0:0:
448,192,29369,1,8,0:0:0:0:
192,192,29691,1,8,0:0:0:0:
320,192,29853,1,0,0:0:0:0:
448,192,30014,1,0,0:0:0:0:
64,192,30014,1,8,0:0:0:0:
192,192,30336,1,8,0:0:0:0:
64,192,30498,1,0,0:0:0:0:
320,192,30659,1,8,0:0:0:0:
448,192,30659,1,0,0:0:0:0:
64,192,30982,1,8,0:0:0:0:
192,192,31143,1,0,0:0:0:0:
448,192,31304,1,8,0:0:0:0:
320,192,31304,1,0,0:0:0:0:
320,192,31627,1,8,0:0:0:0:
192,192,31788,1,0,0:0:0:0:
64,192,31949,1,8,0:0:0:0:
448,192,31949,1,0,0:0:0:0:
320,192,32272,1,8,0:0:0:0:
192,192,32433,1,0,0:0:0:0:
64,192,32595,1,8,0:0:0:0:
448,192,32595,1,0,0:0:0:0:
320,192,32756,1,0,0:0:0:0:
192,192,32917,128,8,33078:0:0:0:0:
320,192,33078,128,0,33240:0:0:0:0:
64,192,33240,128,8,33562:0:0:0:0:
192,192,33401,128,0,33562:0:0:0:0:
448,192,33562,1,8,0:0:0:0:
320,192,33562,1,0,0:0:0:0:
192,192,33885,1,4,0:0:0:0:
448,192,33885,128,0,34207:0:0:0:0:
320,192,33885,1,8,0:0:0:0:
64,192,34207,1,8,0:0:0:0:
192,192,34207,1,0,0:0:0:0:
320,192,34530,128,0,34853:0:0:0:0:
192,192,34530,1,0,0:0:0:0:
64,192,34853,1,8,0:0:0:0:
448,192,34853,1,0,0:0:0:0:
448,192,35175,1,0,0:0:0:0:
192,192,35175,1,0,0:0:0:0:
320,192,35336,1,0,0:0:0:0:
64,192,35498,1,8,0:0:0:0:
448,192,35498,1,0,0:0:0:0:
192,192,35659,1,0,0:0:0:0:
448,192,35820,1,0,0:0:0:0:
320,192,35820,1,0,0:0:0:0:
192,192,35982,1,0,0:0:0:0:
64,192,36143,1,8,0:0:0:0:
320,192,36143,1,0,0:0:0:0:
448,192,36304,1,0,0:0:0:0:
192,192,36466,128,0,36788:0:0:0:0:
320,192,36466,1,0,0:0:0:0:
448,192,36788,1,8,0:0:0:0:
64,192,36788,1,0,0:0:0:0:
64,192,37111,128,0,37433:0:0:0:0:
320,192,37111,1,0,0:0:0:0:
448,192,37433,1,8,0:0:0:0:
192,192,37433,1,0,0:0:0:0:
320,192,37756,1,0,0:0:0:0:
64,192,37756,1,0,0:0:0:0:
448,192,38078,1,8,0:0:0:0:
192,192,38078,1,0,0:0:0:0:
320,192,38240,1,0,0:0:0:0:
64,192,38401,1,0,0:0:0:0:
448,192,38401,1,0,0:0:0:0:
320,192,38482,1,0,0:0:0:0:
192,192,38562,1,0,0:0:0:0:
448,192,38724,1,8,0:0:0:0:
320,192,38724,1,0,0:0:0:0:
64,192,38885,1,0,0:0:0:0:
192,192,38966,1,8,0:0:0:0:
320,192,39046,1,8,0:0:0:0:
448,192,39046,128,0,39691:0:0:0:0:
64,192,39046,1,4,0:0:0:0:
320,192,39369,1,8,0:0:0:0:
192,192,39369,1,0,0:0:0:0:
192,192,39691,1,0,0:0:0:0:
64,192,39691,1,0,0:0:0:0:
320,192,39853,1,0,0:0:0:0:
64,192,40014,1,0,0:0:0:0:
448,192,40014,1,8,0:0:0:0:
192,192,40175,1,0,0:0:0:0:
320,192,40336,1,0,0:0:0:0:
64,192,40336,128,0,40982:0:0:0:0:
448,192,40659,1,8,0:0:0:0:
192,192,40659,1,0,0:0:0:0:
320,192,40982,1,0,0:0:0:0:
448,192,40982,1,0,0:0:0:0:
192,192,41143,1,0,0:0:0:0:
64,192,41304,1,0,0:0:0:0:
448,192,41304,1,8,0:0:0:0:
320,192,41466,1,0,0:0:0:0:
448,192,41627,1,0,0:0:0:0:
192,192,41627,1,0,0:0:0:0:
64,192,41788,1,0,0:0:0:0:
448,192,41949,1,8,0:0:0:0:
320,192,41949,1,0,0:0:0:0:
192,192,42111,1,0,0:0:0:0:
320,192,42272,1,0,0:0:0:0:
64,192,42272,1,0,0:0:0:0:
192,192,42433,1,0,0:0:0:0:
320,192,42595,1,8,0:0:0:0:
448,192,42595,1,0,0:0:0:0:
192,192,42756,1,0,0:0:0:0:
320,192,42917,1,0,0:0:0:0:
448,192,43078,1,0,0:0:0:0:
64,192,43078,1,4,0:0:0:0:
192,192,43078,1,0,0:0:0:0:
320,192,43240,1,0,0:0:0:0:
64,192,43401,1,0,0:0:0:0:
320,192,43562,1,8,0:0:0:0:
192,192,43724,1,8,0:0:0:0:
320,192,43885,1,8,0:0:0:0:
448,192,43966,1,8,0:0:0:0:
320,192,44046,1,8,0:0:0:0:
192,192,44127,1,8,0:0:0:0:
448,192,44207,1,2,0:0:0:0:
64,192,44207,1,8,0:0:0:0:
320,192,44207,1,0,0:0:0:0:
320,192,44691,1,2,0:0:0:0:
64,192,44691,1,0,0:0:0:0:
192,192,44691,1,0,0:0:0:0:
192,192,45175,1,0,0:0:0:0:
448,192,45175,1,2,0:0:0:0:
320,192,45175,1,0,0:0:0:0:
448,192,46143,1,0,0:0:0:0:
64,192,46304,1,0,0:0:0:0:
192,192,46466,1,0,0:0:0:0:
320,192,46627,1,0,0:0:0:0:
448,192,46788,1,2,0:0:0:0:
64,192,46788,1,0,0:0:0:0:
192,192,46788,1,0,0:0:0:0:
320,192,47111,1,0,0:0:0:0:
192,192,47272,1,0,0:0:0:0:
448,192,47272,1,2,0:0:0:0:
64,192,47272,1,0,0:0:0:0:
192,192,47595,1,0,0:0:0:0:
448,192,47756,1,2,0:0:0:0:
64,192,47756,1,0,0:0:0:0:
320,192,47756,1,0,0:0:0:0:
192,192,48562,128,0,49046:0:0:0:0:
64,192,49046,128,0,49369:0:0:0:0:
192,192,49369,1,0,0:0:0:0:
448,192,49369,128,0,50659:0:0:0:0:
192,192,50014,1,0,0:0:0:0:
320,192,50336,1,0,0:0:0:0:
64,192,50659,128,0,51304:0:0:0:0:
192,192,51143,1,0,0:0:0:0:
320,192,51224,1,0,0:0:0:0:
448,192,51304,1,2,0:0:0:0:
192,192,51304,1,4,0:0:0:0:
320,192,51466,1,8,0:0:0:0:
192,192,51546,1,8,0:0:0:0:
448,192,51627,1,8,0:0:0:0:
320,192,51707,1,8,0:0:0:0:
192,192,51788,1,8,0:0:0:0:
64,192,51869,1,8,0:0:0:0:
192,192,51949,1,0,0:0:0:0:
448,192,51949,1,4,0:0:0:0:
320,192,52272,1,8,0:0:0:0:
64,192,52272,1,0,0:0:0:0:
192,192,52433,1,8,0:0:0:0:
448,192,52595,1,0,0:0:0:0:
320,192,52595,1,8,0:0:0:0:
320,192,52756,1,8,0:0:0:0:
448,192,52917,1,0,0:0:0:0:
192,192,52917,1,8,0:0:0:0:
192,192,53078,1,8,0:0:0:0:
448,192,53240,1,0,0:0:0:0:
64,192,53240,1,8,0:0:0:0:
192,192,53885,128,0,54207:0:0:0:0:
320,192,54207,128,0,54530:0:0:0:0:
64,192,54530,1,4,0:0:0:0:
448,192,54530,1,8,0:0:0:0:
192,192,54530,1,0,0:0:0:0:
320,192,54691,1,0,0:0:0:0:
192,192,54853,1,0,0:0:0:0:
448,192,55014,1,0,0:0:0:0:
192,192,55175,1,0,0:0:0:0:
64,192,55175,1,8,0:0:0:0:
320,192,55336,1,0,0:0:0:0:
192,192,55498,1,0,0:0:0:0:
448,192,55659,1,0,0:0:0:0:
64,192,55820,1,8,0:0:0:0:
320,192,55820,1,0,0:0:0:0:
192,192,55982,1,0,0:0:0:0:
320,192,56143,1,0,0:0:0:0:
64,192,56304,1,0,0:0:0:0:
320,192,56466,1,0,0:0:0:0:
448,192,56466,1,8,0:0:0:0:
192,192,56627,1,0,0:0:0:0:
448,192,56788,1,0,0:0:0:0:
320,192,56949,1,0,0:0:0:0:
64,192,57111,1,8,0:0:0:0:
192,192,57111,1,0,0:0:0:0:
320,192,57272,1,0,0:0:0:0:
192,192,57433,1,0,0:0:0:0:
448,192,57595,1,0,0:0:0:0:
64,192,57756,1,8,0:0:0:0:
320,192,57756,1,0,0:0:0:0:
192,192,57917,1,0,0:0:0:0:
64,192,58078,1,0,0:0:0:0:
320,192,58240,1,0,0:0:0:0:
192,192,58401,1,8,0:0:0:0:
448,192,58401,128,0,59046:0:0:0:0:
320,192,58724,1,0,0:0:0:0:
192,192,58885,1,0,0:0:0:0:
64,192,59046,128,8,59691:0:0:0:0:
320,192,59207,1,8,0:0:0:0:
448,192,59288,1,0,0:0:0:0:
192,192,59369,1,8,0:0:0:0:
448,192,59530,1,8,0:0:0:0:
320,192,59611,1,0,0:0:0:0:
448,192,59691,1,8,0:0:0:0:
192,192,59691,1,4,0:0:0:0:
320,192,59853,1,0,0:0:0:0:
192,192,60014,1,0,0:0:0:0:
320,192,60175,1,0,0:0:0:0:
448,192,60336,1,0,0:0:0:0:
64,192,60336,1,8,0:0:0:0:
320,192,60498,1,0,0:0:0:0:
448,192,60659,1,0,0:0:0:0:
192,192,60820,1,0,0:0:0:0:
448,192,60982,1,0,0:0:0:0:
320,192,60982,1,8,0:0:0:0:
192,192,61143,1,0,0:0:0:0:
64,192,61304,1,0,0:0:0:0:
448,192,61466,1,0,0:0:0:0:
320,192,61627,1,0,0:0:0:0:
64,192,61627,1,8,0:0:0:0:
192,192,61788,1,0,0:0:0:0:
448,192,61949,1,0,0:0:0:0:
192,192,62111,1,0,0:0:0:0:
64,192,62272,1,8,0:0:0:0:
320,192,62272,1,0,0:0:0:0:
320,192,62433,1,0,0:0:0:0:
192,192,62514,1,0,0:0:0:0:
448,192,62595,1,8,0:0:0:0:
64,192,62595,1,0,0:0:0:0:
448,192,62756,1,0,0:0:0:0:
320,192,62836,1,0,0:0:0:0:
192,192,62917,1,0,0:0:0:0:
64,192,62917,1,8,0:0:0:0:
64,192,63078,1,0,0:0:0:0:
192,192,63159,1,0,0:0:0:0:
320,192,63240,1,0,0:0:0:0:
448,192,63240,1,8,0:0:0:0:
192,192,63401,1,0,0:0:0:0:
320,192,63482,1,0,0:0:0:0:
448,192,63562,1,0,0:0:0:0:
64,192,63562,1,8,0:0:0:0:
320,192,63724,1,8,0:0:0:0:
64,192,63885,1,8,0:0:0:0:
448,192,63885,1,0,0:0:0:0:
192,192,64046,1,8,0:0:0:0:
320,192,64207,1,0,0:0:0:0:
64,192,64207,1,8,0:0:0:0:
448,192,64530,1,0,0:0:0:0:
192,192,64691,1,0,0:0:0:0:
320,192,64853,128,0,65175:0:0:0:0:
64,192,65175,1,4,0:0:0:0:
192,192,65175,1,0,0:0:0:0:
448,192,65175,1,4,0:0:0:0:
320,192,65336,1,0,0:0:0:0:
64,192,65498,1,8,0:0:0:0:
448,192,65498,1,0,0:0:0:0:
192,192,65659,1,0,0:0:0:0:
320,192,65820,1,0,0:0:0:0:
192,192,65982,1,0,0:0:0:0:
320,192,66143,1,0,0:0:0:0:
64,192,66143,1,8,0:0:0:0:
448,192,66304,1,0,0:0:0:0:
192,192,66466,1,0,0:0:0:0:
448,192,66627,1,0,0:0:0:0:
320,192,66788,1,0,0:0:0:0:
64,192,66788,1,8,0:0:0:0:
448,192,66949,1,0,0:0:0:0:
192,192,67111,1,0,0:0:0:0:
64,192,67272,1,0,0:0:0:0:
448,192,67433,1,0,0:0:0:0:
320,192,67433,1,8,0:0:0:0:
192,192,67595,1,0,0:0:0:0:
320,192,67756,1,0,0:0:0:0:
64,192,67917,1,0,0:0:0:0:
448,192,68078,1,0,0:0:0:0:
320,192,68078,1,8,0:0:0:0:
192,192,68240,1,0,0:0:0:0:
448,192,68401,1,0,0:0:0:0:
64,192,68401,1,8,0:0:0:0:
320,192,68562,1,0,0:0:0:0:
192,192,68724,1,8,0:0:0:0:
448,192,68724,1,2,0:0:0:0:
64,192,68724,1,0,0:0:0:0:
320,192,69046,1,2,0:0:0:0:
64,192,69046,1,0,0:0:0:0:
192,192,69046,1,0,0:0:0:0:
320,192,69369,1,0,0:0:0:0:
448,192,69369,1,2,0:0:0:0:
192,192,69369,1,0,0:0:0:0:
64,192,69530,1,8,0:0:0:0:
192,192,69611,1,8,0:0:0:0:
320,192,69691,1,8,0:0:0:0:
448,192,69772,1,8,0:0:0:0:
192,192,69853,1,8,0:0:0:0:
320,192,69933,1,8,0:0:0:0:
64,192,70014,1,4,0:0:0:0:
448,192,70014,1,8,0:0:0:0:
192,192,70175,1,0,0:0:0:0:
320,192,70336,1,0,0:0:0:0:
64,192,70498,1,0,0:0:0:0:
448,192,70659,1,8,0:0:0:0:
320,192,70659,1,0,0:0:0:0:
192,192,70820,1,0,0:0:0:0:
448,192,70982,1,0,0:0:0:0:
320,192,71143,1,0,0:0:0:0:
192,192,71304,1,8,0:0:0:0:
64,192,71304,128,0,71949:0:0:0:0:
320,192,71466,1,0,0:0:0:0:
448,192,71627,1,0,0:0:0:0:
192,192,71788,1,0,0:0:0:0:
320,192,71949,1,8,0:0:0:0:
448,192,71949,128,0,72595:0:0:0:0:
192,192,72111,1,0,0:0:0:0:
64,192,72272,1,0,0:0:0:0:
192,192,72433,1,0,0:0:0:0:
320,192,72595,1,0,0:0:0:0:
64,192,72595,1,8,0:0:0:0:
192,192,72756,1,0,0:0:0:0:
320,192,72836,1,0,0:0:0:0:
192,192,72917,1,8,0:0:0:0:
448,192,72917,1,0,0:0:0:0:
320,192,73078,1,0,0:0:0:0:
192,192,73159,1,0,0:0:0:0:
320,192,73240,1,8,0:0:0:0:
64,192,73240,1,0,0:0:0:0:
448,192,73401,1,0,0:0:0:0:
320,192,73482,1,0,0:0:0:0:
64,192,73562,1,8,0:0:0:0:
192,192,73562,1,0,0:0:0:0:
64,192,73724,1,0,0:0:0:0:
192,192,73804,1,0,0:0:0:0:
320,192,73885,1,0,0:0:0:0:
448,192,73885,1,8,0:0:0:0:
192,192,74046,1,8,0:0:0:0:
64,192,74207,1,0,0:0:0:0:
320,192,74207,1,8,0:0:0:0:
192,192,74369,1,8,0:0:0:0:
448,192,74530,1,0,0:0:0:0:
320,192,74530,1,8,0:0:0:0:
192,192,74853,1,0,0:0:0:0:
64,192,74853,1,4,0:0:0:0:
320,192,75014,1,0,0:0:0:0:
448,192,75175,1,0,0:0:0:0:
192,192,75175,128,0,75498:0:0:0:0:
448,192,75498,1,4,0:0:0:0:
64,192,75498,1,8,0:0:0:0:
320,192,75498,1,0,0:0:0:0:
320,192,75659,1,0,0:0:0:0:
192,192,75820,1,0,0:0:0:0:
64,192,75820,1,8,0:0:0:0:
448,192,75982,1,0,0:0:0:0:
64,192,76143,1,0,0:0:0:0:
192,192,76304,1,0,0:0:0:0:
320,192,76466,1,8,0:0:0:0:
448,192,76466,1,0,0:0:0:0:
192,192,76627,1,0,0:0:0:0:
448,192,76788,1,0,0:0:0:0:
320,192,76949,1,0,0:0:0:0:
192,192,77111,1,0,0:0:0:0:
64,192,77111,1,8,0:0:0:0:
320,192,77272,1,0,0:0:0:0:
448,192,77433,1,0,0:0:0:0:
192,192,77595,1,0,0:0:0:0:
64,192,77756,1,8,0:0:0:0:
320,192,77756,1,0,0:0:0:0:
192,192,77917,1,0,0:0:0:0:
320,192,78078,1,0,0:0:0:0:
192,192,78240,1,0,0:0:0:0:
448,192,78401,1,0,0:0:0:0:
64,192,78401,1,8,0:0:0:0:
320,192,78562,1,8,0:0:0:0:
192,192,78724,1,8,0:0:0:0:
64,192,78885,1,8,0:0:0:0:
320,192,79046,1,8,0:0:0:0:
448,192,79046,1,2,0:0:0:0:
192,192,79046,1,0,0:0:0:0:
192,192,79369,1,2,0:0:0:0:
64,192,79369,1,0,0:0:0:0:
448,192,79369,1,0,0:0:0:0:
320,192,79691,1,2,0:0:0:0:
448,192,79691,1,4,0:0:0:0:
64,192,79691,1,0,0:0:0:0:
192,192,79853,1,0,0:0:0:0:
64,192,79933,1,0,0:0:0:0:
320,192,80014,1,0,0:0:0:0:
192,192,80095,1,0,0:0:0:0:
448,192,80175,1,0,0:0:0:0:
320,192,80256,1,0,0:0:0:0:
64,192,80336,1,4,0:0:0:0:
448,192,80336,1,8,0:0:0:0:
192,192,80498,1,0,0:0:0:0:
64,192,80659,1,0,0:0:0:0:
192,192,80820,1,0,0:0:0:0:
448,192,80982,1,8,0:0:0:0:
320,192,80982,1,0,0:0:0:0:
64,192,81143,1,0,0:0:0:0:
320,192,81304,1,0,0:0:0:0:
192,192,81466,1,0,0:0:0:0:
448,192,81627,1,8,0:0:0:0:
64,192,81627,1,0,0:0:0:0:
192,192,81788,1,0,0:0:0:0:
320,192,81949,1,0,0:0:0:0:
192,192,82111,1,0,0:0:0:0:
64,192,82272,1,0,0:0:0:0:
320,192,82272,1,8,0:0:0:0:
448,192,82433,1,0,0:0:0:0:
64,192,82595,1,0,0:0:0:0:
320,192,82756,1,0,0:0:0:0:
448,192,82917,1,8,0:0:0:0:
192,192,82917,1,0,0:0:0:0:
320,192,83078,1,0,0:0:0:0:
192,192,83159,1,0,0:0:0:0:
64,192,83240,1,0,0:0:0:0:
320,192,83240,1,8,0:0:0:0:
192,192,83401,1,0,0:0:0:0:
320,192,83482,1,0,0:0:0:0:
448,192,83562,1,8,0:0:0:0:
192,192,83562,1,0,0:0:0:0:
320,192,83724,1,0,0:0:0:0:
192,192,83804,1,0,0:0:0:0:
64,192,83885,1,0,0:0:0:0:
448,192,83885,1,8,0:0:0:0:
192,192,84046,1,0,0:0:0:0:
320,192,84127,1,0,0:0:0:0:
448,192,84207,1,0,0:0:0:0:
64,192,84207,1,8,0:0:0:0:
192,192,84369,1,8,0:0:0:0:
320,192,84369,1,0,0:0:0:0:
320,192,84530,1,0,0:0:0:0:
448,192,84530,1,0,0:0:0:0:
64,192,84691,1,8,0:0:0:0:
192,192,84691,1,0,0:0:0:0:
192,192,84853,1,8,0:0:0:0:
448,192,84853,1,2,0:0:0:0:
320,192,84853,1,0,0:0:0:0:
64,192,85014,1,0,0:0:0:0:
192,192,85095,1,0,0:0:0:0:
320,192,85175,1,0,0:0:0:0:
448,192,85256,1,0,0:0:0:0:
320,192,85336,1,0,0:0:0:0:
192,192,85417,1,0,0:0:0:0:
448,192,85498,1,8,0:0:0:0:
64,192,85498,1,4,0:0:0:0:
320,192,85659,1,0,0:0:0:0:
192,192,85820,1,0,0:0:0:0:
64,192,85820,1,8,0:0:0:0:
320,192,85982,1,0,0:0:0:0:
448,192,86143,1,8,0:0:0:0:
64,192,86143,1,0,0:0:0:0:
320,192,86314,1,0,0:0:0:0:
192,192,86485,1,0,0:0:0:0:
64,192,86657,1,0,0:0:0:0:
448,192,86828,1,0,0:0:0:0:
320,192,86828,1,8,0:0:0:0:
64,192,87021,1,8,0:0:0:0:
192,192,87021,1,0,0:0:0:0:
320,192,87217,1,8,0:0:0:0:
192,192,87217,1,0,0:0:0:0:
192,192,87426,1,8,0:0:0:0:
64,192,87426,1,0,0:0:0:0:
448,192,87640,1,8,0:0:0:0:
320,192,87640,1,0,0:0:0:0:
192,192,87862,1,8,0:0:0:0:
320,192,87862,1,0,0:0:0:0:
448,192,88112,1,8,0:0:0:0:
320,192,88112,1,0,0:0:0:0:
64,192,88384,1,8,0:0:0:0:
192,192,88384,1,0,0:0:0:0:
64,192,89660,1,2,0:0:0:0:
448,192,89660,1,8,0:0:0:0:
192,192,89821,1,8,0:0:0:0:
320,192,89901,1,8,0:0:0:0:
448,192,89982,1,8,0:0:0:0:
64,192,89982,1,2,0:0:0:0:
192,192,90143,1,8,0:0:0:0:
320,192,90224,1,8,0:0:0:0:
64,192,90305,1,0,0:0:0:0:
448,192,90305,1,8,0:0:0:0:
192,192,90305,1,0,0:0:0:0:
192,192,90466,1,0,0:0:0:0:
320,192,90547,1,0,0:0:0:0:
64,192,90627,1,0,0:0:0:0:
448,192,90627,1,0,0:0:0:0:
320,192,90708,1,0,0:0:0:0:
192,192,90789,1,0,0:0:0:0:
64,192,90869,1,0,0:0:0:0:
448,192,90950,1,0,0:0:0:0:
320,192,90950,1,8,0:0:0:0:
192,192,91030,1,8,0:0:0:0:
320,192,91111,1,8,0:0:0:0:
192,192,91192,1,8,0:0:0:0:
64,192,91272,1,8,0:0:0:0:
448,192,91353,1,8,0:0:0:0:
320,192,91434,1,8,0:0:0:0:
192,192,91514,1,8,0:0:0:0:
448,192,91595,1,0,0:0:0:0:
64,192,91595,1,8,0:0:0:0:
192,192,91756,1,8,0:0:0:0:
448,192,91918,1,8,0:0:0:0:
64,192,91918,1,0,0:0:0:0:
320,192,92079,1,8,0:0:0:0:
64,192,92240,1,8,0:0:0:0:
192,192,92240,1,2,0:0:0:0:
448,192,92240,1,0,0:0:0:0:
64,192,92563,1,8,0:0:0:0:
192,192,92643,1,0,0:0:0:0:
320,192,92724,1,0,0:0:0:0:
448,192,92805,1,0,0:0:0:0:
192,192,92885,1,4,0:0:0:0:
64,192,92885,128,0,93530:0:0:0:0:
320,192,92885,1,0,0:0:0:0:
192,192,93047,1,0,0:0:0:0:
320,192,93208,128,8,93530:0:0:0:0:
448,192,93530,1,0,0:0:0:0:
320,192,93611,1,0,0:0:0:0:
192,192,93692,1,0,0:0:0:0:
64,192,93772,1,0,0:0:0:0:
192,192,93853,1,8,0:0:0:0:
320,192,94014,1,0,0:0:0:0:
64,192,94176,1,0,0:0:0:0:
448,192,94176,128,0,94821:0:0:0:0:
320,192,94337,1,0,0:0:0:0:
192,192,94498,128,8,94821:0:0:0:0:
64,192,94821,1,0,0:0:0:0:
320,192,94901,1,0,0:0:0:0:
448,192,94982,1,0,0:0:0:0:
320,192,95063,1,0,0:0:0:0:
192,192,95143,1,8,0:0:0:0:
320,192,95305,1,0,0:0:0:0:
192,192,95466,1,0,0:0:0:0:
64,192,95466,128,0,96111:0:0:0:0:
448,192,95627,1,0,0:0:0:0:
192,192,95789,128,8,96111:0:0:0:0:
448,192,96111,1,0,0:0:0:0:
320,192,96192,1,0,0:0:0:0:
64,192,96272,1,0,0:0:0:0:
192,192,96353,1,0,0:0:0:0:
320,192,96434,1,8,0:0:0:0:
192,192,96595,1,0,0:0:0:0:
320,192,96756,1,0,0:0:0:0:
448,192,96756,128,0,97079:0:0:0:0:
64,192,96918,1,0,0:0:0:0:
320,192,97079,1,8,0:0:0:0:
192,192,97160,1,0,0:0:0:0:
64,192,97240,1,0,0:0:0:0:
192,192,97321,1,0,0:0:0:0:
320,192,97401,1,0,0:0:0:0:
192,192,97724,1,8,0:0:0:0:
448,192,97885,1,0,0:0:0:0:
320,192,97966,1,0,0:0:0:0:
192,192,98047,1,0,0:0:0:0:
448,192,98047,128,0,98692:0:0:0:0:
64,192,98047,1,4,0:0:0:0:
320,192,98208,1,0,0:0:0:0:
64,192,98369,128,8,98692:0:0:0:0:
192,192,98369,1,0,0:0:0:0:
192,192,98692,1,8,0:0:0:0:
320,192,98772,1,8,0:0:0:0:
448,192,98853,1,8,0:0:0:0:
320,192,98934,1,8,0:0:0:0:
192,192,99014,1,8,0:0:0:0:
320,192,99176,1,0,0:0:0:0:
192,192,99256,1,0,0:0:0:0:
448,192,99337,1,0,0:0:0:0:
64,192,99337,128,0,99982:0:0:0:0:
192,192,99498,1,8,0:0:0:0:
320,192,99579,1,8,0:0:0:0:
448,192,99659,128,8,99982:0:0:0:0:
192,192,99821,1,8,0:0:0:0:
320,192,99901,1,8,0:0:0:0:
192,192,99982,1,8,0:0:0:0:
320,192,100063,1,8,0:0:0:0:
448,192,100143,1,8,0:0:0:0:
320,192,100224,1,8,0:0:0:0:
192,192,100305,1,8,0:0:0:0:
64,192,100385,1,8,0:0:0:0:
192,192,100466,1,8,0:0:0:0:
320,192,100547,1,8,0:0:0:0:
192,192,100627,5,8,0:0:0:0:
64,192,100627,1,2,0:0:0:0:
448,192,100708,1,8,0:0:0:0:
320,192,100789,1,8,0:0:0:0:
192,192,100869,1,8,0:0:0:0:
64,192,100950,1,8,0:0:0:0:
320,192,101111,1,0,0:0:0:0:
448,192,101111,1,8,0:0:0:0:
64,192,101192,1,8,0:0:0:0:
192,192,101272,1,8,0:0:0:0:
320,192,101353,1,8,0:0:0:0:
448,192,101434,1,8,0:0:0:0:
192,192,101595,5,0,0:0:0:0:
448,192,101595,1,8,0:0:0:0:
320,192,101676,1,8,0:0:0:0:
192,192,101756,1,8,0:0:0:0:
64,192,101837,1,8,0:0:0:0:
192,192,101918,1,8,0:0:0:0:
320,192,102079,1,0,0:0:0:0:
64,192,102079,1,8,0:0:0:0:
192,192,102159,1,8,0:0:0:0:
320,192,102240,1,8,0:0:0:0:
448,192,102321,1,8,0:0:0:0:
320,192,102401,1,8,0:0:0:0:
64,192,102563,1,8,0:0:0:0:
448,192,102643,1,8,0:0:0:0:
64,192,102724,1,8,0:0:0:0:
448,192,102805,1,8,0:0:0:0:
192,192,102885,1,8,0:0:0:0:
320,192,102966,1,8,0:0:0:0:
192,192,103047,1,0,0:0:0:0:
320,192,103127,1,0,0:0:0:0:
448,192,103208,1,0,0:0:0:0:
64,192,103208,1,0,0:0:0:0:
320,192,103289,1,0,0:0:0:0:
192,192,103369,1,0,0:0:0:0:
64,192,103450,1,0,0:0:0:0:
192,192,103530,1,0,0:0:0:0:
64,192,103692,1,8,0:0:0:0:
448,192,103692,1,0,0:0:0:0:
192,192,103772,1,8,0:0:0:0:
320,192,103853,1,8,0:0:0:0:
448,192,103934,1,8,0:0:0:0:
320,192,104014,1,8,0:0:0:0:
448,192,104176,1,8,0:0:0:0:
64,192,104176,1,0,0:0:0:0:
320,192,104256,1,8,0:0:0:0:
192,192,104337,1,8,0:0:0:0:
64,192,104418,1,8,0:0:0:0:
448,192,104498,1,8,0:0:0:0:
320,192,104659,1,0,0:0:0:0:
64,192,104659,128,2,105143:0:0:0:0:
192,192,104740,1,8,0:0:0:0:
320,192,104821,1,8,0:0:0:0:
448,192,104901,1,8,0:0:0:0:
192,192,104982,128,2,105143:0:0:0:0:
