osu file format v12

[General]
AudioFilename: Kamiisama Nejikaki.mp3
AudioLeadIn: 0
PreviewTime: 51131
Countdown: 0
SampleSet: Normal
StackLeniency: 0.5
Mode: 0
LetterboxInBreaks: 0
WidescreenStoryboard: 0

[Editor]
Bookmarks: 22789,30500,129300,136060,137434,149581,178314,205356
DistanceSpacing: 1.2
BeatDivisor: 4
GridSize: 4
TimelineZoom: 2.4

[Metadata]
Title:Kamisama Nejimaki
TitleUnicode:カミサマネジマキ
Artist:kemu
ArtistUnicode:kemu
Creator:rui
Version:Hard
Source:
Tags:gumi vocaloid vocaloid3 wring hatsuko Suzumu Megpoid ke-sanβ
BeatmapID:222244
BeatmapSetID:56217

[Difficulty]
HPDrainRate:5
CircleSize:4
OverallDifficulty:5
ApproachRate:7
SliderMultiplier:0.899999999999999
SliderTickRate:2

[Events]
//Background and Video events
0,0,"BG kamisama.jpg",0,0
Video,0,"movie kamisama.flv"
//Break Periods
2,66943,79364
2,122717,128396
2,142999,148765
2,178492,182480
//Storyboard Layer 0 (Background)
//Storyboard Layer 1 (Fail)
//Storyboard Layer 2 (Pass)
//Storyboard Layer 3 (Foreground)
//Storyboard Sound Samples
//Background Colour Transformations
3,100,163,162,255

[TimingPoints]
6003,211.267605633803,4,1,1,70,1,0
7271,-100,4,1,2,70,0,0
7324,-100,4,1,1,70,0,0
7535,-100,4,2,1,80,0,0
10070,-100,4,1,1,70,0,0
10915,-100,4,1,2,70,0,0
11021,-100,4,1,1,70,0,0
11074,211.267605633803,4,1,1,60,1,0
11174,-100,4,1,1,60,0,0
16936,-100,4,1,0,60,0,0
17623,-100,4,1,1,60,0,0
17676,-100,4,1,2,60,0,0
17781,-100,4,1,1,60,0,0
22746,-100,4,1,2,60,0,0
22852,-100,4,1,1,60,0,0
23697,-100,4,1,0,60,0,0
24225,-100,4,1,0,70,0,0
24383,-100,4,1,1,55,0,0
24436,-100,4,1,2,55,0,0
24542,-100,4,1,1,55,0,0
26074,-100,4,1,1,55,0,0
30457,-100,4,1,0,55,0,0
31250,-100,4,1,2,60,0,0
31302,-100,4,1,1,60,0,0
36214,-100,4,1,0,60,0,0
38010,-133.333333333333,4,2,1,80,0,0
43926,-133.333333333333,4,1,1,75,0,0
44665,-133.333333333333,4,1,1,70,0,0
49841,-133.333333333333,4,1,1,70,0,0
50686,-300,4,1,0,70,0,0
50792,-300,4,2,1,50,0,0
51214,-100,4,2,1,50,0,0
51478,-100,4,1,2,50,0,0
51531,-100,4,1,2,75,0,1
51584,-100,4,1,1,75,0,1
56549,-100,4,1,0,75,0,1
57922,-100,4,1,1,75,0,1
62940,-100,4,1,1,70,0,0
63362,-100,4,1,2,70,0,1
63415,-100,4,1,1,70,0,1
66743,-100,4,1,2,70,0,0
80158,-100,4,1,2,55,0,0
80528,-100,4,1,1,55,0,0
86285,-83.3333333333333,4,1,1,65,0,0
86813,-100,4,1,0,65,0,0
86919,-100,4,1,2,60,0,0
87130,-100,4,1,1,60,0,0
91989,-100,4,1,0,60,0,0
93785,-133.333333333333,4,2,1,80,0,0
99700,-133.333333333333,4,1,1,75,0,0
100440,-133.333333333333,4,1,1,70,0,0
102288,-133.333333333333,4,2,1,90,0,0
105616,-133.333333333333,4,1,1,70,0,0
106461,-300,4,1,1,70,0,0
106514,-300,4,2,1,50,0,0
106989,-100,4,2,1,50,0,0
107306,-100,4,1,2,75,0,1
107412,-100,4,1,1,75,0,1
112271,-100,4,1,0,75,0,1
113644,-100,4,1,1,75,0,1
117341,-100,4,1,1,75,0,1
118714,-100,4,1,1,70,0,1
119137,-100,4,1,2,70,0,1
119190,-100,4,1,1,70,0,1
122517,-100,4,1,2,70,0,0
129278,-133.333333333333,4,1,2,60,0,0
129383,-133.333333333333,4,1,1,60,0,0
135246,-133.333333333333,4,1,2,60,0,0
135299,-133.333333333333,4,1,2,62,0,0
135510,-133.333333333333,4,1,2,64,0,0
135721,-133.333333333333,4,1,2,66,0,0
135933,-133.333333333333,4,1,2,68,0,0
136038,-100,4,1,1,70,0,0
142746,-100,4,1,2,70,0,0
149507,-100,4,1,1,70,0,0
156267,-100,4,1,2,70,0,0
156373,-100,4,1,1,70,0,0
159964,-100,4,1,0,70,0,0
160123,-100,4,1,0,72,0,0
160334,-100,4,1,0,74,0,0
160545,-100,4,1,0,76,0,0
160757,-100,4,1,0,78,0,0
160968,-100,4,1,0,80,0,0
163081,-133.333333333333,4,2,1,100,0,0
163133,-133.333333333333,4,2,1,70,0,0
168996,-133.333333333333,4,1,1,70,0,0
169735,-133.333333333333,4,1,2,65,0,0
169894,-133.333333333333,4,1,1,65,0,0
174912,-133.333333333333,4,1,1,70,0,0
175862,-133.333333333333,4,1,1,60,0,0
176654,-133.333333333333,4,1,1,70,0,0
178292,-133.333333333333,4,2,1,80,0,0
183362,-250,4,2,1,30,0,0
184630,-100,4,1,1,70,0,0
184736,-100,4,1,1,70,0,0
185000,-100,4,1,2,70,0,0
185052,-100,4,1,2,75,0,1
185105,-100,4,1,1,75,0,1
188327,-100,4,1,1,75,0,1
190123,-100,4,2,1,95,0,0
193186,-100,4,1,1,75,0,0
193450,-100,4,1,2,80,0,0
193503,-100,4,1,2,80,0,1
193556,-100,4,1,1,80,0,1
195985,-100,4,1,0,80,0,1
196514,-100,4,1,1,80,0,1
201214,-100,4,1,1,70,0,1
201954,-100,4,1,2,75,0,1
202007,-100,4,1,1,75,0,1
205281,-100,4,1,2,75,0,1
205334,-100,4,1,2,70,0,0
205387,-100,4,1,1,70,0,0
211302,-100,4,1,0,70,0,0
211989,-100,4,1,1,70,0,0
212359,-100,4,1,2,70,0,0
212464,-100,4,1,1,70,0,0
217112,-100,4,1,2,70,0,0
217218,-100,4,1,1,70,0,0

[Colours]
Combo1 : 0,168,249
Combo2 : 128,255,0
Combo3 : 255,149,149
Combo4 : 255,157,60

[HitObjects]
80,68,6002,6,0,L|56:48,9,30
164,132,6848,2,0,P|204:148|252:144,1,89.9999999999999,0|8,0:0|0:0,0:0:0:0:
352,56,7271,2,0,P|392:80|424:116,1,89.9999999999999,0|8,0:0|0:0,0:0:0:0:
428,180,7587,6,0,B|424:220|384:248|384:248|336:228|288:244,1,180,4|0,0:0|0:0,0:0:0:0:
252,300,8116,2,0,P|224:256|228:216,1,89.9999999999999,2|0,0:0|0:0,0:0:0:0:
256,88,8538,2,0,L|244:136,1,45,2|0,0:0|0:0,0:0:0:0:
245,131,8855,2,0,P|195:135|162:156,1,89.9999999999999,2|0,0:0|0:0,0:0:0:0:
96,276,9278,2,0,B|140:280|180:244|180:244|228:236|268:260,1,180,2|0,0:0|0:0,0:0:0:0:
308,312,9806,2,0,P|356:316|396:292,1,89.9999999999999,2|0,0:0|0:0,0:0:0:0:
440,252,10123,6,0,L|464:232,14,22.5,8|0|0|0|8|0|0|0|8|0|0|0|8|0|0,0:0|0:0|0:0|0:0|0:0|0:0|0:0|0:0|0:0|0:0|0:0|0:0|0:0|0:0|0:0,0:0:0:0:
440,252,10968,6,0,P|368:244|320:208,1,135,4|8,0:0|0:0,0:0:0:0:
308,116,11496,2,0,P|264:132|232:168,1,89.9999999999999,0|8,0:0|0:0,0:0:0:0:
164,216,11919,2,0,P|208:232|240:268,1,89.9999999999999,0|8,0:0|0:0,0:0:0:0:
300,322,12342,2,0,P|264:348|220:352,1,89.9999999999999,0|8,0:0|0:0,0:0:0:0:
176,340,12658,1,0,0:0:0:0:
92,236,12870,6,0,P|156:228|220:264,1,135,8|0,0:0|0:0,0:0:0:0:
304,232,13398,1,0,0:0:0:0:
386,339,13609,2,0,P|338:339|300:324,1,89.9999999999999,2|2,0:0|0:0,0:0:0:0:
256,308,13926,1,0,0:0:0:0:
128,348,14137,1,2,0:0:0:0:
128,348,14349,6,0,B|140:296|140:296|160:256|208:248,1,135,0|8,0:0|0:0,0:0:0:0:
232,164,14877,2,0,P|272:188|296:224,1,89.9999999999999,0|8,0:0|0:0,0:0:0:0:
448,316,15299,2,0,P|408:292|384:256,1,89.9999999999999,0|8,0:0|0:0,0:0:0:0:
348,176,15722,2,0,P|348:129|367:90,1,89.9999999999999,0|8,0:0|0:0,0:0:0:0:
396,56,16039,1,0,0:0:0:0:
488,156,16250,5,0,0:0:0:0:
488,156,16356,2,0,B|464:196|420:208|420:208|368:208|332:236,1,180,8|8,0:0|0:0,0:0:0:0:
268,296,16989,2,0,P|232:328|188:336,2,89.9999999999999,2|2|2,0:0|0:0|0:0,0:0:0:0:
280,252,17518,1,2,0:0:0:0:
280,252,17729,6,0,B|268:200|268:200|296:168|348:156,1,135,4|8,0:0|0:0,0:0:0:0:
445,36,18257,2,0,P|413:64|368:76,1,89.9999999999999,0|8,0:0|0:0,0:0:0:0:
284,44,18680,2,0,P|263:81|225:107,1,89.9999999999999,0|8,0:0|0:0,0:0:0:0:
140,76,19102,2,0,P|133:118|106:156,1,89.9999999999999,0|8,0:0|0:0,0:0:0:0:
64,168,19419,1,0,0:0:0:0:
96,272,19630,5,0,0:0:0:0:
96,272,19736,2,0,P|140:276|184:296,2,89.9999999999999,0|0|8,0:0|0:0|0:0,0:0:0:0:
160,208,20370,2,0,P|202:219|242:246,1,89.9999999999999,2|2,0:0|0:0,0:0:0:0:
276,328,20792,2,0,L|361:298,1,89.9999999999999,2|2,0:0|0:0,0:0:0:0:
361,297,21109,6,0,P|294:292|240:253,1,135,0|8,0:0|0:0,0:0:0:0:
233,161,21637,2,0,P|189:177|160:208,1,89.9999999999999,0|8,0:0|0:0,0:0:0:0:
168,300,22060,2,0,P|212:284|244:248,1,89.9999999999999,0|8,0:0|0:0,0:0:0:0:
312,200,22482,2,0,P|320:153|304:108,1,89.9999999999999,8|8,0:0|0:0,0:0:0:0:
288,72,22799,1,0,0:0:0:0:
156,44,23011,6,0,L|112:20,2,45,8|0|8,0:0|0:0|0:0,0:0:0:0:
188,72,23327,2,0,P|172:112|136:152,1,89.9999999999999,8|0,0:0|0:0,0:0:0:0:
248,172,23750,2,0,P|244:212|272:256,2,89.9999999999999,2|2|2,0:0|0:0|0:0,0:0:0:0:
372,44,24489,6,0,P|400:96|384:172,1,135,4|8,0:0|0:0,0:0:0:0:
444,240,25018,2,0,P|408:268|360:280,1,89.9999999999999,0|8,0:0|0:0,0:0:0:0:
284,316,25440,2,0,L|240:304,1,45,8|0,0:0|0:0,0:0:0:0:
168,252,25757,2,0,L|268:224,1,89.9999999999999,0|8,0:0|0:0,0:0:0:0:
340,200,26180,6,0,P|318:145|249:108,1,135,0|8,0:0|0:0,0:0:0:0:
216,28,26708,2,0,L|124:52,1,89.9999999999999,0|8,0:0|0:0,0:0:0:0:
100,136,27130,2,0,L|160:120,1,45,8|0,0:0|0:0,0:0:0:0:
56,238,27447,2,0,L|144:216,1,89.9999999999999,0|8,0:0|0:0,0:0:0:0:
144,216,27870,6,0,B|192:264|192:264|232:260|264:236,1,135,0|8,0:0|0:0,0:0:0:0:
212,164,28398,2,0,P|256:152|300:124,1,89.9999999999999,0|8,0:0|0:0,0:0:0:0:
416,188,28820,2,0,L|372:176,1,45,8|0,0:0|0:0,0:0:0:0:
294,129,29137,2,0,P|268:166|252:216,1,89.9999999999999,0|8,0:0|0:0,0:0:0:0:
172,244,29560,6,0,B|218:275|214:314|274:330,1,135,8|8,0:0|0:0,0:0:0:0:
304,244,30088,2,0,B|350:212|346:173|406:157,1,135,8|0,0:0|0:0,0:0:0:0:
404,157,30511,2,0,L|456:140,3,45,2|0|2|0,0:0|0:0|0:0|0:0,0:0:0:0:
447,143,30933,2,2,B|419:123|418:101|383:78,1,89.9999999999999,2|0,0:0|0:0,0:0:0:0:
352,48,31250,6,0,P|288:68|224:104,1,135,4|8,0:0|0:0,0:0:0:0:
156,156,31778,2,0,P|196:176|248:192,1,89.9999999999999,0|8,0:0|0:0,0:0:0:0:
312,244,32201,2,0,L|256:264,1,45,8|0,0:0|0:0,0:0:0:0:
348,184,32518,2,0,P|388:204|440:220,1,89.9999999999999,0|8,0:0|0:0,0:0:0:0:
473,140,32940,6,0,P|421:168|348:184,1,135,0|8,0:0|0:0,0:0:0:0:
312,100,33468,2,0,L|236:160,1,89.9999999999999,0|8,0:0|0:0,0:0:0:0:
152,156,33891,2,0,L|172:112,1,45,8|0,0:0|0:0,0:0:0:0:
196,220,34208,2,0,P|212:260|248:296,1,89.9999999999999,0|8,0:0|0:0,0:0:0:0:
340,344,34630,6,0,B|312:300|312:300|340:220,1,135,0|8,0:0|0:0,0:0:0:0:
428,220,35158,2,0,L|380:132,1,89.9999999999999,0|8,0:0|0:0,0:0:0:0:
408,56,35581,2,0,L|456:80,1,45,8|0,0:0|0:0,0:0:0:0:
340,80,35898,2,0,P|292:84|252:100,1,89.9999999999999,0|8,0:0|0:0,0:0:0:0:
296,200,36320,6,0,P|228:180|160:196,1,135,2|2,0:0|0:0,0:0:0:0:
124,332,36849,2,0,P|106:326|49:284,1,89.9999999999999,2|2,0:0|0:0,0:0:0:0:
208,308,37271,2,0,P|166:251|160:234,2,89.9999999999999,2|2|2,0:0|0:0|0:0,0:0:0:0:
364,344,38028,6,0,P|404:296|420:252,1,101.250003862381,4|2,0:0|0:0,0:0:0:0:
428,168,38539,2,0,P|380:192|348:224,1,67.5000025749207,0|2,0:0|0:0,0:0:0:0:
312,276,38961,2,0,L|288:320,1,33.7500012874603,0|2,0:0|0:0,0:0:0:0:
200,308,39278,2,0,L|156:216,1,101.250003862381,0|2,0:0|0:0,0:0:0:0:
140,188,39701,6,0,P|176:160|204:112,1,101.250003862381,8|2,0:0|0:0,0:0:0:0:
292,76,40229,2,0,P|308:108|332:128,1,67.5000025749207,2|0,0:0|0:0,0:0:0:0:
368,160,40546,2,0,P|368:216|392:260,1,101.250003862381,2|0,0:0|0:0,0:0:0:0:
304,300,41074,6,0,L|268:276,1,33.7500012874603,8|0,0:0|0:0,0:0:0:0:
275,281,41391,6,0,P|228:288|176:312,1,101.250003862381,0|2,0:0|0:0,0:0:0:0:
72,228,41919,2,0,L|108:252,1,33.7500012874603,2|0,0:0|0:0,0:0:0:0:
100,247,42236,6,0,P|147:240|199:216,1,101.250003862381,0|2,0:0|0:0,0:0:0:0:
204,124,42764,2,0,L|272:152,1,67.5000025749207,0|2,0:0|0:0,0:0:0:0:
308,168,43081,5,8,0:0:0:0:
200,376,43609,1,8,0:0:0:0:
152,192,44032,2,0,L|228:176,1,67.5000025749207,8|8,0:0|0:0,0:0:0:0:
292,116,44454,2,0,L|256:108,1,33.7500012874603,8|8,0:0|0:0,0:0:0:0:
296,36,44771,6,0,L|396:60,1,101.250003862381,4|8,0:0|0:0,0:0:0:0:
420,152,45299,2,0,L|354:137,1,67.5000025749207,0|8,0:0|0:0,0:0:0:0:
268,100,45722,2,0,P|248:132|245:170,1,67.5000025749207,0|8,0:0|0:0,0:0:0:0:
336,192,46144,2,0,P|332:221|312:253,1,67.5000025749207,0|8,0:0|0:0,0:0:0:0:
272,276,46461,1,0,0:0:0:0:
228,292,46567,5,8,0:0:0:0:
92,336,46884,1,8,0:0:0:0:
8,224,47201,1,8,0:0:0:0:
144,264,47518,1,8,0:0:0:0:
180,128,47834,6,0,L|164:84,2,33.7500012874603,8|0|0,0:0|0:0|0:0,0:0:0:0:
180,128,48151,2,0,B|232:104|232:136|280:104,1,101.250003862381,4|8,0:0|0:0,0:0:0:0:
306,88,49102,6,0,P|312:56|336:24,1,67.5000025749207,8|0,0:0|0:0,0:0:0:0:
396,96,49525,2,0,P|390:128|366:160,1,67.5000025749207,8|0,0:0|0:0,0:0:0:0:
292,232,49947,1,8,0:0:0:0:
212,140,50158,2,0,L|176:128,1,33.7500012874603,8|8,0:0|0:0,0:0:0:0:
68,172,50475,1,4,0:0:0:0:
68,252,50687,1,4,0:0:0:0:
68,252,51215,6,0,L|96:337,1,89.9999999999999
96,337,51549,6,0,P|161:335|225:303,1,135,4|8,0:0|0:0,0:0:0:0:
304,328,52060,2,0,P|300:284|272:244,1,89.9999999999999,0|8,0:0|0:0,0:0:0:0:
224,172,52482,2,0,L|268:160,1,45,8|0,0:0|0:0,0:0:0:0:
267,160,52799,2,0,P|312:172|352:196,1,89.9999999999999,0|8,0:0|0:0,0:0:0:0:
404,264,53222,6,0,P|432:224|432:180,1,89.9999999999999
428,140,53539,2,0,P|388:112|344:112,1,89.9999999999999,8|0,0:0|0:0,0:0:0:0:
320,148,53856,2,0,B|280:120|240:120|240:120|200:152,1,135,8|8,0:0|0:0,0:0:0:0:
44,44,54595,6,0,L|-8:24,2,45,8|0|0,0:0|0:0|0:0,0:0:0:0:
72,76,54912,2,0,B|124:56|124:56|152:80|200:88,1,135,4|8,0:0|0:0,0:0:0:0:
284,72,55440,2,0,P|276:116|248:157,1,89.9999999999999,0|8,0:0|0:0,0:0:0:0:
172,192,55863,2,0,P|133:214|83:220,1,89.9999999999999,0|8,0:0|0:0,0:0:0:0:
88,264,56180,2,0,P|126:286|176:292,1,89.9999999999999,0|8,0:0|0:0,0:0:0:0:
260,276,56602,6,0,P|256:320|224:364,2,89.9999999999999,2|2|2,0:0|0:0|0:0,0:0:0:0:
256,232,57130,2,0,P|230:195|180:173,1,89.9999999999999,0|2,0:0|0:0,0:0:0:0:
148,156,57447,2,2,B|128:128|144:96|144:96|188:92|224:112,1,135,2|0,0:0|0:0,0:0:0:0:
296,132,57975,6,0,L|338:116,1,45,8|0,0:0|0:0,0:0:0:0:
338,116,58292,6,0,B|280:100|280:100|248:76|240:28,1,135,4|8,0:0|0:0,0:0:0:0:
156,12,58820,2,0,P|128:44|116:96,1,89.9999999999999,0|8,0:0|0:0,0:0:0:0:
36,128,59243,2,0,L|25:84,1,45,8|0,0:0|0:0,0:0:0:0:
120,164,59560,2,0,P|86:196|73:237,1,89.9999999999999,0|8,0:0|0:0,0:0:0:0:
164,244,59982,6,0,P|204:224|256:212,1,89.9999999999999,8|0,0:0|0:0,0:0:0:0:
276,176,60299,2,0,P|320:178|371:194,1,89.9999999999999,0|8,0:0|0:0,0:0:0:0:
420,80,60722,1,8,0:0:0:0:
420,80,60827,2,0,P|376:92|331:95,1,89.9999999999999
288,92,61144,2,0,L|236:84,2,45,8|0|8,0:0|0:0|0:0,0:0:0:0:
400,168,61672,6,0,P|432:216|416:288,1,135,8|0,0:0|0:0,0:0:0:0:
340,236,62201,2,0,P|296:236|232:256,1,89.9999999999999,8|0,0:0|0:0,0:0:0:0:
208,280,62518,2,0,B|204:308|184:332|184:332|164:308|160:280|176:228|176:228|152:196|148:168,1,225,8|0,0:0|0:0,0:0:0:0:
240,28,63363,6,4,P|264:92|320:132,1,135,4|8,0:0|0:0,0:0:0:0:
408,124,63891,2,0,P|401:175|372:204,1,89.9999999999999,0|8,0:0|0:0,0:0:0:0:
316,324,64313,2,0,L|304:276,1,45,8|0,0:0|0:0,0:0:0:0:
305,281,64630,2,0,P|255:277|222:256,1,89.9999999999999,8|0,0:0|0:0,0:0:0:0:
88,240,65053,2,0,B|70:191|97:138|97:138|136:128|144:136,1,135,8|0,0:0|0:0,0:0:0:0:
256,172,65581,2,0,P|304:176|344:152,1,89.9999999999999,8|0,0:0|0:0,0:0:0:0:
380,100,65898,6,0,L|408:52,2,45,0|8|0,0:0|0:0|0:0,0:0:0:0:
416,160,66215,2,0,L|464:132,2,45,8|0|8,0:0|0:0|0:0,0:0:0:0:
384,224,66532,2,0,L|438:233,2,45,8|8|4,0:0|0:0|0:0,0:0:0:0:
72,44,80264,6,0,P|68:108|120:152,1,135,4|8,0:0|0:0,0:0:0:0:
204,132,80792,2,0,P|204:180|184:216,1,89.9999999999999,0|8,0:0|0:0,0:0:0:0:
100,244,81215,2,0,L|57:226,1,45,8|0,0:0|0:0,0:0:0:0:
56,316,81532,2,0,L|13:333,2,45,8|0|8,0:0|0:0|0:0,0:0:0:0:
148,316,81954,6,0,B|196:272|196:272|236:272|276:296,1,135,0|8,0:0|0:0,0:0:0:0:
340,336,82482,2,0,B|356:308|356:268|356:268|332:240,1,89.9999999999999,0|8,0:0|0:0,0:0:0:0:
284,184,82905,2,0,L|248:136,1,45,8|0,0:0|0:0,0:0:0:0:
168,156,83222,2,0,L|220:232,1,89.9999999999999,0|8,0:0|0:0,0:0:0:0:
128,232,83644,6,0,B|88:168|88:168|88:124|124:92,1,135,0|8,0:0|0:0,0:0:0:0:
192,84,84172,2,0,P|225:107|244:152,1,89.9999999999999,0|8,0:0|0:0,0:0:0:0:
248,240,84595,2,0,P|276:272|320:288,1,89.9999999999999,8|0,0:0|0:0,0:0:0:0:
320,288,84912,2,0,P|364:272|392:240,1,89.9999999999999,8|0,0:0|0:0,0:0:0:0:
468,192,85334,6,0,P|412:152|340:164,1,135,8|0,0:0|0:0,0:0:0:0:
292,88,85863,2,0,P|229:94|173:54,1,135,8|8,0:0|0:0,0:0:0:0:
124,28,86303,6,0,P|82:55|110:96,1,107.999996704102,2|2,0:0|0:0,0:0:0:0:
220,200,86708,2,0,L|160:168,1,53.9999983520508,2|4,0:0|0:0,0:0:0:0:
84,168,87025,6,0,B|80:220|80:220|160:268,1,135,4|8,0:0|0:0,0:0:0:0:
128,348,87553,2,0,P|176:344|212:320,1,89.9999999999999,0|8,0:0|0:0,0:0:0:0:
240,236,87975,2,0,L|216:196,2,45,8|0|8,0:0|0:0|0:0,0:0:0:0:
240,236,88292,2,0,P|284:244|324:268,1,89.9999999999999,0|8,0:0|0:0,0:0:0:0:
376,340,88715,6,0,B|409:305|408:257|408:257|448:228,1,135,0|8,0:0|0:0,0:0:0:0:
456,140,89243,2,0,L|376:188,1,89.9999999999999,0|8,0:0|0:0,0:0:0:0:
296,152,89665,2,0,L|336:128,1,45,8|0,0:0|0:0,0:0:0:0:
276,224,89982,2,0,P|240:200|224:152,1,89.9999999999999,0|8,0:0|0:0,0:0:0:0:
308,88,90405,6,0,B|284:36|244:35|244:35|192:52,1,135,0|8,0:0|0:0,0:0:0:0:
96,88,90933,2,0,P|132:112|148:160,1,89.9999999999999,0|8,0:0|0:0,0:0:0:0:
136,244,91356,2,0,L|92:236,1,45,8|0,0:0|0:0,0:0:0:0:
196,200,91672,2,0,P|240:184|280:160,1,89.9999999999999,0|8,0:0|0:0,0:0:0:0:
380,196,92095,6,0,P|312:224|264:264,1,135,2|2,0:0|0:0,0:0:0:0:
172,320,92623,2,0,P|208:344|256:356,1,89.9999999999999,2|2,0:0|0:0,0:0:0:0:
348,308,93046,2,0,P|392:296|428:272,2,89.9999999999999,2|2|2,0:0|0:0|0:0,0:0:0:0:
344,188,93803,6,0,P|304:140|288:96,1,101.250003862381,4|2,0:0|0:0,0:0:0:0:
260,28,94313,2,0,P|228:48|204:84,1,67.5000025749207,0|2,0:0|0:0,0:0:0:0:
168,156,94736,2,0,L|128:136,1,33.7500012874603,0|2,0:0|0:0,0:0:0:0:
112,268,95053,2,0,L|173:237,1,67.5000025749207,0|2,0:0|0:0,0:0:0:0:
244,300,95475,6,0,P|311:314|366:315,1,101.250003862381,0|2,0:0|0:0,0:0:0:0:
372,100,96003,2,0,P|400:148|424:160,1,67.5000025749207,2|0,0:0|0:0,0:0:0:0:
444,184,96320,2,0,P|436:232|452:288,1,101.250003862381,2|0,0:0|0:0,0:0:0:0:
364,324,96849,6,0,L|328:348,1,33.7500012874603,8|0,0:0|0:0,0:0:0:0:
335,343,97165,6,2,P|288:336|236:312,1,101.250003862381
172,248,97694,2,0,L|248:228,1,67.5000025749207,0|2,0:0|0:0,0:0:0:0:
332,220,98116,2,0,P|292:172|284:128,1,101.250003862381,2|0,0:0|0:0,0:0:0:0:
296,88,98539,2,0,L|312:44,1,33.7500012874603,2|2,0:0|0:0,0:0:0:0:
396,88,98855,5,8,0:0:0:0:
256,280,99384,1,8,0:0:0:0:
108,160,99806,2,0,L|128:224,1,67.5000025749207,8|8,0:0|0:0,0:0:0:0:
168,312,100229,2,0,L|180:276,1,33.7500012874603,8|8,0:0|0:0,0:0:0:0:
204,188,100546,6,0,P|256:184|320:200,1,101.250003862381,4|8,0:0|0:0,0:0:0:0:
380,252,101074,2,0,P|408:228|428:188,1,67.5000025749207,0|8,0:0|0:0,0:0:0:0:
396,112,101496,2,0,P|361:99|316:102,1,67.5000025749207,0|8,0:0|0:0,0:0:0:0:
264,168,101919,2,0,P|270:204|295:241,1,67.5000025749207,0|8,0:0|0:0,0:0:0:0:
332,244,102236,1,0,0:0:0:0:
380,252,102342,5,2,0:0:0:0:
344,180,102658,5,2,0:0:0:0:
264,168,102975,5,2,0:0:0:0:
228,96,103292,5,2,0:0:0:0:
152,64,103609,6,0,L|132:24,2,33.7500012874603,2|0|0,0:0|0:0|0:0,0:0:0:0:
152,64,103926,2,0,B|124:112|156:112|120:168,1,101.250003862381,4|2,0:0|0:0,0:0:0:0:
40,304,104877,6,0,P|46:272|70:240,1,67.5000025749207,2|0,0:0|0:0,0:0:0:0:
136,308,105299,2,0,P|167:293|188:268,1,67.5000025749207,2|0,0:0|0:0,0:0:0:0:
248,172,105722,1,8,0:0:0:0:
356,136,105933,2,0,L|396:120,1,33.7500012874603,8|8,0:0|0:0,0:0:0:0:
284,76,106250,1,8,0:0:0:0:
264,124,106461,1,4,0:0:0:0:
248,172,106989,6,0,L|213:255,1,89.9999999999999
213,255,107324,6,0,P|161:308|109:292,1,135,0|8,0:0|0:0,0:0:0:0:
40,248,107834,2,0,P|44:204|72:164,1,89.9999999999999,0|8,0:0|0:0,0:0:0:0:
36,84,108257,2,0,L|84:96,1,45,8|0,0:0|0:0,0:0:0:0:
80,95,108574,2,0,P|124:91|164:63,1,89.9999999999999,0|8,0:0|0:0,0:0:0:0:
244,28,108996,6,0,P|272:68|272:112,1,89.9999999999999
232,124,109313,2,0,P|231:163|203:203,1,89.9999999999999,8|0,0:0|0:0,0:0:0:0:
160,224,109630,2,0,P|164:288|220:340,1,135,8|0,0:0|0:0,0:0:0:0:
392,320,110370,6,0,L|444:300,2,45,8|0|0,0:0|0:0|0:0,0:0:0:0:
392,320,110687,2,0,B|348:312|320:288|320:288|268:308,1,135,0|8,0:0|0:0,0:0:0:0:
188,268,111215,2,0,B|136:288|136:288|112:276|88:268,1,89.9999999999999,0|8,0:0|0:0,0:0:0:0:
120,164,111637,2,0,P|156:184|208:192,1,89.9999999999999,0|8,0:0|0:0,0:0:0:0:
232,156,111954,2,0,P|268:176|320:184,1,89.9999999999999
404,168,112377,6,0,P|400:212|368:256,2,89.9999999999999,2|2|2,0:0|0:0|0:0,0:0:0:0:
396,124,112905,2,0,P|370:87|320:65,1,89.9999999999999,0|2,0:0|0:0,0:0:0:0:
288,64,113222,2,2,B|260:64|260:64|244:80|244:80|224:72|224:72|208:88|208:88|168:76,1,135,2|0,0:0|0:0,0:0:0:0:
100,132,113750,6,0,L|143:142,1,45,8|0,0:0|0:0,0:0:0:0:
144,143,114067,6,0,B|150:181|182:205|182:205|240:221,1,135,4|8,0:0|0:0,0:0:0:0:
272,136,114595,2,0,L|361:164,1,89.9999999999999,0|8,0:0|0:0,0:0:0:0:
444,136,115018,2,0,L|433:92,1,45,8|0,0:0|0:0,0:0:0:0:
416,200,115334,2,0,P|404:244|415:285,1,89.9999999999999,0|8,0:0|0:0,0:0:0:0:
324,340,115757,6,0,B|288:340|260:360|260:360|228:340|196:340,1,135,0|8,0:0|0:0,0:0:0:0:
104,284,116285,2,0,P|115:242|103:198,1,89.9999999999999,0|8,0:0|0:0,0:0:0:0:
76,152,116602,1,8,0:0:0:0:
44,48,116813,2,0,P|88:44|140:64,1,89.9999999999999,8|0,0:0|0:0,0:0:0:0:
176,88,117130,1,8,0:0:0:0:
324,24,117447,6,0,P|360:76|340:148,1,135,4|8,0:0|0:0,0:0:0:0:
256,124,117975,2,0,P|212:124|172:152,1,89.9999999999999,0|8,0:0|0:0,0:0:0:0:
140,180,118292,2,0,B|164:211|164:211|196:212|196:212|196:236|196:236|223:236|223:236|223:260|223:260|259:260,1,180,8|0,0:0|0:0,0:0:0:0:
420,340,119137,6,0,P|441:277|427:212,1,135,4|8,0:0|0:0,0:0:0:0:
364,148,119665,2,0,P|357:199|328:228,1,89.9999999999999,0|8,0:0|0:0,0:0:0:0:
220,304,120088,2,0,P|244:296|260:280,1,45,8|0,0:0|0:0,0:0:0:0:
258,282,120405,2,0,P|280:240|324:220,1,89.9999999999999,8|0,0:0|0:0,0:0:0:0:
420,192,120827,2,0,P|424:108|344:80,1,180,8|0,0:0|0:0,0:0:0:0:
280,100,121356,2,0,P|232:104|192:80,1,89.9999999999999,8|0,0:0|0:0,0:0:0:0:
136,56,121672,6,0,L|108:7,2,45,0|8|0,0:0|0:0|0:0,0:0:0:0:
142,124,121989,2,0,L|85:123,2,45,8|0|8,0:0|0:0|0:0,0:0:0:0:
173,183,122306,2,0,L|144:230,2,45,8|8|4,0:0|0:0|0:0,0:0:0:0:
120,52,129296,6,0,P|96:96|108:144,1,101.250003862381,4|8,0:0|0:0,0:0:0:0:
148,228,129806,2,0,P|168:204|184:168,1,67.5000025749207,0|8,0:0|0:0,0:0:0:0:
236,92,130229,2,0,P|256:116|272:152,1,67.5000025749207,0|8,0:0|0:0,0:0:0:0:
312,236,130651,2,0,P|288:255|252:272,1,67.5000025749207,0|8,0:0|0:0,0:0:0:0:
212,288,130968,1,8,0:0:0:0:
344,340,131285,5,8,0:0:0:0:
408,272,131496,2,0,P|388:248|372:212,1,67.5000025749207,0|8,0:0|0:0,0:0:0:0:
456,168,131919,2,0,P|432:148|396:132,1,67.5000025749207,0|8,0:0|0:0,0:0:0:0:
356,52,132342,2,0,P|336:76|320:112,1,67.5000025749207,0|8,0:0|0:0,0:0:0:0:
316,156,132658,6,0,P|276:184|224:180,1,101.250003862381,0|8,0:0|0:0,0:0:0:0:
228,84,133187,2,0,P|192:88|160:104,1,67.5000025749207,0|8,0:0|0:0,0:0:0:0:
84,52,133609,2,0,P|69:85|67:120,1,67.5000025749207,0|8,0:0|0:0,0:0:0:0:
128,188,134032,2,0,P|149:217|179:236,1,67.5000025749207,0|8,0:0|0:0,0:0:0:0:
220,252,134349,1,8,0:0:0:0:
252,164,134560,6,0,L|272:196,1,33.7500012874603,0|2,0:0|0:0,0:0:0:0:
312,276,134877,2,0,L|332:308,2,33.7500012874603,2|0|2,0:0|0:0|0:0,0:0:0:0:
400,244,135299,5,2,0:0:0:0:
364,156,135511,1,2,0:0:0:0:
272,132,135722,1,2,0:0:0:0:
184,168,135933,1,2,0:0:0:0:
148,288,136144,6,0,P|192:276|240:280,1,89.9999999999999,4|2,0:0|0:0,0:0:0:0:
423,307,136567,2,0,P|379:319|336:316,1,89.9999999999999,0|2,0:0|0:0,0:0:0:0:
176,236,136989,2,0,P|220:224|268:228,1,89.9999999999999,0|2,0:0|0:0,0:0:0:0:
451,255,137412,2,0,P|407:267|363:263,1,89.9999999999999,0|2,0:0|0:0,0:0:0:0:
324,288,137729,2,0,B|284:308|232:296|232:296|204:316|188:316,1,135,0|2,0:0|0:0,0:0:0:0:
62,225,138257,2,0,B|98:229|118:245|118:245|148:240,1,89.9999999999999,0|2,0:0|0:0,0:0:0:0:
232,204,138680,6,0,P|272:208|324:232,1,89.9999999999999,2|0,0:0|0:0,0:0:0:0:
308,272,138996,2,0,B|268:268|227:249|227:249|188:296,1,135,0|2,0:0|0:0,0:0:0:0:
140,360,139524,2,0,P|104:328|80:284,1,89.9999999999999,0|0,0:0|0:0,0:0:0:0:
68,248,139842,1,0,0:0:0:0:
92,212,139947,2,0,P|101:171|95:117,1,89.9999999999999,0|2,0:0|0:0,0:0:0:0:
208,60,140370,2,0,P|252:80|284:116,1,89.9999999999999,0|2,0:0|0:0,0:0:0:0:
320,228,140792,2,0,L|296:280,2,45,0|0|2,0:0|0:0|0:0,0:0:0:0:
360,108,141215,6,0,P|316:128|284:164,1,89.9999999999999,0|2,0:0|0:0,0:0:0:0:
244,204,141532,2,0,P|196:196|156:168,2,89.9999999999999,0|2|0,0:0|0:0|0:0,0:0:0:0:
304,220,142060,2,0,P|352:224|392:252,1,89.9999999999999,2|0,0:0|0:0,0:0:0:0:
304,340,142482,2,0,P|256:336|216:308,1,89.9999999999999,2|0,0:0|0:0,0:0:0:0:
188,272,142799,1,4,0:0:0:0:
112,44,149665,6,0,P|156:48|204:76,1,89.9999999999999,4|8,0:0|0:0,0:0:0:0:
132,132,150088,2,0,P|168:157|195:205,1,89.9999999999999,0|8,0:0|0:0,0:0:0:0:
232,276,150511,2,0,L|180:292,2,45,0|0|8,0:0|0:0|0:0,0:0:0:0:
276,264,150827,2,0,L|368:280,1,89.9999999999999,0|8,0:0|0:0,0:0:0:0:
448,240,151250,1,8,0:0:0:0:
448,240,151356,6,0,P|423:201|387:176,1,89.9999999999999,0|8,0:0|0:0,0:0:0:0:
448,108,151778,2,0,P|407:86|363:82,1,89.9999999999999,0|8,0:0|0:0,0:0:0:0:
276,64,152201,2,0,L|256:14,2,45,0|0|8,0:0|0:0|0:0,0:0:0:0:
292,108,152517,2,0,L|328:192,1,89.9999999999999,0|8,0:0|0:0,0:0:0:0:
348,276,152940,1,8,0:0:0:0:
348,276,153046,6,0,P|388:252|408:208,2,89.9999999999999,0|8|0,0:0|0:0|0:0,0:0:0:0:
264,312,153680,1,8,0:0:0:0:
192,260,153891,2,0,P|144:272|104:296,1,89.9999999999999,0|8,0:0|0:0,0:0:0:0:
72,212,154313,2,0,P|44:224|24:236,2,45,0|0|8,0:0|0:0|0:0,0:0:0:0:
112,196,154630,6,0,P|160:184|200:160,1,89.9999999999999
236,144,154947,2,0,P|280:148|328:168,1,89.9999999999999,8|0,0:0|0:0,0:0:0:0:
324,208,155264,2,0,P|280:212|232:232,1,89.9999999999999,8|0,0:0|0:0,0:0:0:0:
236,272,155581,2,0,P|280:276|328:296,1,89.9999999999999,8|0,0:0|0:0,0:0:0:0:
344,332,155898,1,0,0:0:0:0:
380,360,156003,2,0,L|428:376,2,45,8|0|8,0:0|0:0|0:0,0:0:0:0:
404,292,156320,6,0,B|408:256|384:224|384:224|324:196,1,135,4|8,0:0|0:0,0:0:0:0:
284,80,156849,2,0,P|324:88|364:116,1,89.9999999999999,0|8,0:0|0:0,0:0:0:0:
268,168,157271,2,0,P|228:160|188:132,1,89.9999999999999,0|8,0:0|0:0,0:0:0:0:
192,44,157694,2,0,P|152:51|112:79,1,89.9999999999999,0|8,0:0|0:0,0:0:0:0:
72,160,158116,2,0,P|59:198|63:247,1,89.9999999999999,0|8,0:0|0:0,0:0:0:0:
144,208,158539,1,0,0:0:0:0:
220,256,158750,6,0,P|180:272|140:301,1,89.9999999999999,8|0,0:0|0:0,0:0:0:0:
160,340,159067,2,0,B|210:332|236:300|236:300|298:324,1,135,8|0,0:0|0:0,0:0:0:0:
364,352,159595,6,0,P|408:348|448:324,1,89.9999999999999,8|0,0:0|0:0,0:0:0:0:
500,252,160018,1,4,0:0:0:0:
396,228,160229,1,4,0:0:0:0:
304,284,160440,1,4,0:0:0:0:
200,260,160651,1,4,0:0:0:0:
120,188,160863,1,4,0:0:0:0:
99,40,161074,2,0,P|92:60|88:84,1,45,4|0,0:0|0:0,0:0:0:0:
196,92,161391,5,4,0:0:0:0:
300,68,161602,2,0,L|358:59,1,45,0|2,0:0|0:0,0:0:0:0:
310,98,161813,2,0,L|364:119,1,45,0|2,0:0|0:0,0:0:0:0:
306,131,162025,2,0,L|342:177,1,45,0|2,0:0|0:0,0:0:0:0:
284,155,162236,2,0,L|292:213,1,45,0|2,0:0|0:0,0:0:0:0:
252,168,162447,2,2,B|248:200|232:220|232:220|216:212|216:212|184:256|124:268,1,180,2|0,0:0|0:0,0:0:0:0:
36,244,163099,6,0,P|76:216|100:168,1,101.250003862381,4|2,0:0|0:0,0:0:0:0:
128,80,163609,2,0,P|156:96|180:124,1,67.5000025749207,0|2,0:0|0:0,0:0:0:0:
176,216,164032,2,0,L|216:228,1,33.7500012874603,2|0,0:0|0:0,0:0:0:0:
196,320,164349,2,0,L|268:304,1,67.5000025749207,0|2,0:0|0:0,0:0:0:0:
424,304,164771,6,0,P|388:268|340:252,1,101.250003862381,8|2,0:0|0:0,0:0:0:0:
268,192,165299,2,0,P|296:176|336:164,1,67.5000025749207,0|2,0:0|0:0,0:0:0:0:
372,188,165616,2,0,P|420:172|460:128,1,101.250003862381,0|2,0:0|0:0,0:0:0:0:
344,52,166144,6,8,L|300:68,1,33.7500012874603,8|0,0:0|0:0,0:0:0:0:
312,63,166461,6,0,P|268:84|216:72,1,101.250003862381,0|2,0:0|0:0,0:0:0:0:
144,132,166989,2,0,P|176:136|208:160,1,67.5000025749207,0|2,0:0|0:0,0:0:0:0:
296,136,167412,2,0,P|276:161|239:177,1,67.5000025749207,2|0,0:0|0:0,0:0:0:0:
188,252,167834,2,0,L|216:280,1,33.7500012874603,2|0,0:0|0:0,0:0:0:0:
292,328,168151,6,0,P|308:280|288:232,1,101.250003862381,8|8,0:0|0:0,0:0:0:0:
260,144,168680,2,0,P|244:116|252:84,1,67.5000025749207,8|0,0:0|0:0,0:0:0:0:
332,28,169102,5,8,0:0:0:0:
364,116,169313,1,8,0:0:0:0:
396,204,169525,2,0,L|408:240,1,33.7500012874603,8|8,0:0|0:0,0:0:0:0:
388,328,169842,6,0,P|340:308|288:296,1,101.250003862381,4|8,0:0|0:0,0:0:0:0:
220,232,170370,2,0,P|192:256|172:280,1,67.5000025749207,0|8,0:0|0:0,0:0:0:0:
84,248,170792,2,0,P|77:211|66:182,1,67.5000025749207,0|8,0:0|0:0,0:0:0:0:
132,116,171215,2,0,P|166:128|197:133,1,67.5000025749207,0|8,0:0|0:0,0:0:0:0:
244,132,171532,1,0,0:0:0:0:
288,116,171637,5,8,0:0:0:0:
316,256,171954,1,8,0:0:0:0:
404,144,172271,1,8,0:0:0:0:
436,284,172588,1,8,0:0:0:0:
404,144,172905,2,0,L|432:112,2,33.7500012874603,0|0|8,0:0|0:0|0:0,0:0:0:0:
404,144,173222,6,0,B|368:152|360:176|312:184,1,101.250003862381,4|8,0:0|0:0,0:0:0:0:
44,88,174172,6,0,L|120:104,1,67.5000025749207,8|0,0:0|0:0,0:0:0:0:
76,192,174595,2,0,L|124:204,1,33.7500012874603,8|0,0:0|0:0,0:0:0:0:
156,336,175018,6,0,P|188:324|224:320,1,67.5000025749207,4|0,0:0|0:0,0:0:0:0:
268,312,175334,2,4,P|300:324|336:328,1,67.5000025749207,4|0,0:0|0:0,0:0:0:0:
424,304,175757,1,4,0:0:0:0:
448,212,175968,6,0,L|394:224,2,33.7500012874603,8|0|0,0:0|0:0|0:0,0:0:0:0:
448,164,176285,2,0,L|501:151,2,33.7500012874603,8|0|0,0:0|0:0|0:0,0:0:0:0:
364,120,176708,6,0,P|332:132|296:136,1,67.5000025749207,4|4,0:0|0:0,0:0:0:0:
252,144,177025,2,0,P|220:132|184:128,1,67.5000025749207,4|4,0:0|0:0,0:0:0:0:
96,152,177447,1,4,0:0:0:0:
256,192,177500,12,4,178292,0:0:0:0:
53,72,183380,22,0,B|102:49|140:92|140:92|173:135|234:120,1,198
237,128,184736,5,0,0:0:0:0:
237,128,184842,1,0,0:0:0:0:
237,128,185053,6,0,B|276:108|312:112|312:112|368:140,1,135,4|8,0:0|0:0,0:0:0:0:
424,204,185581,2,0,P|384:220|332:216,1,89.9999999999999,0|8,0:0|0:0,0:0:0:0:
348,308,186003,2,0,P|305:301|262:272,1,89.9999999999999,8|0,0:0|0:0,0:0:0:0:
248,236,186320,2,0,P|254:193|283:150,1,89.9999999999999,8|0,0:0|0:0,0:0:0:0:
308,68,186743,6,0,B|348:68|376:92|376:92|412:156,1,135,0|8,0:0|0:0,0:0:0:0:
436,232,187271,2,0,L|348:264,1,89.9999999999999,0|8,0:0|0:0,0:0:0:0:
316,212,187588,2,0,L|228:244,1,89.9999999999999
192,196,187905,2,0,L|80:236,1,89.9999999999999,0|8,0:0|0:0,0:0:0:0:
300,324,188433,6,0,P|368:312|428:284,1,135,4|8,0:0|0:0,0:0:0:0:
384,164,188961,2,0,P|340:144|296:156,1,89.9999999999999,0|8,0:0|0:0,0:0:0:0:
240,172,189278,2,8,B|216:176|196:188|196:188|180:164|180:164|152:168|152:168|120:168|80:144,1,180,8|0,0:0|0:0,0:0:0:0:
220,36,190123,6,0,B|284:28|284:28|356:56,1,135,4|2,0:0|0:0,0:0:0:0:
364,144,190651,2,0,L|272:108,1,89.9999999999999,0|2,0:0|0:0,0:0:0:0:
232,188,191074,2,8,L|216:144,1,45,2|0,0:0|0:0,0:0:0:0:
164,72,191391,2,0,B|130:131|130:131|152:200,1,135,0|2,0:0|0:0,0:0:0:0:
168,284,191919,6,0,P|216:296|264:320,2,89.9999999999999,2|0|2,0:0|0:0|0:0,0:0:0:0:
160,240,192447,2,0,P|224:208|288:200,1,135,0|2,0:0|0:0,0:0:0:0:
496,112,193187,6,0,L|436:128,2,45,8|0|0,0:0|0:0|0:0,0:0:0:0:
468,76,193503,2,8,P|400:52|332:52,1,135,4|8,0:0|0:0,0:0:0:0:
364,136,194032,2,0,P|320:144|276:164,1,89.9999999999999,0|8,0:0|0:0,0:0:0:0:
232,84,194454,2,0,P|196:116|176:160,1,89.9999999999999,8|0,0:0|0:0,0:0:0:0:
180,200,194771,2,0,P|204:233|245:258,1,89.9999999999999,8|0,0:0|0:0,0:0:0:0:
332,228,195194,6,4,P|404:236|432:292,1,135,4|8,0:0|0:0,0:0:0:0:
356,336,195722,2,0,P|312:324|264:320,1,89.9999999999999,8|8,0:0|0:0,0:0:0:0:
224,316,196039,2,2,B|176:296|188:268|188:268|172:240|120:220,1,135,2|0,0:0|0:0,0:0:0:0:
124,136,196567,6,0,L|180:164,1,45,8|0,0:0|0:0,0:0:0:0:
164,156,196884,6,0,B|208:136|208:136|244:160|296:168,1,135,4|8,0:0|0:0,0:0:0:0:
320,252,197412,2,0,P|368:240|416:216,1,89.9999999999999,0|8,0:0|0:0,0:0:0:0:
472,160,197834,2,0,P|435:142|387:130,1,89.9999999999999,0|8,0:0|0:0,0:0:0:0:
344,124,198151,2,0,P|316:160|296:200,1,89.9999999999999,0|8,0:0|0:0,0:0:0:0:
316,288,198574,6,0,P|260:316|184:308,1,135,0|8,0:0|0:0,0:0:0:0:
124,248,199102,2,0,B|160:224|160:224|208:232,1,89.9999999999999,0|8,0:0|0:0,0:0:0:0:
244,208,199419,2,0,B|290:215|290:215|326:191,1,89.9999999999999,0|8,0:0|0:0,0:0:0:0:
364,168,199736,2,0,L|400:136,2,45,8|0|8,0:0|0:0|0:0,0:0:0:0:
404,40,200264,6,0,B|352:88|352:88|320:92|288:72,1,135,4|8,0:0|0:0,0:0:0:0:
236,4,200792,2,0,P|197:29|187:69,1,89.9999999999999,8|0,0:0|0:0,0:0:0:0:
156,100,201109,2,0,B|180:120|180:120|204:136|188:156|188:156|216:176|200:204|200:204|236:212|256:236,1,180,8|0,0:0|0:0,0:0:0:0:
424,240,201954,6,4,P|403:303|353:347,1,135,4|8,0:0|0:0,0:0:0:0:
268,376,202482,2,0,P|242:349|235:298,1,89.9999999999999,0|8,0:0|0:0,0:0:0:0:
148,272,202905,2,0,P|172:264|188:248,1,45,8|0,0:0|0:0,0:0:0:0:
186,251,203222,2,0,P|209:215|191:170,1,89.9999999999999,8|0,0:0|0:0,0:0:0:0:
104,168,203644,2,0,P|132:88|216:92,1,180,8|0,0:0|0:0,0:0:0:0:
248,124,204172,2,0,P|296:128|336:104,1,89.9999999999999,8|0,0:0|0:0,0:0:0:0:
364,76,204489,6,0,L|400:40,2,45,0|8|0,0:0|0:0|0:0,0:0:0:0:
392,136,204806,2,0,L|441:122,2,45,8|0|8,0:0|0:0|0:0,0:0:0:0:
400,204,205123,2,0,L|449:217,1,45,8|8,0:0|0:0,0:0:0:0:
428,280,205334,6,0,B|372:264|372:264|336:244|332:200,1,135,4|8,0:0|0:0,0:0:0:0:
324,112,205863,2,0,P|280:128|248:164,1,89.9999999999999,0|8,0:0|0:0,0:0:0:0:
216,240,206285,2,0,P|172:224|140:188,1,89.9999999999999,0|8,0:0|0:0,0:0:0:0:
64,148,206708,2,0,P|93:117|137:101,1,89.9999999999999,0|8,0:0|0:0,0:0:0:0:
180,112,207025,1,8,0:0:0:0:
216,240,207236,6,0,P|280:232|344:268,1,135,0|8,0:0|0:0,0:0:0:0:
388,340,207764,1,0,0:0:0:0:
412,252,207975,2,0,P|412:204|427:166,1,89.9999999999999,2|0,0:0|0:0,0:0:0:0:
448,124,208292,1,2,0:0:0:0:
328,60,208503,1,2,0:0:0:0:
328,60,208715,6,0,B|316:112|316:112|296:152|248:160,1,135,4|8,0:0|0:0,0:0:0:0:
168,188,209243,2,0,P|208:212|232:248,1,89.9999999999999,0|8,0:0|0:0,0:0:0:0:
324,248,209665,2,0,P|348:284|388:308,1,89.9999999999999,0|8,0:0|0:0,0:0:0:0:
460,360,210088,2,0,P|460:313|479:274,1,89.9999999999999,0|8,0:0|0:0,0:0:0:0:
504,236,210405,1,8,0:0:0:0:
442,117,210616,5,8,0:0:0:0:
442,117,210722,2,0,B|405:141|390:181|390:181|373:217|324:248,1,180,0|8,0:0|0:0,0:0:0:0:
256,332,211356,2,2,P|212:324|168:304,2,89.9999999999999
300,340,211884,1,0,0:0:0:0:
300,340,212095,6,0,B|316:312|308:276|308:276|256:228,1,135,0|12,0:0|0:0,0:0:0:0:
328,172,212623,2,0,P|284:156|240:148,1,89.9999999999999,0|8,0:0|0:0,0:0:0:0:
264,60,213046,2,0,P|228:90|199:124,1,89.9999999999999,0|8,0:0|0:0,0:0:0:0:
132,64,213468,2,0,P|140:110|155:152,1,89.9999999999999,0|8,0:0|0:0,0:0:0:0:
176,192,213785,1,8,0:0:0:0:
308,168,213996,5,0,0:0:0:0:
308,168,214102,2,0,P|352:156|392:132,2,89.9999999999999,0|0|8,0:0|0:0|0:0,0:0:0:0:
244,228,214736,2,0,P|286:239|326:266,1,89.9999999999999,2|2,0:0|0:0,0:0:0:0:
396,320,215158,2,0,L|310:349,1,89.9999999999999,2|2,0:0|0:0,0:0:0:0:
268,356,215475,6,0,P|196:348|148:312,1,135,4|8,0:0|0:0,0:0:0:0:
228,268,216003,2,0,P|192:237|174:193,1,89.9999999999999,0|8,0:0|0:0,0:0:0:0:
172,108,216426,2,0,P|216:124|248:160,1,89.9999999999999,0|8,0:0|0:0,0:0:0:0:
328,188,216849,2,0,P|336:235|320:280,1,89.9999999999999,0|8,0:0|0:0,0:0:0:0:
304,316,217165,1,8,0:0:0:0:
224,276,217377,6,0,P|212:252|196:236,2,45,8|0|8,0:0|0:0|0:0,0:0:0:0:
256,244,217693,2,0,P|260:200|276:140,1,89.9999999999999,8|0,0:0|0:0,0:0:0:0:
256,244,217694,1,0,0:0:0:0:
340,44,218116,6,0,P|324:64|316:92,1,45,8|0,0:0|0:0,0:0:0:0:
360,100,218327,2,0,P|347:123|344:152,1,45,8|0,0:0|0:0,0:0:0:0:
388,156,218539,1,4,0:0:0:0:
