osu file format v13

[General]
AudioFilename: umek.mp3
AudioLeadIn: 0
PreviewTime: 51232
Countdown: 0
SampleSet: Normal
StackLeniency: 0.7
Mode: 0
LetterboxInBreaks: 1
WidescreenStoryboard: 1

[Editor]
Bookmarks: 10985,24506,31267,51549,63380,80281,107323,129612,163098
DistanceSpacing: 0.9
BeatDivisor: 4
GridSize: 4
TimelineZoom: 1.7

[Metadata]
Title:Kamisama Nejimaki
TitleUnicode:Kamisama Nejimaki
Artist:kemu
ArtistUnicode:kemu
Creator:RLC
Version:Extra
Source:
Tags:
BeatmapID:501883
BeatmapSetID:213493

[Difficulty]
HPDrainRate:6
CircleSize:4
OverallDifficulty:8.3
ApproachRate:9.3
SliderMultiplier:1.6
SliderTickRate:1

[Events]
//Background and Video events
0,0,"bg.png",0,0
//Break Periods
2,122735,128002
//Storyboard Layer 0 (Background)
//Storyboard Layer 1 (Fail)
//Storyboard Layer 2 (Pass)
//Storyboard Layer 3 (Foreground)
//Storyboard Sound Samples
//Background Colour Transformations
3,100,163,162,255

[TimingPoints]
6021,211.267605633803,4,2,2,75,1,0
24506,-200,4,2,2,75,0,0
25246,-133.333333333333,4,2,2,75,0,0
26197,-200,4,2,2,75,0,0
26513,-133.333333333333,4,2,2,75,0,0
30528,-100,4,1,2,75,0,0
34647,-100,4,2,2,75,0,0
38028,-200,4,2,2,75,0,0
43098,-133.333333333333,4,2,2,75,0,0
44049,-100,4,2,2,75,0,0
50704,-166.666666666667,4,2,1,75,0,0
51126,-166.666666666667,4,2,1,5,0,0
51232,-166.666666666667,4,2,1,75,0,0
51549,-100,4,2,2,75,0,1
63380,-100,4,1,1,75,0,0
64330,-200,4,1,1,75,0,0
66232,-100,4,2,1,75,0,0
66760,-100,4,2,2,75,0,0
80281,-200,4,2,1,75,0,0
81126,-133.333333333333,4,2,1,75,0,0
85668,-100,4,2,1,40,0,0
86091,-100,4,2,1,75,0,0
86302,-200,4,1,1,75,0,0
86725,-100,4,1,1,75,0,0
87042,-100,4,1,2,75,0,0
90422,-100,4,2,2,75,0,0
93802,-200,4,2,1,75,0,0
96443,-200,4,1,1,75,0,0
96866,-200,4,2,1,75,0,0
98344,-200,4,1,1,75,0,0
98556,-200,4,2,1,75,0,0
98873,-133.333333333333,4,2,1,75,0,0
100563,-100,4,1,1,75,0,0
102359,-200,4,1,1,75,0,0
103626,-100,4,1,1,75,0,0
103943,-200,4,1,1,75,0,0
107006,-100,4,1,1,75,0,0
107323,-100,4,2,2,75,0,1
119154,-100,4,1,1,75,0,0
119471,-200,4,1,1,75,0,0
122851,-133.333333333333,4,1,1,75,0,0
129612,-133.333333333333,4,3,1,75,0,0
132675,-200,4,3,1,75,0,0
132992,-133.333333333333,4,3,1,75,0,0
134366,-100,4,1,1,75,0,0
135316,-100,4,2,1,75,0,0
136056,-100,4,1,1,75,0,0
140915,-71.4285714285714,4,1,1,75,0,0
141126,-100,4,1,1,75,0,0
142077,-100,4,1,1,20,0,0
142816,-100,4,1,1,75,0,0
145457,-100,4,1,0,75,0,0
146408,-133.333333333333,4,1,1,75,0,0
148626,-100,4,1,1,75,0,0
149577,-100,4,1,1,75,0,1
160035,-100,4,1,2,75,0,1
162359,-74.0740740740741,4,1,1,75,0,1
163098,-200,4,2,2,75,0,0
168168,-133.333333333333,4,1,1,75,0,0
169859,-100,4,2,1,75,0,0
178837,-200,4,2,2,75,0,0
181690,-100,4,2,1,75,0,0
183274,-100,4,2,1,5,0,0
183485,-100,4,2,1,75,0,0
185070,-100,4,2,2,75,0,1
190140,-83.3333333333333,4,1,2,75,0,0
190668,-133.333333333333,4,2,3,90,0,0
192887,-133.333333333333,4,2,2,75,0,0
193521,-86.9565217391304,4,1,2,75,0,1
201971,-200,4,1,1,75,0,0
203028,-100,4,1,1,75,0,0
203767,-200,4,1,1,75,0,0
204506,-133.333333333333,4,1,1,75,0,0
205246,-100,4,1,1,75,0,0

[Colours]
Combo1 : 182,108,255
Combo2 : 255,94,94
Combo3 : 119,187,255
Combo4 : 255,184,113

[HitObjects]
70,66,10140,6,0,B|90:118|42:158|42:158|54:214,1,160,4|8,1:2|1:0,0:0:0:0:
123,273,10457,1,0,3:0:0:0:
123,273,10563,1,0,3:0:0:0:
94,355,10668,2,0,B|155:369|186:327|186:327|242:339,1,160,4|8,1:2|2:0,0:0:0:0:
326,206,10985,6,0,B|319:258|319:258|347:307|347:307|342:357,1,160,4|0,1:1|0:0,0:0:0:0:
341,357,11302,1,12,0:2:0:0:
341,357,11513,2,0,L|444:351,1,80,4|2,3:2|3:2,0:0:0:0:
402,151,11725,2,0,L|505:145,1,80,8|2,0:0|0:2,0:0:0:0:
481,146,11936,6,0,P|484:102|483:57,2,80,0|0|8,3:0|3:0|0:2,0:0:0:0:
473,234,12253,1,0,0:0:0:0:
388,207,12359,2,0,P|384:268|388:370,1,160,4|8,3:2|0:0,0:0:0:0:
280,311,12675,6,0,B|204:296|211:362|103:331,1,160,0|0,3:0|0:0,0:0:0:0:
33,204,12992,2,0,L|44:372,1,160,12|2,0:2|3:0,0:0:0:0:
157,252,13309,2,0,L|161:206,4,40,2|2|10|2|2,3:2|0:2|0:2|0:2|0:2,0:0:0:0:
117,138,13626,6,0,P|159:127|207:136,1,80,2|0,3:0|3:0,0:0:0:0:
413,246,13837,2,0,P|371:235|323:244,1,80,8|0,0:0|0:0,0:0:0:0:
94,341,14049,2,0,P|136:330|184:339,1,80,2|0,1:3|1:0,0:0:0:0:
257,356,14260,1,0,1:0:0:0:
302,280,14366,6,0,P|322:230|288:123,1,160,4|0,1:0|3:0,0:0:0:0:
295,131,14682,1,12,0:2:0:0:
295,131,14894,2,0,L|398:118,1,80,4|2,3:2|3:2,0:0:0:0:
226,220,15105,2,0,P|179:221|135:199,1,80,8|2,0:0|0:2,0:0:0:0:
148,208,15316,6,0,L|141:300,2,80,0|0|8,3:0|3:0|0:0,0:0:0:0:
139,121,15633,1,0,0:0:0:0:
69,175,15739,2,0,L|61:266,2,80,4|0|8,3:2|3:0|0:0,0:0:0:0:
91,50,16056,6,0,P|148:37|220:121,1,160,4|0,1:0|0:0,0:0:0:0:
418,311,16373,2,0,L|424:206,1,80,12|0,1:2|0:0,0:0:0:0:
306,107,16584,2,0,L|300:212,1,80,12|0,1:2|0:0,0:0:0:0:
159,335,16795,2,0,L|171:161,1,160,12|0,1:2|3:0,0:0:0:0:
218,101,17112,5,0,3:0:0:0:
306,107,17218,1,0,3:0:0:0:
333,189,17323,1,0,3:0:0:0:
280,259,17429,1,0,1:0:0:0:
280,259,17535,1,0,1:0:0:0:
280,259,17746,6,0,B|339:255|339:255|367:275|367:275|443:271,1,160,4|0,3:1|3:0,0:0:0:0:
433,271,18063,1,12,0:2:0:0:
433,271,18274,6,0,P|437:228|431:181,1,80,4|2,3:2|3:2,0:0:0:0:
368,41,18485,2,0,P|364:84|370:131,1,80,8|2,0:0|0:2,0:0:0:0:
368,120,18697,6,0,L|458:112,2,80,0|0|8,3:0|3:0|0:0,0:0:0:0:
284,96,19013,1,0,0:0:0:0:
265,182,19119,2,0,P|220:200|119:131,1,160,4|8,3:2|0:0,0:0:0:0:
46,190,19436,6,0,P|51:238|44:283,2,80,0|0|0,3:0|0:0|3:0,0:0:0:0:
36,102,19753,6,0,P|80:78|129:79,1,80,12|2,0:2|0:3,0:0:0:0:
242,358,19964,2,0,P|195:360|149:337,1,80,4|2,3:2|3:3,0:0:0:0:
124,269,20175,1,8,0:0:0:0:
394,250,20387,6,0,B|404:212|404:212|397:171,1,80,0|0,3:0|3:0,0:0:0:0:
394,250,20598,2,0,B|384:288|384:288|390:329,1,80,8|0,0:0|0:0,0:0:0:0:
480,295,20809,1,0,1:0:0:0:
480,295,20915,1,0,1:0:0:0:
480,295,21021,1,0,1:0:0:0:
394,250,21126,6,0,B|312:227|321:282|233:263,1,160,4|0,1:0|3:0,0:0:0:0:
238,264,21443,1,12,0:2:0:0:
238,264,21654,2,0,P|247:221|242:173,1,80,4|2,3:2|3:2,0:0:0:0:
84,151,21866,2,0,P|75:194|80:242,1,80,8|2,0:0|0:2,0:0:0:0:
157,295,22077,5,0,3:0:0:0:
165,207,22182,1,0,3:0:0:0:
175,119,22288,1,8,0:0:0:0:
247,169,22394,1,0,0:0:0:0:
247,169,22499,2,0,L|334:169,2,80,4|0|0,1:2|1:0|1:0,0:0:0:0:
51,341,22816,6,0,B|102:340|102:340|128:329|128:329|155:342|155:342|215:342,1,160,4|0,1:0|3:0,0:0:0:0:
292,359,23133,1,8,1:0:0:0:
292,359,23239,1,0,0:0:0:0:
262,276,23344,2,0,B|248:237|248:237|257:195,1,80,0|0,3:0|3:0,0:0:0:0:
458,75,23556,2,0,B|471:113|471:113|462:155,1,80,0|0,3:0|3:0,0:0:0:0:
430,233,23767,5,0,1:0:0:0:
341,232,23873,1,0,1:0:0:0:
314,148,23978,1,0,1:0:0:0:
295,61,24084,1,0,1:0:0:0:
230,121,24190,1,0,1:0:0:0:
230,121,24506,6,0,L|86:115,1,120.000004577637,0|2,3:0|0:2,0:0:0:0:
35,110,24929,1,0,0:0:0:0:
35,110,25035,1,0,3:0:0:0:
149,261,25246,2,0,L|157:335,2,60.0000022888184,2|0|0,0:0|0:0|3:0,0:0:0:0:
66,339,25563,6,0,L|70:264,1,60.0000022888184,0|2,0:0|0:0,0:0:0:0:
247,308,25774,2,0,L|251:233,1,60.0000022888184,0|0,0:0|3:0,0:0:0:0:
408,292,25985,2,0,L|412:217,1,60.0000022888184,0|2,0:0|0:0,0:0:0:0:
452,48,26197,6,0,P|475:96|464:166,1,120,0|2,3:0|0:0,0:0:0:0:
392,114,26619,1,0,0:0:0:0:
392,114,26725,2,0,L|318:109,1,60.0000022888184,0|0,3:0|0:0,0:0:0:0:
222,197,26936,2,0,P|255:198|291:189,1,60.0000022888184,2|0,0:0|0:0,0:0:0:0:
260,54,27147,5,0,3:0:0:0:
273,133,27253,2,0,L|281:192,1,60.0000022888184,0|2,0:0|0:1,0:0:0:0:
148,212,27464,2,0,L|155:271,1,60.0000022888184,2|0,0:1|3:0,0:0:0:0:
16,297,27675,2,0,L|23:356,1,60.0000022888184,2|2,0:1|0:0,0:0:0:0:
38,219,27887,5,0,1:0:0:0:
406,349,28204,2,0,L|475:353,2,60.0000022888184,2|0|0,0:1|0:0|3:0,0:0:0:0:
294,251,28626,2,0,L|225:247,2,60.0000022888184,2|2|0,0:0|0:1|3:0,0:0:0:0:
374,262,28943,5,0,0:0:0:0:
101,347,29154,1,0,3:0:0:0:
374,262,29366,1,0,0:0:0:0:
101,347,29577,6,0,P|90:316|113:231,1,120.000004577637,0|0,3:0|0:0,0:0:0:0:
159,170,29894,2,0,L|150:106,1,60.0000022888184,2|0,0:1|0:0,0:0:0:0:
223,242,30105,1,0,3:0:0:0:
223,242,30211,1,0,0:0:0:0:
257,156,30316,2,0,L|260:77,1,60.0000022888184,2|0,0:0|0:0,0:0:0:0:
329,41,30528,5,2,3:2:0:0:
412,14,30633,1,2,0:0:0:0:
465,84,30739,1,2,0:0:0:0:
421,159,30844,1,2,0:0:0:0:
336,134,30950,1,0,1:0:0:0:
336,134,31056,1,0,1:0:0:0:
296,344,31267,6,2,P|358:361|445:299,1,160,4|2,1:0|3:1,0:0:0:0:
421,159,31584,2,0,P|380:193|364:231,1,80,10|0,0:0|2:1,0:0:0:0:
298,344,31795,2,2,P|288:299|256:266,1,80,0|2,3:0|3:1,0:0:0:0:
61,241,32006,2,0,P|113:250|161:230,1,80,10|0,0:0|2:1,0:0:0:0:
138,243,32218,6,0,L|146:159,2,80,2|0|8,3:1|3:1|0:0,0:0:0:0:
114,79,32535,2,0,B|169:71|169:71|218:96|218:96|280:86,1,160,0|0,2:0|3:0,0:0:0:0:
396,150,32851,5,8,0:0:0:0:
396,150,32957,2,2,P|343:91|266:87,1,160,0|0,3:0|3:0,0:0:0:0:
266,88,33274,2,2,P|275:29|298:4,1,80,8|2,0:0|2:1,0:0:0:0:
486,71,33485,2,2,P|443:96|396:93,1,80,0|2,3:0|3:1,0:0:0:0:
310,224,33697,2,0,P|354:228|399:261,1,80,10|0,0:0|2:0,0:0:0:0:
472,288,33908,6,0,L|485:189,1,80,2|0,3:1|3:0,0:0:0:0:
476,292,34119,1,8,0:0:0:0:
480,296,34225,2,0,B|439:338|439:338|330:339,1,160,0|0,2:0|3:0,0:0:0:0:
184,332,34542,5,8,0:0:0:0:
184,332,34647,2,0,B|262:306|258:377|338:339,1,160,4|0,1:0|3:0,0:0:0:0:
348,260,34964,2,0,L|336:339,1,80,8|0,0:0|0:0,0:0:0:0:
475,294,35175,2,0,P|489:243|454:138,1,160,0|8,3:0|0:0,0:0:0:0:
373,118,35492,1,0,3:0:0:0:
304,173,35598,1,0,3:0:0:0:
304,173,35704,1,0,3:0:0:0:
33,73,35915,6,0,B|61:75|61:75|78:72|78:72|76:85|76:85|90:80|90:80|203:87,1,160,2|2,3:2|3:2,2:0:0:0:
164,235,36232,5,8,0:0:0:0:
164,235,36337,2,0,B|194:182|194:182|176:85,1,160,4|0,3:2|3:0,0:0:0:0:
176,85,36654,2,0,L|256:84,1,80,12|0,0:2|0:0,0:0:0:0:
23,165,36866,1,0,3:0:0:0:
23,165,37077,2,0,L|103:164,1,80,12|0,0:2|0:0,0:0:0:0:
185,164,37288,5,0,3:0:0:0:
228,87,37394,1,0,3:0:0:0:
269,164,37499,1,0,1:0:0:0:
301,246,37605,1,0,1:0:0:0:
301,246,37711,1,0,1:0:0:0:
82,318,37922,5,0,0:0:0:0:
82,318,38028,2,0,P|133:318|171:313,1,80,4|0,1:0|0:0,0:0:0:0:
188,240,38344,1,2,0:2:0:0:
188,240,38556,6,0,L|239:240,1,40,2|0,0:2|0:0,0:0:0:0:
401,248,38767,2,0,P|401:292|396:341,1,80,2|2,0:2|0:3,0:0:0:0:
339,161,39084,2,0,P|339:117|344:68,1,80,2|0,0:2|0:0,0:0:0:0:
405,18,39401,1,2,0:3:0:0:
204,157,39612,5,0,0:0:0:0:
142,105,39718,2,0,P|106:98|45:95,1,80,2|0,1:2|0:0,0:0:0:0:
142,105,40035,1,2,0:2:0:0:
136,315,40246,2,0,P|178:317|230:309,1,80,2|0,0:2|0:0,0:0:0:0:
296,289,40563,1,2,0:2:0:0:
216,313,40668,6,0,L|209:219,1,80,2|0,0:3|0:0,0:0:0:0:
204,157,40985,1,2,1:2:0:0:
204,157,41091,1,2,0:2:0:0:
199,75,41197,1,2,1:2:0:0:
488,92,41408,6,0,P|458:98|398:98,1,80,2|0,1:3|0:0,0:0:0:0:
345,54,41725,2,0,L|349:18,2,26.6666666666667,2|0|0,0:2|0:0|0:0,0:0:0:0:
292,184,41936,2,0,L|288:220,2,26.6666666666667,2|0|0,0:3|0:0|0:0,0:0:0:0:
125,150,42147,5,2,0:2:0:0:
125,150,42253,2,0,P|155:156|215:156,1,80,2|0,0:2|0:0,0:0:0:0:
271,102,42570,2,0,L|267:66,2,26.6666666666667,2|0|0,0:2|0:0|0:0,0:0:0:0:
375,201,42781,2,0,L|379:237,2,26.6666666666667,2|0|0,0:3|0:0|0:0,0:0:0:0:
345,54,42992,5,2,0:2:0:0:
345,54,43098,2,0,P|389:24|422:152,1,240.000009155274,8|0,1:0|0:0,0:0:0:0:
434,146,43626,2,0,L|354:142,1,60.0000022888184,0|0,1:1|2:0,0:0:0:0:
155,72,43837,1,0,1:1:0:0:
272,302,44049,6,0,B|290:264|290:264|285:214,1,80,2|0,1:0|0:0,0:0:0:0:
129,150,44260,2,0,B|149:182|149:182|148:223,1,80,2|0,1:0|0:0,0:0:0:0:
41,316,44471,1,2,1:0:0:0:
41,316,44577,1,2,1:0:0:0:
272,302,44788,6,0,B|352:295|352:295|429:339,1,160,4|0,1:0|3:0,0:0:0:0:
421,334,45105,1,8,0:0:0:0:
421,334,45316,6,0,L|428:243,1,80,0|0,3:0|3:0,0:0:0:0:
490,194,45528,1,8,0:0:0:0:
320,84,45739,5,0,3:0:0:0:
320,84,45844,1,0,3:0:0:0:
320,84,45950,2,0,L|324:169,1,80,8|0,0:0|0:0,0:0:0:0:
290,313,46161,2,0,B|309:273|309:273|302:203|302:203|323:163,1,160,0|8,3:0|0:0,0:0:0:0:
405,145,46478,1,0,0:0:0:0:
323,163,46584,6,0,L|153:151,1,160,4|0,1:0|0:0,0:0:0:0:
76,104,46901,2,0,P|128:59|223:75,1,160,4|0,1:2|0:0,0:0:0:0:
323,163,47218,6,0,B|374:158|374:158|425:191|425:191|489:184,1,160,4|0,1:2|0:0,0:0:0:0:
447,20,47535,1,4,1:2:0:0:
447,20,47746,6,0,L|443:112,1,80,0|0,3:0|3:0,0:0:0:0:
436,187,47957,1,0,3:0:0:0:
436,187,48063,1,0,3:0:0:0:
478,258,48168,6,0,B|427:286|378:252|378:252|364:271|367:308,1,160,4|0,1:0|3:0,0:0:0:0:
343,380,48485,2,0,P|387:381|432:355,1,80,4|2,0:2|0:2,0:0:0:0:
168,291,48697,2,0,L|67:281,1,80,0|2,3:0|3:2,0:0:0:0:
259,304,48908,5,4,0:2:0:0:
259,304,49013,1,2,0:2:0:0:
259,304,49119,2,0,P|251:261|263:213,1,80,0|2,3:0|3:2,0:0:0:0:
256,146,49330,2,0,P|263:185|257:224,1,80,4|2,0:2|0:2,0:0:0:0:
178,199,49542,5,2,1:2:0:0:
176,111,49647,1,2,1:2:0:0:
258,67,49753,1,6,1:2:0:0:
336,111,49859,1,2,1:2:0:0:
334,199,49964,5,0,1:0:0:0:
73,273,50175,1,0,1:0:0:0:
73,273,50281,1,0,1:0:0:0:
400,358,50492,1,0,1:0:0:0:
464,36,50704,6,0,B|443:30|443:30|427:40|427:40|404:27|404:27|322:35|337:118,1,191.999994140625,0|0,1:0|2:0,0:0:0:0:
370,194,51232,1,2,2:0:0:0:
370,194,51337,1,2,2:0:0:0:
370,194,51443,1,2,2:0:0:0:
388,274,51549,6,0,B|335:288|299:242|299:242|275:261|237:262,1,160,4|2,1:0|0:2,0:0:0:0:
199,77,51866,1,8,0:0:0:0:
199,77,52077,2,0,L|210:168,1,80,4|2,3:2|3:2,0:0:0:0:
131,256,52288,2,0,L|119:165,1,80,8|0,0:0|0:0,0:0:0:0:
286,110,52499,5,0,3:2:0:0:
286,110,52605,2,0,P|296:153|284:201,1,80,2|8,3:2|0:0,0:0:0:0:
263,274,52816,2,0,B|328:289|366:236|366:236|385:266|374:298,1,160,0|2,0:0|3:2,0:0:0:0:
344,357,53133,1,8,0:0:0:0:
441,342,53239,6,0,P|463:300|435:194,1,160,4|2,0:0|0:2,0:0:0:0:
357,203,53556,2,0,L|436:195,1,80,8|0,0:0|0:0,0:0:0:0:
258,359,53767,2,0,L|178:367,2,80,4|2|8,3:2|3:2|0:0,0:0:0:0:
258,359,54084,6,0,B|259:310|259:310|236:255|236:255|236:200,1,160,4|2,0:0|3:2,0:0:0:0:
319,161,54401,2,0,P|327:209|315:246,1,80,8|2,0:0|0:2,0:0:0:0:
74,362,54612,2,0,P|66:314|78:277,1,80,0|2,3:0|3:2,0:0:0:0:
86,191,54823,5,8,0:0:0:0:
86,191,54929,2,0,B|141:195|141:195|152:201|152:201|153:193|153:193|163:198|163:198|243:204,1,160,4|2,1:0|0:2,0:0:0:0:
413,263,55246,2,0,L|322:255,1,80,8|0,0:0|0:0,0:0:0:0:
156,319,55457,2,0,L|247:327,1,80,2|2,3:0|0:2,0:0:0:0:
512,245,55668,2,0,L|421:237,1,80,8|0,0:0|0:0,0:0:0:0:
224,79,55880,6,0,P|265:47|378:85,1,160,4|8,3:2|0:0,0:0:0:0:
444,134,56197,2,0,L|450:43,1,80,0|2,0:0|3:0,0:0:0:0:
304,218,56408,2,0,L|298:127,1,80,2|8,3:2|0:0,0:0:0:0:
229,252,56619,6,0,B|313:228|301:292|390:267,1,160,4|2,1:0|0:2,0:0:0:0:
460,236,56936,1,2,1:2:0:0:
452,319,57042,1,2,1:2:0:0:
383,268,57148,2,0,P|378:229|388:191,2,80,2|2|2,1:2|1:2|1:2,0:0:0:0:
351,349,57464,6,2,L|165:356,1,160,4|2,1:0|0:3,0:0:0:0:
111,365,57781,1,0,1:0:0:0:
62,301,57887,1,2,1:3:0:0:
99,230,57992,1,0,1:0:0:0:
62,158,58098,1,2,1:3:0:0:
62,158,58309,6,0,B|138:180|190:146|190:146|169:195,1,160,4|2,1:0|0:2,0:0:0:0:
179,170,58626,1,12,0:2:0:0:
351,349,58837,2,0,P|401:350|441:338,1,80,4|2,3:2|3:2,0:0:0:0:
495,172,59049,2,0,P|445:171|405:183,1,80,8|0,0:0|0:0,0:0:0:0:
333,126,59260,6,0,P|329:84|353:36,2,80,0|2|8,3:0|3:2|0:0,0:0:0:0:
409,252,59577,2,0,B|401:195|401:195|423:158|423:158|415:95,1,160,0|2,0:0|3:2,0:0:0:0:
405,19,59894,5,8,0:0:0:0:
405,19,59999,2,0,L|415:99,1,80,4|0,3:2|0:0,0:0:0:0:
318,228,60211,1,2,3:2:0:0:
318,228,60316,2,0,B|279:208|279:208|163:208,1,160,8|4,0:0|3:2,0:0:0:0:
162,208,60633,1,0,3:0:0:0:
162,208,60739,1,8,0:0:0:0:
74,203,60844,6,0,B|68:224|68:224|76:242|76:242|54:278|62:325|105:359,1,160,4|0,3:2|3:0,0:0:0:0:
165,286,61161,2,0,P|208:291|251:286,1,80,8|0,0:0|0:0,0:0:0:0:
318,228,61373,1,0,1:0:0:0:
334,150,61478,1,0,1:0:0:0:
265,108,61584,1,0,1:0:0:0:
196,149,61690,6,0,L|101:139,2,80,4|0|2,1:0|0:0|3:2,0:0:0:0:
318,228,62006,2,0,L|408:217,1,80,8|0,0:0|0:0,0:0:0:0:
286,317,62218,2,0,L|460:294,1,160,0|8,3:0|0:0,0:0:0:0:
196,335,62535,6,0,B|189:293|189:293|230:233|230:233|225:186,1,160,4|2,1:0|0:2,0:0:0:0:
152,121,62851,2,0,B|135:161|135:161|141:209,1,80,0|2,1:0|1:2,0:0:0:0:
84,363,63063,2,0,B|101:323|101:323|95:275,1,80,0|2,1:0|1:2,0:0:0:0:
53,99,63274,1,0,0:0:0:0:
53,99,63380,1,4,0:0:0:0:
409,244,63697,5,0,1:0:0:0:
475,159,63908,1,0,1:0:0:0:
405,83,64119,1,0,1:0:0:0:
312,130,64330,5,0,0:0:0:0:
271,130,64436,2,0,L|223:130,1,40,0|0,0:0|2:0,0:0:0:0:
144,132,64647,2,0,L|156:226,1,80,2|2,1:3|1:3,0:0:0:0:
47,344,65070,5,4,0:0:0:0:
343,335,65387,1,0,0:0:0:0:
120,245,65598,1,0,0:0:0:0:
256,228,65809,1,0,0:0:0:0:
256,228,65915,2,0,L|256:132,1,80,4|2,0:2|2:0,0:0:0:0:
256,136,66232,6,0,L|256:76,2,53.3333333333333,2|2|2,0:0|0:0|0:0,0:0:0:0:
256,312,66443,2,0,L|256:372,2,53.3333333333333,2|2|2,0:0|0:0|0:0,0:0:0:0:
412,228,66654,1,0,1:0:0:0:
457,306,66760,6,0,P|412:317|325:250,1,160,4|0,1:1|3:0,0:0:0:0:
407,64,67077,1,12,0:2:0:0:
407,64,67288,2,0,L|493:53,2,80,4|2|8,3:2|3:2|0:0,0:0:0:0:
341,123,67605,1,2,0:2:0:0:
259,88,67711,6,0,P|261:44|285:0,1,80,0|0,3:0|3:0,0:0:0:0:
429,152,67922,2,0,P|427:196|403:240,1,80,8|0,0:0|0:0,0:0:0:0:
201,318,68133,5,4,3:2:0:0:
201,318,68239,1,0,3:0:0:0:
201,318,68344,1,8,0:0:0:0:
201,318,68450,2,0,B|281:297|271:357|376:327,1,160,0|0,3:0|3:0,0:0:0:0:
455,220,68767,6,0,L|445:410,1,160,12|2,0:2|3:3,0:0:0:0:
374,164,69084,2,0,L|371:115,2,40,2|2|10,3:2|0:2|0:2,0:0:0:0:
324,246,69295,5,2,0:2:0:0:
324,246,69401,2,0,P|291:233|244:236,1,80,2|0,3:0|3:0,0:0:0:0:
39,151,69612,2,0,P|72:138|119:141,1,80,8|0,0:0|0:0,0:0:0:0:
201,161,69823,1,2,1:3:0:0:
201,161,69929,1,0,1:0:0:0:
201,161,70035,1,0,1:0:0:0:
247,235,70140,6,0,B|203:258|161:239|161:239|118:251|105:296,1,160,4|0,1:0|3:0,0:0:0:0:
81,366,70457,1,12,0:2:0:0:
81,366,70668,2,0,P|139:363|178:347,1,80,4|2,3:2|3:2,0:0:0:0:
316,283,70880,2,0,L|312:375,1,80,8|2,0:0|0:2,0:0:0:0:
114,218,71091,6,0,P|109:177|124:122,2,80,0|0|8,3:0|3:0|0:0,0:0:0:0:
178,277,71408,1,0,0:0:0:0:
245,221,71513,1,4,3:2:0:0:
245,221,71619,1,0,3:0:0:0:
245,221,71725,1,8,0:0:0:0:
245,221,71830,6,0,B|291:200|291:200|405:200,1,160,4|0,1:1|0:0,0:0:0:0:
245,221,72147,2,0,L|245:141,1,80,12|0,1:2|0:0,0:0:0:0:
65,97,72359,2,0,L|65:177,1,80,12|0,1:2|0:0,0:0:0:0:
131,362,72570,2,0,B|156:323|156:323|156:209,1,160,12|0,1:2|3:0,0:0:0:0:
156,121,72887,5,0,3:0:0:0:
243,121,72992,1,0,3:0:0:0:
331,121,73098,1,0,3:0:0:0:
419,121,73204,1,0,1:0:0:0:
419,121,73309,1,0,1:0:0:0:
394,315,73521,6,0,P|316:313|261:257,1,160,4|0,1:0|3:0,0:0:0:0:
271,179,73837,1,12,0:2:0:0:
271,179,74049,2,0,L|262:259,1,80,4|2,3:2|3:2,0:0:0:0:
197,319,74260,1,8,0:0:0:0:
197,319,74366,1,2,0:2:0:0:
123,272,74471,6,0,P|75:258|25:267,2,80,0|0|8,3:0|3:0|0:0,0:0:0:0:
74,345,74788,1,0,0:0:0:0:
74,345,74894,2,0,L|93:166,1,160,4|8,3:2|0:0,0:0:0:0:
180,104,75211,6,0,B|218:108|218:108|258:92,2,80,0|0|0,3:0|0:0|3:0,0:0:0:0:
83,97,75528,6,0,P|81:54|98:8,1,80,12|2,0:2|0:3,0:0:0:0:
432,75,75739,2,0,P|434:118|417:164,1,80,4|2,3:2|3:3,0:0:0:0:
257,92,75950,1,8,0:0:0:0:
372,349,76161,6,0,L|465:340,2,80,0|0|8,3:0|3:0|0:0,0:0:0:0:
284,358,76478,1,0,0:0:0:0:
323,279,76584,1,0,1:0:0:0:
323,279,76690,1,0,1:0:0:0:
323,279,76795,1,0,1:0:0:0:
273,205,76901,6,0,P|318:188|409:256,1,160,4|0,1:0|3:0,0:0:0:0:
405,243,77218,1,12,0:2:0:0:
405,243,77429,2,0,L|493:232,1,80,4|2,3:2|3:2,0:0:0:0:
235,302,77640,2,0,L|144:298,1,80,8|2,0:0|0:2,0:0:0:0:
67,286,77851,5,0,3:0:0:0:
76,198,77957,1,0,3:0:0:0:
67,286,78063,2,0,L|59:377,1,80,8|0,0:0|0:0,0:0:0:0:
76,198,78274,2,0,L|84:107,2,80,4|0|0,1:2|1:0|1:0,0:0:0:0:
76,198,78591,6,0,B|138:198|138:198|173:221|173:221|237:221,1,160,4|0,1:0|3:0,0:0:0:0:
308,182,78908,1,8,1:0:0:0:
386,143,79013,1,0,1:0:0:0:
459,191,79119,2,0,B|467:229|467:229|456:279,1,80,0|0,3:0|3:0,0:0:0:0:
308,182,79330,2,0,B|300:144|300:144|311:94,1,80,0|0,3:0|3:0,0:0:0:0:
396,56,79542,5,0,1:0:0:0:
386,143,79647,1,0,1:0:0:0:
375,230,79753,1,0,1:0:0:0:
364,317,79859,1,0,1:0:0:0:
296,261,79964,1,0,1:0:0:0:
296,261,80281,6,0,B|235:245|241:290|171:268,1,120,0|2,3:0|0:0,0:0:0:0:
100,235,80704,1,0,0:0:0:0:
100,235,80809,2,0,P|95:271|107:316,1,80,0|2,3:0|0:0,0:0:0:0:
125,340,81126,6,0,L|189:334,1,60.0000022888184,0|0,0:0|3:0,0:0:0:0:
296,261,81337,2,0,L|232:267,1,60.0000022888184,0|2,0:0|0:0,0:0:0:0:
113,212,81549,2,0,L|177:206,1,60.0000022888184,0|0,0:0|3:0,0:0:0:0:
281,122,81760,2,0,L|217:128,1,60.0000022888184,0|2,0:0|0:0,0:0:0:0:
296,261,81971,6,0,P|338:241|418:259,1,120.000004577637,0|0,3:0|0:0,0:0:0:0:
408,252,82288,2,0,L|401:317,1,60.0000022888184,2|0,0:0|0:0,0:0:0:0:
489,224,82499,2,0,L|478:97,1,120.000004577637,0|2,3:0|0:0,0:0:0:0:
478,104,82816,1,0,0:0:0:0:
478,104,82922,1,0,3:0:0:0:
411,50,83028,6,0,L|351:39,1,60.0000022888184,0|2,0:0|0:1,0:0:0:0:
241,104,83239,2,0,L|301:105,1,60.0000022888184,2|0,0:1|3:0,0:0:0:0:
411,160,83450,2,0,L|351:170,1,60.0000022888184,2|2,0:1|0:0,0:0:0:0:
150,103,83661,1,0,1:0:0:0:
341,313,83978,6,0,L|410:300,2,60.0000022888184,2|0|0,0:1|0:0|3:0,0:0:0:0:
265,362,84295,1,0,0:0:0:0:
188,314,84401,2,0,L|121:305,2,60.0000022888184,2|2|0,0:0|0:1|3:0,0:0:0:0:
263,266,84718,6,0,L|261:133,2,120.000004577637,0|0|0,0:0|3:0|0:0,0:0:0:0:
265,362,85246,1,2,0:1:0:0:
265,362,85351,1,0,1:0:0:0:
28,72,85668,5,2,2:1:0:0:
108,72,85880,1,2,2:1:0:0:
187,72,86091,1,0,2:0:0:0:
190,87,86197,1,0,2:0:0:0:
193,103,86302,2,0,L|204:154,1,40,0|0,2:0|2:0,0:0:0:0:
277,69,86513,1,0,2:0:0:0:
277,69,86725,2,0,L|291:157,1,80
289,148,87042,6,2,P|345:161|435:90,1,160,4|2,0:0|3:1,0:0:0:0:
427,108,87359,2,2,P|451:158|453:199,1,80,8|2,0:0|2:1,0:0:0:0:
373,362,87570,2,0,P|369:309|386:265,1,80,2|0,3:1|3:1,0:0:0:0:
289,148,87781,2,2,P|278:195|251:229,1,80,8|2,0:0|2:1,0:0:0:0:
112,176,87992,6,0,L|15:160,2,80,2|0|8,3:1|3:0|0:0,0:0:0:0:
116,180,88309,2,0,B|157:130|157:130|161:113|161:113|170:120|170:120|176:103|176:103|209:62,1,160,0|0,2:0|3:0,0:0:0:0:
120,184,88626,1,8,0:0:0:0:
124,188,88732,6,2,B|145:220|136:255|136:255|152:263|152:263|147:295|166:337,1,160,0|2,3:0|3:1,0:0:0:0:
244,280,89049,2,2,P|253:324|246:373,1,80,8|2,0:0|2:1,0:0:0:0:
164,333,89260,2,2,L|83:341,1,80,0|2,3:0|3:1,0:0:0:0:
84,340,89471,1,10,0:0:0:0:
307,210,89682,5,0,3:1:0:0:
307,210,89788,2,0,P|384:200|475:197,2,160,2|2|0,3:1|2:1|3:0,0:0:0:0:
307,210,90316,1,8,2:0:0:0:
169,190,90422,6,0,B|194:176|194:176|213:211|258:233|307:210,1,160,4|0,0:0|3:0,0:0:0:0:
272,136,90739,1,8,0:0:0:0:
272,136,90844,1,0,2:0:0:0:
373,152,90950,2,0,P|391:188|389:233,1,80,0|0,3:0|3:0,0:0:0:0:
337,297,91161,1,8,0:0:0:0:
337,297,91267,1,0,2:0:0:0:
413,341,91373,6,0,P|455:348|500:339,2,80,0|0|8,3:0|3:0|0:0,0:0:0:0:
456,263,91690,1,0,2:0:0:0:
480,179,91795,2,0,L|488:78,2,80,0|0|8,3:0|3:0|0:0,0:0:0:0:
480,179,92112,6,0,B|394:162|410:221|322:201,1,160,4|0,3:2|3:0,0:0:0:0:
326,201,92429,2,0,L|237:202,1,80,12|0,0:0|0:0,0:0:0:0:
167,349,92640,1,0,3:0:0:0:
167,349,92851,2,0,L|77:349,1,80,12|0,0:0|0:0,0:0:0:0:
35,275,93063,5,0,3:0:0:0:
34,187,93168,1,0,3:0:0:0:
33,98,93274,1,0,1:0:0:0:
121,97,93380,1,0,1:0:0:0:
122,184,93485,2,0,L|122:274,2,80,0|0|2,1:0|3:0|2:0,0:0:0:0:
204,128,93802,6,0,P|260:114|325:135,1,120,0|0,3:0|1:0,0:0:0:0:
419,139,94330,2,0,P|383:149|328:131,1,80,0|0,3:0|1:0,0:0:0:0:
266,201,94753,5,0,3:0:0:0:
266,201,94859,2,0,L|274:282,1,80,2|2,0:2|0:2,0:0:0:0:
277,310,95175,1,0,3:0:0:0:
51,316,95387,5,2,0:2:0:0:
51,316,95492,2,0,B|116:310|108:340|174:331,1,120,0|0,3:0|1:0,0:0:0:0:
201,259,95915,1,2,0:2:0:0:
201,259,96021,1,0,3:0:0:0:
84,187,96232,5,0,1:0:0:0:
84,187,96337,1,2,0:2:0:0:
84,187,96443,2,2,L|88:231,1,40,0|2,3:0|2:1,0:0:0:0:
145,84,96654,2,0,L|148:35,1,40,0|2,1:0|2:1,0:0:0:0:
201,259,96866,1,0,3:0:0:0:
201,259,96971,1,2,0:2:0:0:
275,117,97182,6,0,P|301:110|390:143,1,120,0|0,3:0|1:0,0:0:0:0:
468,309,97711,2,0,L|475:229,1,80,0|0,3:0|1:0,0:0:0:0:
386,138,98133,6,0,L|391:183,1,40,0|2,3:0|0:2,0:0:0:0:
317,230,98344,2,2,L|321:274,1,40,0|2,1:0|2:1,0:0:0:0:
246,314,98556,2,0,L|250:358,2,40,0|2|0,3:0|0:2|1:0,0:0:0:0:
201,179,98873,6,0,L|205:149,4,30.0000011444092,2|2|2|2|2,0:0|0:0|0:0|0:0|0:0,0:0:0:0:
199,206,99190,2,0,L|193:275,1,60.0000022888184,0|0,3:0|3:0,0:0:0:0:
57,42,99401,5,2,0:0:0:0:
57,42,99506,1,2,0:0:0:0:
66,120,99612,2,0,L|74:193,1,60.0000022888184,0|0,3:0|3:0,0:0:0:0:
224,34,99823,5,2,1:0:0:0:
199,206,100035,1,2,1:0:0:0:
319,29,100246,1,2,1:0:0:0:
319,29,100351,1,2,1:0:0:0:
448,184,100563,6,0,B|388:232|388:232|304:232,1,160,4|0,0:0|3:0,0:0:0:0:
304,232,100880,1,8,0:0:0:0:
304,232,101091,2,0,L|322:328,1,80,0|0,3:0|3:0,0:0:0:0:
434,106,101302,2,0,L|451:202,1,80,8|0,0:0|2:0,0:0:0:0:
283,136,101513,6,0,L|271:73,2,53.3333333333333,2|2|2,1:2|2:0|2:0,0:0:0:0:
220,228,101725,2,0,L|208:291,2,53.3333333333333,2|2|2,1:2|2:0|2:0,0:0:0:0:
168,112,101936,2,0,L|151:23,1,80,0|0,3:0|3:0,0:0:0:0:
112,256,102147,5,0,3:0:0:0:
112,256,102253,1,0,3:0:0:0:
112,256,102359,2,0,L|95:345,1,80,0|0,3:0|2:0,0:0:0:0:
136,176,102675,1,2,2:0:0:0:
427,283,102992,1,2,2:0:0:0:
22,346,103309,1,2,2:0:0:0:
256,256,103626,5,0,3:0:0:0:
342,275,103732,1,2,2:0:0:0:
284,341,103837,1,0,2:0:0:0:
256,256,103943,6,0,L|256:136,1,120,4|2,0:0|2:0,0:0:0:0:
256,192,104366,12,0,105739,2:0:0:0:
87,131,107006,6,0,L|0:120,2,80,2|2|2,2:0|2:0|2:0,0:0:0:0:
146,200,107323,6,0,B|213:215|253:164|253:164|247:217,1,160,4|2,1:0|3:2,0:0:0:0:
241,286,107640,1,12,0:2:0:0:
241,286,107851,2,0,L|251:370,1,80,0|2,3:0|3:2,0:0:0:0:
146,200,108063,2,0,P|143:155|163:112,1,80,12|0,0:2|0:0,0:0:0:0:
139,296,108274,5,0,3:0:0:0:
139,296,108380,2,0,L|42:312,1,80,2|8,3:2|0:0,0:0:0:0:
156,123,108591,2,0,B|208:123|242:87|242:87|266:112|311:110,1,160,4|2,0:2|3:2,0:0:0:0:
302,24,108908,1,8,0:0:0:0:
373,78,109013,6,0,B|401:135|357:180|357:180|370:231,1,160,2|2,3:3|3:2,0:0:0:0:
366,315,109330,1,8,0:0:0:0:
366,315,109436,1,0,0:0:0:0:
445,277,109542,2,0,P|456:234|448:188,2,80,2|2|8,3:3|3:2|0:0,0:0:0:0:
445,277,109859,6,0,B|402:268|367:265|367:265|324:284|287:311,1,160,2|2,3:3|3:2,0:0:0:0:
217,341,110175,1,14,0:2:0:0:
139,298,110281,1,2,0:2:0:0:
138,209,110387,1,6,3:2:0:0:
202,149,110492,1,2,3:2:0:0:
288,168,110598,5,10,0:2:0:0:
288,168,110704,2,0,B|227:163|227:163|214:158|214:158|213:166|213:166|199:160|199:160|126:155,1,160,4|2,1:0|3:2,0:0:0:0:
59,293,111021,2,0,L|139:297,1,80,8|0,0:0|0:0,0:0:0:0:
340,252,111232,2,0,L|259:247,1,80,2|2,3:3|3:2,0:0:0:0:
125,58,111443,2,0,L|205:62,1,80,8|0,0:0|0:0,0:0:0:0:
473,109,111654,6,0,B|429:137|406:194|406:194|394:176|360:168,1,160,0|8,3:0|0:0,0:0:0:0:
363,168,111971,2,0,L|351:78,1,80,0|2,0:0|3:3,0:0:0:0:
487,277,112182,2,0,L|499:187,1,80,2|8,3:2|0:0,0:0:0:0:
441,352,112394,6,0,B|324:351|324:351|291:320,1,160,4|2,1:0|3:2,0:0:0:0:
256,242,112711,1,2,1:2:0:0:
256,242,112816,1,2,0:2:0:0:
315,176,112922,2,0,B|320:134|320:134|304:91,2,80,2|2|2,1:2|1:2|1:2,0:0:0:0:
256,242,113239,6,0,B|196:232|196:232|161:249|161:249|81:237,1,160,4|2,1:0|3:3,0:0:0:0:
101,240,113556,1,4,1:2:0:0:
101,240,113661,1,2,1:3:0:0:
92,152,113767,2,0,L|82:61,1,80,4|2,1:2|1:3,0:0:0:0:
68,320,114084,6,0,B|124:320|124:320|148:312|148:312|172:320|172:320|228:320,1,160,4|2,1:0|3:2,0:0:0:0:
225,320,114401,1,12,0:2:0:0:
225,320,114506,1,0,0:0:0:0:
304,280,114612,2,0,L|384:276,1,80,0|2,3:0|3:2,0:0:0:0:
304,364,114823,2,0,L|384:368,1,80,12|0,0:2|0:0,0:0:0:0:
463,238,115035,5,0,3:0:0:0:
463,238,115140,2,0,P|474:280|462:328,1,80,2|8,3:2|0:0,0:0:0:0:
383,276,115351,2,0,B|361:211|406:172|406:172|388:155|385:107,1,160,4|2,0:2|3:2,0:0:0:0:
410,46,115668,1,8,0:0:0:0:
462,115,115774,6,0,P|425:131|326:72,1,160,2|2,3:3|3:2,0:0:0:0:
140,56,116091,2,0,B|197:43|245:68|245:68|248:39|272:15,2,160,8|2|8,0:0|3:3|0:0,0:0:0:0:
29,183,116619,6,0,P|84:160|198:153,1,160,2|2,3:3|3:2,0:0:0:0:
236,211,116936,2,0,P|212:179|184:151,1,80,12|0,0:2|0:0,0:0:0:0:
184,151,117147,1,4,1:2:0:0:
184,151,117253,1,0,1:0:0:0:
184,151,117359,1,0,1:0:0:0:
146,236,117464,6,0,L|136:326,2,80,4|0|2,1:0|0:0|3:2,0:0:0:0:
215,309,117781,2,0,P|255:307|292:292,1,80,8|0,0:0|0:0,0:0:0:0:
452,320,117992,2,0,P|375:299|296:296,1,160,0|8,3:0|0:0,0:0:0:0:
300,300,118309,6,0,L|313:386,2,80,4|0|2,1:0|0:0|3:2,0:0:0:0:
282,213,118626,1,8,0:0:0:0:
265,126,118732,1,2,0:2:0:0:
348,151,118837,2,0,L|444:134,2,80,2|2|2,1:2|1:2|1:2,0:0:0:0:
199,188,119154,5,4,0:0:0:0:
450,315,119366,1,0,0:0:0:0:
450,315,119471,1,0,0:0:0:0:
72,192,119682,1,0,0:0:0:0:
368,40,119894,1,0,0:0:0:0:
256,344,120105,5,0,0:0:0:0:
256,344,120211,1,0,0:0:0:0:
144,40,120422,1,2,0:3:0:0:
440,192,120633,1,2,0:3:0:0:
62,315,120844,5,4,0:0:0:0:
32,60,121056,1,0,0:0:0:0:
32,60,121161,1,0,0:0:0:0:
450,315,121373,5,0,0:0:0:0:
480,60,121584,1,0,0:0:0:0:
480,60,121689,1,4,0:2:0:0:
256,232,121901,5,2,2:0:0:0:
256,232,122006,2,0,L|256:280,6,26.6666666666667,2|2|2|2|2|2|2,2:0|2:0|2:0|2:0|2:0|2:0|2:0,0:0:0:0:
256,328,122535,5,4,3:1:0:0:
256,192,128556,12,4,129295,1:1:0:0:
117,90,129612,6,0,P|96:63|60:39,1,60.0000022888184,2|0,0:0|0:0,0:0:0:0:
38,209,129823,2,0,L|31:275,1,60.0000022888184,8|0,0:0|0:0,0:0:0:0:
189,114,130035,6,0,P|222:109|261:90,1,60.0000022888184,2|0,0:0|0:0,0:0:0:0:
205,215,130246,2,0,L|214:279,1,60.0000022888184,4|0,0:0|0:0,0:0:0:0:
134,164,130457,6,0,P|121:195|118:238,1,60.0000022888184,2|0,0:0|0:0,0:0:0:0:
132,339,130668,1,8,0:0:0:0:
132,339,130774,1,2,0:0:0:0:
27,351,130985,1,4,0:0:0:0:
243,322,131302,5,0,0:0:0:0:
243,322,131408,1,0,0:0:0:0:
243,322,131513,1,10,0:0:0:0:
344,308,131725,1,0,0:0:0:0:
344,308,131831,1,0,0:0:0:0:
344,308,131936,2,0,L|409:301,1,60.0000022888184,6|0,0:0|0:0,0:0:0:0:
451,295,132147,5,2,0:0:0:0:
281,232,132359,1,10,0:0:0:0:
281,232,132675,2,0,L|277:140,1,80,6|0,0:0|0:0,0:0:0:0:
310,60,132992,6,0,P|336:77|366:83,1,60.0000022888184,2|0,0:0|0:0,0:0:0:0:
488,148,133204,2,0,L|497:212,1,60.0000022888184,8|0,0:0|0:0,0:0:0:0:
453,36,133415,6,0,P|425:50|405:72,1,60.0000022888184,2|0,0:0|0:0,0:0:0:0:
312,153,133626,2,0,L|303:217,1,60.0000022888184,4|0,0:0|0:0,0:0:0:0:
403,172,133837,6,0,P|404:140|394:112,1,60.0000022888184,2|0,0:0|0:0,0:0:0:0:
231,78,134049,1,8,0:0:0:0:
231,78,134154,1,2,0:0:0:0:
480,248,134366,6,0,B|424:248|424:248|408:252|408:252|396:244|396:244|380:248|380:248|324:248,1,160,8|8,0:0|0:0,0:0:0:0:
328,252,134682,1,0,0:0:0:0:
332,256,134788,1,0,0:0:0:0:
256,260,134894,2,0,L|336:260,1,80
340,352,135105,2,0,L|419:352,1,80
208,357,135316,6,0,L|160:356,12,40,2|2|2|2|2|2|2|2|2|2|2|2|2,0:2|0:2|0:2|0:2|0:2|0:2|0:2|0:2|0:2|0:2|0:2|0:2|0:2,0:0:0:0:
208,357,136056,6,2,B|204:315|204:315|205:285|205:285|192:267|192:267|196:237|196:237|192:175,1,160,4|2,0:0|0:0,0:0:0:0:
46,130,136373,6,0,B|89:135|89:135|141:123,1,80,10|2,0:0|0:2,0:0:0:0:
346,172,136584,2,0,B|303:167|303:167|251:179,1,80,2|2,0:0|0:2,0:0:0:0:
47,300,136795,2,0,B|90:305|90:305|142:293,1,80,10|2,0:0|0:2,0:0:0:0:
299,276,137006,5,0,0:0:0:0:
225,339,137112,1,2,0:0:0:0:
208,245,137218,1,8,0:0:0:0:
299,276,137323,2,2,B|324:279|336:265|336:265|344:282|344:282|379:264|424:274|441:318,1,160,0|2,0:0|0:0,0:0:0:0:
433,303,137640,1,8,0:0:0:0:
433,303,137746,6,2,B|436:244|436:244|458:214|458:214|462:143,1,160,0|2,0:0|0:0,0:0:0:0:
361,36,138063,2,0,L|368:127,1,80,10|2,0:0|0:2,0:0:0:0:
299,276,138274,2,0,P|251:278|206:257,1,80,2|2,0:0|0:2,0:0:0:0:
434,214,138485,2,0,P|482:216|527:195,1,80,8|2,0:0|0:2,0:0:0:0:
367,115,138697,6,2,B|315:101|315:101|258:116,1,106.666666666667,0|2,3:0|3:1,0:0:0:0:
237,123,138908,2,0,L|228:66,2,53.3333333333333,8|0|0,3:1|3:0|3:0,0:0:0:0:
299,276,139119,5,2,3:1:0:0:
299,276,139225,1,2,3:1:0:0:
299,276,139330,1,8,3:1:0:0:
299,276,139436,2,2,B|310:157|310:157|331:211,1,160,6|2,0:0|0:0,0:0:0:0:
387,256,139753,2,0,P|404:212|398:167,1,80,10|2,0:0|0:2,0:0:0:0:
299,276,139964,6,2,B|238:276|238:276|222:268|222:268|206:277|206:277|137:277,1,160,0|8,0:0|0:0,0:0:0:0:
89,333,140281,1,2,0:2:0:0:
143,277,140387,2,0,L|126:192,1,80
136,119,140598,5,8,0:0:0:0:
136,119,140704,2,0,L|126:211,1,80
221,110,140915,6,0,L|206:239,1,111.999996582031,0|8,0:0|0:0,0:0:0:0:
306,103,141126,6,2,B|299:158|299:158|306:186|306:186|293:209|293:209|285:273,1,160,2|0,0:0|0:0,0:0:0:0:
371,228,141443,6,2,P|415:201|467:210,1,106.666666666667,8|2,0:0|0:2,0:0:0:0:
491,336,141654,2,2,P|446:362|394:353,1,106.666666666667,0|2,0:0|0:2,0:0:0:0:
432,285,141866,6,2,L|422:381,1,80,0|2,0:0|0:0,0:0:0:0:
410,126,142077,2,2,L|415:80,12,40,0|0|0|0|0|0|0|0|0|0|0|0|2,0:0|0:0|0:0|0:0|0:0|0:0|0:0|0:0|0:0|0:0|0:0|0:0|0:0,0:0:0:0:
475,186,142816,6,0,B|410:143|410:143|325:167,1,160,4|0,0:0|0:0,0:0:0:0:
244,346,143133,2,0,P|202:356|150:340,1,80,0|0,3:0|3:0,0:0:0:0:
197,266,143344,2,0,L|192:214,4,40,0|0|0|0|0,0:0|0:0|0:0|0:0|3:0,0:0:0:0:
325,291,143661,5,8,0:0:0:0:
77,232,143873,1,8,0:0:0:0:
123,160,143978,2,0,L|116:101,3,53.3333333333333,0|0|0|0,0:0|0:0|0:0|3:0,0:0:0:0:
77,232,144295,5,8,0:0:0:0:
335,128,144506,1,12,0:2:0:0:
197,266,144718,1,0,3:0:0:0:
197,266,144823,2,0,L|189:364,1,80,8|0,0:0|3:0,0:0:0:0:
248,197,145035,2,0,L|253:139,2,53.3333333333333,0|0|0,0:0|0:0|0:0,0:0:0:0:
277,274,145246,2,0,L|269:372,1,80,0|0,0:0|3:0,0:0:0:0:
333,204,145457,5,8,0:2:0:0:
333,204,145563,1,2,0:2:0:0:
333,204,145668,2,2,B|381:198|381:198|416:229|416:229|439:210|439:210|490:204,1,160,8|2,0:2|0:0,0:0:0:0:
486,366,145985,2,0,L|475:287,1,80,2|0,0:0|0:0,0:0:0:0:
448,129,146197,5,4,0:0:0:0:
73,104,146408,2,0,L|194:134,1,120.000004577637,8|0,0:0|0:0,0:0:0:0:
216,249,146725,2,0,L|189:132,1,120.000004577637,8|0,0:0|0:0,0:0:0:0:
231,90,147042,2,0,L|189:132,1,60.0000022888184,8|0,0:0|0:0,0:0:0:0:
27,178,147253,6,0,P|86:198|148:199,1,120.000004577637,8|0,0:0|0:0,0:0:0:0:
275,240,147570,2,0,P|246:242|217:250,1,60.0000022888184,8|0,0:0|0:0,0:0:0:0:
73,335,147781,5,12,0:2:0:0:
439,335,147992,1,4,3:1:0:0:
73,335,148204,6,0,L|65:267,1,60.0000022888184,0|0,3:0|3:0,0:0:0:0:
145,270,148415,2,0,L|137:202,1,60.0000022888184,0|0,3:0|3:0,0:0:0:0:
220,323,148626,5,0,0:0:0:0:
220,323,148679,1,0,0:0:0:0:
220,323,148732,2,2,B|263:328|263:328|293:312|293:312|329:334|376:320,1,160,6|2,0:0|0:0,0:0:0:0:
452,283,149049,1,10,0:2:0:0:
467,196,149154,1,10,0:2:0:0:
404,133,149260,1,10,0:2:0:0:
316,143,149366,1,10,0:2:0:0:
279,222,149471,1,10,0:2:0:0:
218,158,149577,6,2,B|179:126|179:126|60:140,1,160,6|2,0:1|0:0,0:0:0:0:
49,330,149894,2,0,B|35:292|35:292|40:247,1,80,10|0,0:0|0:0,0:0:0:0:
288,99,150105,2,2,B|302:137|302:137|297:182,1,80,0|2,0:0|0:1,0:0:0:0:
154,363,150316,2,2,L|144:268,1,80,8|2,0:0|0:0,0:0:0:0:
134,200,150528,5,2,0:2:0:0:
134,200,150633,1,2,0:2:0:0:
425,268,150844,1,2,0:2:0:0:
49,330,151056,1,2,0:2:0:0:
254,301,151267,6,2,B|373:287|373:287|410:323,1,160,2|2,0:0|0:0,0:0:0:0:
401,315,151584,2,0,L|409:212,1,80,10|0,0:0|0:0,0:0:0:0:
492,10,151795,2,2,L|484:113,1,80,0|2,0:0|0:0,0:0:0:0:
262,142,152006,2,2,L|269:38,1,80,8|2,0:0|0:0,0:0:0:0:
456,169,152218,5,2,0:2:0:0:
456,169,152323,2,0,B|417:157|417:157|371:169,1,80,2|2,0:2|0:2,0:0:0:0:
314,203,152535,1,2,0:2:0:0:
50,138,152746,1,2,0:2:0:0:
314,203,152957,6,2,B|321:261|321:261|351:286|351:286|361:367,1,160,6|0,0:0|0:0,0:0:0:0:
243,336,153274,2,0,L|151:327,1,80,8|0,0:0|0:0,0:0:0:0:
255,138,153485,2,2,P|312:117|395:179,1,160,2|8,0:0|0:0,0:0:0:0:
417,256,153802,6,2,L|509:247,2,80,0|0|0,0:0|0:0|0:0,0:0:0:0:
417,256,154119,2,2,P|413:297|424:340,1,80,8|2,0:0|0:0,0:0:0:0:
473,156,154330,2,2,P|477:115|466:72,1,80,0|2,0:0|0:0,0:0:0:0:
468,77,154542,1,8,0:0:0:0:
468,77,154647,6,2,B|432:71|432:71|413:88|413:88|360:61|309:107,1,160,6|0,0:0|0:0,0:0:0:0:
252,56,154964,2,0,L|190:49,2,53.3333333333333,8|0|0,3:1|3:0|3:0,0:0:0:0:
379,162,155175,2,0,L|441:169,2,53.3333333333333,0|0|0,3:0|3:0|3:0,0:0:0:0:
229,214,155387,2,0,L|167:207,2,53.3333333333333,8|0|0,3:1|3:0|3:0,0:0:0:0:
365,314,155598,5,0,0:0:0:0:
365,314,155704,2,0,B|331:351|331:351|315:225,1,160,2|2,0:2|0:2,0:0:0:0:
302,131,156021,1,2,0:2:0:0:
302,131,156126,1,6,0:2:0:0:
302,131,156337,6,2,B|384:108|368:184|466:151,1,160,4|2,0:0|0:0,0:0:0:0:
423,76,156654,2,0,P|466:71|504:83,1,80,10|0,0:0|0:0,0:0:0:0:
443,319,156866,2,0,P|400:324|362:312,1,80,2|0,0:0|0:0,0:0:0:0:
72,244,157077,1,8,0:0:0:0:
72,244,157288,6,2,L|83:340,1,80,0|2,0:0|0:0,0:0:0:0:
148,129,157499,2,0,L|159:33,1,80,10|0,0:0|0:0,0:0:0:0:
199,265,157711,2,0,L|210:361,1,80,2|0,0:0|0:0,0:0:0:0:
208,344,158028,6,2,B|266:337|266:337|306:360|306:360|376:354,1,160,2|2,0:0|0:0,0:0:0:0:
457,300,158344,1,10,0:0:0:0:
259,226,158556,2,0,P|262:179|284:146,1,80,2|0,0:0|0:0,0:0:0:0:
348,218,158767,2,0,L|352:283,2,53.3333333333333,8|0|4,0:0|0:0|0:2,0:0:0:0:
289,325,158978,6,2,L|197:320,1,80,0|2,0:0|0:0,0:0:0:0:
424,205,159190,2,2,L|511:193,1,80,8|2,0:0|0:0,0:0:0:0:
259,114,159401,2,2,L|167:109,1,80,8|10,0:0|0:0,0:0:0:0:
101,117,159612,1,8,0:0:0:0:
49,184,159718,6,2,B|100:214|151:185|151:185|156:209|176:233,1,160,6|2,0:0|0:0,0:0:0:0:
468,345,160035,2,2,P|418:350|365:334,1,80,2|0,0:3|0:0,0:0:0:0:
134,307,160246,2,2,P|184:312|237:296,1,80,2|0,0:3|0:0,0:0:0:0:
424,206,160457,2,2,P|374:211|321:195,1,80,2|0,0:3|0:0,0:0:0:0:
192,105,160668,6,2,P|251:87|360:82,2,160,2|2|2,0:3|0:3|0:3,0:0:0:0:
101,117,161197,1,4,0:2:0:0:
101,117,161408,6,2,B|116:232|116:232|170:188,1,160,4|2,0:0|0:0,0:0:0:0:
236,171,161724,5,10,0:2:0:0:
225,260,161830,1,2,0:2:0:0:
306,224,161936,5,10,0:2:0:0:
332,308,162041,1,2,0:2:0:0:
389,233,162147,5,10,0:2:0:0:
472,264,162253,1,2,0:2:0:0:
461,177,162359,6,2,B|439:185|439:185|413:172|413:172|393:185|393:185|347:167|295:220|336:284,1,216.000000823975,6|10,0:0|0:0,0:0:0:0:
345,362,162675,1,8,0:0:0:0:
261,333,162781,1,8,0:0:0:0:
261,333,162887,1,8,0:0:0:0:
473,65,163098,5,4,1:0:0:0:
309,117,163309,1,0,0:0:0:0:
309,117,163415,2,0,P|266:115|226:106,1,80,2|2,0:2|0:2,0:0:0:0:
90,58,163837,1,2,0:2:0:0:
61,230,164049,5,2,0:3:0:0:
61,230,164154,1,2,0:2:0:0:
174,188,164366,2,0,P|207:177|258:179,1,80,2|2,0:2|0:2,0:0:0:0:
326,204,164682,1,0,0:0:0:0:
375,140,164788,6,0,P|388:113|402:49,1,80,2|0,1:3|0:0,0:0:0:0:
375,140,165105,1,2,0:2:0:0:
366,268,165316,2,0,P|372:303|392:352,1,80,2|0,0:2|0:0,0:0:0:0:
308,357,165633,1,2,0:2:0:0:
249,302,165739,6,0,P|222:309|164:310,1,80,2|0,0:3|0:0,0:0:0:0:
90,301,166056,1,2,1:2:0:0:
35,358,166161,1,2,0:2:0:0:
35,358,166267,1,2,1:2:0:0:
153,182,166478,6,0,P|144:144|144:95,1,80,2|0,1:3|0:0,0:0:0:0:
231,76,166795,2,0,L|228:129,1,40,2|0,0:2|0:0,0:0:0:0:
64,185,167006,2,0,L|74:238,1,40,2|0,0:2|0:0,0:0:0:0:
226,233,167218,1,2,0:2:0:0:
226,233,167429,6,0,L|315:223,1,80,2|0,0:3|0:0,0:0:0:0:
448,276,167746,2,0,L|408:280,1,40,2|0,0:2|0:0,0:0:0:0:
203,356,167957,2,0,L|242:351,1,40,2|0,0:2|0:0,0:0:0:0:
325,301,168168,6,0,B|290:237|309:147|309:147|278:188|224:185,1,240.000009155274,8|0,0:0|2:0,0:0:0:0:
239,103,168697,2,0,P|233:71|242:29,1,60.0000022888184,0|0,0:0|2:0,0:0:0:0:
389,111,168908,2,0,P|395:143|386:185,1,60.0000022888184,0|0,0:0|2:0,0:0:0:0:
163,150,169119,5,2,0:0:0:0:
323,50,169330,1,2,0:0:0:0:
92,47,169542,1,2,0:0:0:0:
92,47,169647,1,2,0:0:0:0:
25,278,169859,6,0,B|82:270|82:270|121:291|121:291|184:280,1,160,4|0,0:0|3:0,0:0:0:0:
235,337,170175,2,0,L|178:280,1,80,8|0,0:0|0:0,0:0:0:0:
213,209,170387,2,0,L|178:280,1,80,0|0,3:0|3:0,0:0:0:0:
178,280,170598,1,8,0:0:0:0:
375,319,170809,5,0,3:0:0:0:
367,239,170915,1,0,3:0:0:0:
437,201,171021,2,0,B|464:242|464:242|448:368,2,160,8|0|8,0:0|3:0|1:0,0:0:0:0:
373,151,171549,1,8,1:0:0:0:
316,94,171654,6,0,B|297:60|297:60|303:14,2,80,4|0|0,1:0|0:0|0:0,0:0:0:0:
269,168,171971,2,0,P|219:177|91:182,1,160,4|0,1:2|0:0,0:0:0:0:
52,116,172288,1,4,1:2:0:0:
109,49,172394,1,0,1:0:0:0:
179,101,172499,5,0,1:0:0:0:
179,101,172605,2,0,P|189:155|197:279,1,160,4|0,1:2|0:0,0:0:0:0:
197,259,172922,2,0,P|154:266|106:267,2,80,0|0|0,3:0|3:0|3:0,0:0:0:0:
41,346,173239,6,0,P|89:344|202:370,1,160,4|2,1:0|0:2,0:0:0:0:
332,322,173556,1,4,3:2:0:0:
332,322,173661,1,2,0:2:0:0:
332,322,173767,2,0,L|245:315,1,80,0|2,3:0|0:2,0:0:0:0:
332,322,173978,2,0,L|289:248,1,80,4|2,3:2|0:2,0:0:0:0:
332,322,174190,6,0,B|337:271|337:271|344:251|344:251|339:227|339:227|346:207|346:207|351:159,1,160,0|4,3:0|3:2,0:0:0:0:
350,165,174506,1,2,0:2:0:0:
359,19,174612,2,0,B|324:68|324:68|350:165,1,160,0|4,3:0|3:2,0:0:0:0:
424,212,174929,5,2,1:2:0:0:
502,171,175035,1,0,1:0:0:0:
249,219,175246,5,0,1:0:0:0:
249,219,175351,2,0,B|213:201|213:201|137:218|137:218|93:198,2,160,0|0|0,1:0|1:0|1:0,0:0:0:0:
324,265,175880,5,0,1:0:0:0:
369,190,175985,1,0,1:0:0:0:
296,139,176091,1,0,1:0:0:0:
296,139,176197,1,0,1:0:0:0:
296,139,176302,2,0,L|289:85,6,40,2|2|2|2|2|2|2,0:2|0:2|0:2|0:2|0:2|0:2|0:2,0:0:0:0:
296,139,176725,6,0,L|206:140,1,80,4|0,1:0|0:0,0:0:0:0:
127,138,176936,1,0,1:0:0:0:
127,138,177042,1,0,1:0:0:0:
456,261,177253,1,0,1:0:0:0:
68,351,177464,1,0,1:0:0:0:
256,192,177570,12,4,178309,1:0:0:0:
93,168,178837,6,0,L|85:300,1,120,2|2,0:3|0:0,0:0:0:0:
45,359,179260,2,0,P|78:366|135:350,1,80,0|2,0:0|0:0,0:0:0:0:
212,138,179682,6,0,L|220:270,2,120,2|2|2,0:3|0:0|0:0,0:0:0:0:
290,52,180528,2,0,B|373:34|368:89|452:69,1,160,2|2,0:3|0:0,0:0:0:0:
445,70,181373,6,0,P|452:106|447:157,1,80,2|0,0:3|0:0,0:0:0:0:
256,192,181690,12,0,183274,2:0:0:0:
129,302,184753,5,2,1:2:0:0:
129,302,184859,1,2,1:2:0:0:
254,100,185070,6,0,B|299:99|299:99|355:145|355:145|403:145,1,160,4|0,1:0|3:0,0:0:0:0:
397,145,185387,1,12,0:2:0:0:
353,327,185598,2,0,L|356:228,1,80,0|0,3:0|3:0,0:0:0:0:
265,188,185809,2,0,B|250:228|250:228|262:267,1,80,12|0,0:2|0:0,0:0:0:0:
129,302,186021,5,0,3:0:0:0:
129,302,186126,2,0,L|27:308,1,80,0|8,3:0|0:0,0:0:0:0:
32,168,186337,2,0,B|88:151|134:188|134:188|155:166|195:166,1,160,4|0,0:2|3:0,0:0:0:0:
265,188,186654,1,8,0:0:0:0:
203,248,186760,6,0,L|182:84,1,160,2|0,3:3|3:0,0:0:0:0:
182,89,187077,1,8,0:0:0:0:
182,89,187288,2,0,P|132:85|88:73,2,80,2|0|8,3:3|3:0|0:0,0:0:0:0:
437,41,187605,6,0,P|380:43|269:65,1,160,2|0,3:3|3:0,0:0:0:0:
132,219,187922,2,0,P|169:197|206:169,1,80,8|0,0:0|0:0,0:0:0:0:
373,157,188133,2,0,P|335:156|270:141,1,80,0|0,1:0|1:0,0:0:0:0:
293,148,188344,1,0,1:0:0:0:
293,148,188450,6,0,B|311:211|258:251|258:251|276:274|277:304,1,160,4|0,1:0|3:0,0:0:0:0:
198,320,188767,1,12,0:2:0:0:
198,320,188873,1,0,0:0:0:0:
271,373,188978,2,0,B|320:378|353:345|363:307|363:307|417:294,1,160,0|8,3:0|0:0,0:0:0:0:
512,231,189295,6,0,P|476:297|399:299,1,160,4|0,1:0|3:0,0:0:0:0:
348,227,189612,1,0,1:0:0:0:
331,140,189718,1,0,1:0:0:0:
319,53,189823,1,0,1:0:0:0:
232,69,189929,1,0,0:0:0:0:
232,69,190035,1,2,2:0:0:0:
232,69,190140,6,2,B|182:70|182:70|151:63|151:63|109:97|109:97|41:97,1,191.999994140625,4|2,1:0|2:1,0:0:0:0:
52,97,190457,1,2,2:1:0:0:
158,219,190668,1,2,0:0:0:0:
232,69,190880,1,2,0:0:0:0:
158,219,191091,6,0,P|115:220|71:200,1,80.0000030517579,2|2,0:0|0:0,0:0:0:0:
58,187,191302,1,0,0:0:0:0:
177,306,191443,2,0,P|216:287|317:288,2,120.000004577637,2|2|2,0:0|0:0|0:0,0:0:0:0:
399,120,192077,5,2,0:2:0:0:
399,120,192147,2,0,L|392:208,1,80.0000030517579,2|2,0:0|0:2,0:0:0:0:
416,276,192359,2,0,L|409:364,1,80.0000030517579,2|2,0:0|0:0,0:0:0:0:
486,152,192675,5,2,0:0:0:0:
325,249,192887,1,0,3:0:0:0:
325,249,192992,2,0,L|260:239,1,60.0000022888184,2|2,3:2|3:2,0:0:0:0:
183,224,193204,1,0,1:0:0:0:
183,224,193309,1,0,1:0:0:0:
411,86,193521,6,0,B|454:103|454:103|508:94,2,92.0000017547608,4|0|0,0:0|3:0|0:0,0:0:0:0:
411,86,193837,2,0,B|328:51|328:51|232:78,1,184.000003509522,12|0,0:2|0:0,0:0:0:0:
159,104,194154,1,0,0:0:0:0:
159,104,194260,1,12,0:2:0:0:
366,329,194471,6,0,P|280:307|243:226,1,184.000003509522,0|8,0:0|0:0,0:0:0:0:
128,187,194788,2,0,B|192:203|232:159|232:159|252:191|240:247,1,184.000003509522,2|2,3:3|0:3,0:0:0:0:
176,276,195105,1,8,0:0:0:0:
251,310,195211,6,0,B|309:303|328:237|328:237|362:258|401:247,1,184.000003509522,4|0,0:0|3:0,0:0:0:0:
382,166,195528,1,8,0:0:0:0:
382,166,195633,1,0,0:0:0:0:
395,248,195739,2,0,L|411:343,2,92.0000017547608,8|0|8,3:2|3:0|3:2,0:0:0:0:
398,23,196056,6,0,P|444:44|462:170,1,184.000003509522,4|2,0:0|3:3,0:0:0:0:
382,166,196373,1,8,0:0:0:0:
300,157,196478,1,2,0:3:0:0:
217,145,196584,1,8,0:0:0:0:
134,134,196690,1,2,0:3:0:0:
25,314,196901,6,0,B|58:305|86:312|86:312|114:283|114:283|139:294|139:294|200:292,1,184.000003509522,4|0,0:0|3:0,0:0:0:0:
193,292,197218,1,12,0:2:0:0:
193,292,197323,1,2,2:2:0:0:
258,232,197429,2,0,P|266:183|249:119,1,92.0000017547608,12|2,0:2|2:2,0:0:0:0:
192,77,197640,2,0,P|143:69|79:86,1,92.0000017547608,12|2,0:2|2:2,0:0:0:0:
44,244,197851,6,0,L|45:340,2,92.0000017547608,0|2|8,0:0|2:2|0:0,0:0:0:0:
104,156,198168,2,0,P|149:148|194:156,1,92.0000017547608,4|8,2:2|0:0,0:0:0:0:
388,344,198380,2,0,P|342:336|297:344,1,92.0000017547608,4|8,2:2|0:0,0:0:0:0:
147,230,198591,6,0,B|211:222|245:282|245:282|273:259|322:265,1,184.000003509522
388,256,198908,1,12,0:2:0:0:
384,99,199119,2,0,B|306:86|306:86|252:121|277:189,1,184.000003509522,12|8,0:2|0:0,0:0:0:0:
295,359,199436,6,0,L|273:177,1,184.000003509522
215,115,199753,1,8,0:0:0:0:
215,115,199859,1,0,0:0:0:0:
194,199,199964,2,0,P|148:205|97:188,2,92.0000017547608,0|0|0,3:0|3:0|3:0,0:0:0:0:
194,199,200281,6,0,B|243:186|285:180|285:180|335:202|368:233,1,184.000003509522,4|0,0:0|3:0,0:0:0:0:
362,227,200598,1,8,0:0:0:0:
109,351,200809,2,0,B|62:361|62:361|3:344,2,92.0000017547608,0|0|8,3:0|3:0|0:0,0:0:0:0:
109,351,201126,6,0,L|110:166,1,184.000003509522,4|0,0:0|3:0,0:0:0:0:
248,49,201443,2,0,L|248:141,1,92.0000017547608,10|2,0:2|3:2,0:0:0:0:
362,319,201654,2,0,L|362:227,1,92.0000017547608,10|2,0:2|3:2,0:0:0:0:
448,135,201866,1,2,3:2:0:0:
448,135,201971,1,4,0:0:0:0:
105,236,202288,5,0,0:0:0:0:
105,236,202499,2,0,L|100:194,1,40,0|0,0:0|2:0,0:0:0:0:
144,331,202711,2,0,L|139:373,1,40,0|0,0:0|2:0,0:0:0:0:
196,191,202922,5,0,0:0:0:0:
196,191,203028,1,0,0:0:0:0:
308,356,203239,2,0,L|473:355,2,160,0|0|0,0:0|0:0|0:0,0:0:0:0:
229,353,203767,6,0,L|223:301,1,40,0|0,2:0|2:0,0:0:0:0:
364,148,203978,2,0,L|358:200,1,40,0|0,0:0|2:0,0:0:0:0:
276,150,204190,1,0,0:0:0:0:
276,150,204401,1,0,0:0:0:0:
314,72,204506,6,0,P|278:61|200:104,1,120.000004577637,0|2,0:0|2:0,0:0:0:0:
196,220,204823,2,0,L|189:264,2,40.000001525879,2|2|2,2:0|2:0|2:0,0:0:0:0:
316,220,205035,2,0,L|323:264,2,40.000001525879,2|2|2,2:0|2:0|2:0,0:0:0:0:
256,292,205246,6,0,L|256:376,1,80,2|4,3:2|3:1,0:0:0:0:
