osu file format v12

[General]
AudioFilename: Megpoid GUMI - Ikasama Life Game.mp3
AudioLeadIn: 0
PreviewTime: 58901
Countdown: 0
SampleSet: Normal
StackLeniency: 0.7
Mode: 0
LetterboxInBreaks: 0

[Editor]
Bookmarks: 10901,30101,40671,194796,219696,229296,238896
DistanceSpacing: 1
BeatDivisor: 4
GridSize: 4

[Metadata]
Title:Ikasama Life Game
TitleUnicode:イカサマライフゲイム
Artist:kemu
ArtistUnicode:kemu
Creator:a3272509123
Version:Regou
Source:
Tags:Megpoid GUMI hatsuko ke-sanβ suzumu Vocaloid Flask Amamiya Yuko Regou Skystar
BeatmapID:210718
BeatmapSetID:59792

[Difficulty]
HPDrainRate:7
CircleSize:4
OverallDifficulty:8
ApproachRate:9
SliderMultiplier:1.8
SliderTickRate:1

[Events]
//Background and Video events
Video,0,"video.flv"
0,0,"background.jpg",0,0
//Break Periods
2,20695,29496
2,78296,87096
2,135895,139896
2,179096,187896
//Storyboard Layer 0 (Background)
//Storyboard Layer 1 (Fail)
//Storyboard Layer 2 (Pass)
//Storyboard Layer 3 (Foreground)
//Storyboard Sound Samples
//Background Colour Transformations
3,100,163,162,255

[TimingPoints]
10896,300,4,2,1,50,1,0
10896,-200,4,2,1,50,0,0
18096,-100,4,2,1,70,0,0
19896,-100,4,1,1,30,0,0
20196,-66.6666666666667,4,1,0,80,0,0
30246,-133.333333333333,4,2,1,80,0,0
32496,-133.333333333333,4,2,1,60,0,0
33096,-133.333333333333,4,2,1,40,0,0
33696,-133.333333333333,4,2,1,80,0,0
37296,-133.333333333333,4,2,1,60,0,0
37896,-133.333333333333,4,2,1,40,0,0
38496,-100,4,1,1,80,0,0
39696,-100,4,2,2,80,0,0
48096,-100,4,1,1,80,0,0
49296,-100,4,1,1,80,0,0
50496,-100,4,2,1,80,0,0
51696,-100,4,1,1,80,0,0
53046,-100,4,2,1,80,0,0
54096,-100,4,1,1,80,0,0
55296,-100,4,2,1,80,0,0
56496,-133.333333333333,4,1,1,80,0,0
57696,-100,4,1,1,80,0,0
58896,-100,4,1,1,90,0,1
68421,-100,4,1,1,90,0,0
68496,-100,4,1,1,90,0,1
77496,-66.6666666666667,4,1,1,90,0,1
78021,-100,4,1,1,80,0,0
78096,-100,4,1,1,80,0,1
78171,-100,4,1,1,80,0,0
87696,-200,4,2,1,80,0,0
90696,-200,4,2,1,60,0,0
91296,-200,4,2,1,40,0,0
91896,-200,4,2,1,80,0,0
92496,-133.333333333333,4,2,1,80,0,0
94296,-133.333333333333,4,2,1,60,0,0
94446,-133.333333333333,4,2,1,40,0,0
94896,-133.333333333333,4,2,1,10,0,0
95946,-133.333333333333,4,2,1,80,0,0
96696,-80,4,1,1,80,0,0
97296,-100,4,2,2,80,0,0
99696,-100,4,2,2,60,0,0
100296,-100,4,2,2,40,0,0
100746,-100,4,2,2,80,0,0
104496,-100,4,2,2,60,0,0
105546,-100,4,1,2,80,0,0
108096,-100,4,2,2,80,0,0
109296,-100,4,1,2,80,0,0
111096,-100,4,1,2,50,0,0
111696,-100,4,1,2,80,0,0
112896,-100,4,2,2,80,0,0
114096,-200,4,1,2,80,0,0
115296,-200,4,2,1,80,0,0
115596,-200,4,2,1,60,0,0
115896,-200,4,2,1,40,0,0
116196,-200,4,2,1,20,0,0
116496,-100,4,1,1,90,0,1
126021,-100,4,1,1,90,0,0
126096,-100,4,1,1,90,0,1
135096,-66.6666666666667,4,1,1,90,0,1
135471,-100,4,2,1,90,0,1
135621,-100,4,2,1,90,0,0
135696,-100,4,2,1,70,0,1
135771,-100,4,2,1,70,0,0
148896,-100,4,2,0,70,0,0
149196,-100,4,2,1,70,0,0
154296,-100,4,2,0,70,0,0
154896,-133.333333333333,4,2,0,70,0,0
155496,-133.333333333333,4,1,1,70,0,0
157296,-100,4,1,1,40,0,0
157596,-100,4,1,1,50,0,0
157896,-100,4,1,1,60,0,0
158196,-100,4,1,1,70,0,0
159696,-100,4,1,2,80,0,0
177996,-100,4,1,2,70,0,0
178296,-100,4,1,2,60,0,0
178596,-100,4,1,2,50,0,0
178896,-100,4,2,2,60,0,0
188496,-200,4,2,2,80,0,0
194496,-200,4,1,2,60,0,0
196896,-100,4,1,1,80,0,0
198096,-100,4,1,1,90,0,1
207621,-100,4,1,1,90,0,0
207696,-83.3333333333333,4,1,1,90,0,1
216996,-66.6666666666667,4,1,1,90,0,1
219696,-100,4,2,1,80,0,0
238746,-100,4,2,1,30,0,0
238971,-100,4,2,1,10,0,0

[Colours]
Combo1 : 0,128,255
Combo2 : 255,0,0
Combo3 : 5,5,240
Combo4 : 128,0,0

[HitObjects]
112,92,10896,1,0,0:0:0:0:
116,120,11046,1,0,0:0:0:0:
120,148,11196,1,2,0:0:0:0:
124,176,11346,1,0,0:0:0:0:
116,344,11646,1,2,0:0:0:0:
264,280,11946,5,0,0:0:0:0:
288,272,12096,1,0,0:0:0:0:
312,268,12246,2,0,B|364:272|400:284,1,90,2|0,0:0|0:0,0:0:0:0:
496,136,12846,5,0,0:0:0:0:
472,144,12996,1,0,0:0:0:0:
444,144,13146,1,2,0:0:0:0:
416,132,13296,1,0,0:0:0:0:
384,128,13446,1,0,0:0:0:0:
356,132,13596,1,2,0:0:0:0:
328,144,13746,2,0,B|224:144,1,90,0|2,0:0|0:0,0:0:0:0:
64,196,14346,5,0,0:0:0:0:
112,20,14646,1,2,0:0:0:0:
128,44,14796,1,0,0:0:0:0:
136,76,14946,1,0,0:0:0:0:
140,112,15096,2,0,B|132:140|144:172,1,45,0|2,0:0|0:0,0:0:0:0:
152,188,15396,1,0,0:0:0:0:
152,188,15546,1,0,0:0:0:0:
256,192,15696,12,4,18096,0:0:0:0:
256,192,18171,12,0,19896,0:0:0:0:
256,92,20196,2,0,B|220:156|296:208|244:276|244:276|208:248|224:204,1,270.000010299683,0|4,0:0|0:0,0:0:0:0:
112,64,30096,5,4,0:0:0:0:
80,132,30246,2,0,B|92:208,1,67.5000025749208,0|8,0:0|0:0,0:0:0:0:
48,264,30546,1,0,0:0:0:0:
120,272,30696,2,0,B|192:256|264:288,1,135.000005149842,0|8,0:0|0:0,0:0:0:0:
456,248,31146,1,0,0:0:0:0:
456,248,31296,2,0,B|384:268|312:228,1,135.000005149842,0|8,0:0|0:0,0:0:0:0:
260,192,31746,1,0,0:0:0:0:
200,136,31896,5,6,0:0:0:0:
200,136,32046,1,0,0:0:0:0:
168,64,32196,1,12,0:0:0:0:
168,64,32346,1,0,0:0:0:0:
168,64,32496,5,6,0:0:0:0:
168,104,32646,1,0,0:0:0:0:
164,140,32796,1,12,0:0:0:0:
156,172,32946,1,0,0:0:0:0:
188,240,33096,5,6,0:0:0:0:
192,264,33246,1,0,0:0:0:0:
200,288,33396,1,12,0:0:0:0:
216,308,33546,1,0,0:0:0:0:
288,336,33696,6,0,B|364:328,1,67.5000025749208,6|2,0:0|0:0,0:0:0:0:
472,260,33996,2,0,B|396:268,1,67.5000025749208,8|8,0:0|0:0,0:0:0:0:
224,376,34296,1,0,0:0:0:0:
128,340,34446,1,8,0:0:0:0:
128,340,34521,1,0,0:0:0:0:
128,340,34596,2,0,B|104:296|116:256,1,67.5000025749208,8|0,0:0|0:0,0:0:0:0:
132,200,34896,5,4,0:0:0:0:
148,120,35046,1,0,0:0:0:0:
124,44,35196,2,0,B|44:40,1,67.5000025749208,8|8,0:0|0:0,0:0:0:0:
148,120,35496,2,0,B|300:116,1,135.000005149842,2|8,0:0|0:0,0:0:0:0:
352,80,35946,1,0,0:0:0:0:
416,128,36096,2,0,B|452:196|420:268,1,135.000005149842,0|8,0:0|0:0,0:0:0:0:
376,316,36546,1,0,0:0:0:0:
304,348,36696,5,4,0:0:0:0:
304,348,36846,1,0,0:0:0:0:
312,272,36996,1,12,0:0:0:0:
312,272,37146,1,0,0:0:0:0:
364,208,37296,5,6,0:0:0:0:
380,180,37446,1,0,0:0:0:0:
392,152,37596,1,12,0:0:0:0:
404,120,37746,1,0,0:0:0:0:
328,120,37896,5,6,0:0:0:0:
320,96,38046,1,0,0:0:0:0:
308,72,38196,1,12,0:0:0:0:
292,52,38346,6,0,B|256:56,1,33.7500012874604,4|0,0:0|0:0,0:0:0:0:
236,68,38496,6,0,B|132:52,1,90,4|0,0:0|0:0,0:0:0:0:
60,216,38796,1,8,0:0:0:0:
144,164,38946,1,0,0:0:0:0:
144,164,39021,1,0,0:0:0:0:
144,164,39096,2,0,B|180:212|144:280,1,90,2|0,0:0|0:0,0:0:0:0:
252,268,39396,2,0,B|240:328|168:344,1,90,10|0,0:0|0:0,0:0:0:0:
260,176,39696,5,4,0:0:0:0:
352,152,39846,1,0,0:0:0:0:
408,236,39996,1,8,0:0:0:0:
340,308,40146,1,0,0:0:0:0:
340,308,40296,2,0,B|384:340|440:344|488:316|508:256,1,180,2|8,0:0|0:0,0:0:0:0:
252,268,40746,1,0,0:0:0:0:
252,268,40896,2,0,B|208:236|152:231|104:260|84:320,1,180,2|8,0:0|0:0,0:0:0:0:
184,340,41346,1,2,0:0:0:0:
272,360,41496,5,0,0:0:0:0:
228,176,41646,1,0,0:0:0:0:
228,176,41721,1,0,0:0:0:0:
228,176,41796,1,8,0:0:0:0:
200,84,41946,1,0,0:0:0:0:
136,152,42096,5,6,0:0:0:0:
168,244,42246,1,0,0:0:0:0:
260,272,42396,1,8,0:0:0:0:
336,216,42546,1,0,0:0:0:0:
136,152,42696,5,4,0:0:0:0:
120,228,42846,1,0,0:0:0:0:
152,304,42996,1,8,0:0:0:0:
228,336,43146,2,0,B|280:320|356:348,1,90,0|4,0:0|0:0,0:0:0:0:
480,268,43446,5,4,0:0:0:0:
480,268,43521,1,0,0:0:0:0:
480,268,43596,2,0,B|436:288|372:272,1,90,12|0,0:0|0:0,0:0:0:0:
304,244,43896,1,2,0:0:0:0:
260,160,44046,1,0,0:0:0:0:
260,160,44121,1,0,0:0:0:0:
260,160,44196,1,8,0:0:0:0:
276,64,44346,1,0,0:0:0:0:
276,64,44496,5,4,0:0:0:0:
352,136,44646,2,0,B|400:152|460:128,1,90,0|8,0:0|0:0,0:0:0:0:
260,160,44946,1,0,0:0:0:0:
188,96,45096,2,0,B|100:68|0:88,1,180,2|8,0:0|0:0,0:0:0:0:
48,168,45546,1,0,0:0:0:0:
104,244,45696,6,0,B|116:288|92:336,1,90,2|0,0:0|0:0,0:0:0:0:
94,331,45921,1,0,0:0:0:0:
94,331,45996,1,8,0:0:0:0:
192,296,46146,1,0,0:0:0:0:
8,268,46296,1,2,0:0:0:0:
48,168,46446,1,0,0:0:0:0:
168,180,46596,1,8,0:0:0:0:
94,331,46746,1,0,0:0:0:0:
94,331,46896,5,6,0:0:0:0:
192,296,47046,1,0,0:0:0:0:
296,300,47196,1,8,0:0:0:0:
392,336,47346,1,0,0:0:0:0:
392,336,47496,5,4,0:0:0:0:
456,292,47646,1,0,0:0:0:0:
492,224,47796,1,8,0:0:0:0:
492,148,47946,1,12,0:0:0:0:
492,148,48021,1,0,0:0:0:0:
492,148,48096,6,0,B|512:52,1,90,6|0,0:0|0:0,0:0:0:0:
304,136,48396,1,10,0:0:0:0:
216,176,48546,2,0,B|240:240|320:268|392:192,1,180,2|0,0:0|0:0,0:0:0:0:
388,76,48996,1,10,0:0:0:0:
236,52,49146,1,0,0:0:0:0:
160,104,49296,6,0,B|-8:184,1,180,4|8,0:0|0:0,0:0:0:0:
56,256,49746,2,0,B|112:216|192:240|216:316,1,180,0|0,0:0|2:0,0:0:0:0:
208,296,50346,5,0,0:0:0:0:
292,352,50496,1,4,0:0:0:0:
384,308,50646,1,0,0:0:0:0:
296,260,50796,1,8,0:0:0:0:
232,184,50946,1,0,0:0:0:0:
344,180,51096,1,2,0:0:0:0:
344,180,51246,2,0,B|392:184|428:152,1,90,0|8,0:0|0:0,0:0:0:0:
232,184,51546,1,0,0:0:0:0:
232,184,51696,6,0,B|32:212,1,180
44,112,52146,2,0,B|100:140|184:100|180:16,1,180
179,36,52746,1,0,0:0:0:0:
264,92,52896,1,0,0:0:0:0:
232,184,53046,1,0,0:0:0:0:
140,180,53196,1,4,0:0:0:0:
104,96,53346,1,0,0:0:0:0:
140,180,53496,1,2,0:0:0:0:
112,272,53646,1,0,0:0:0:0:
180,344,53796,1,8,0:0:0:0:
260,284,53946,1,0,0:0:0:0:
260,284,54096,6,0,B|360:284,1,90,0|0,0:0|2:0,0:0:0:0:
184,232,54396,1,8,0:0:0:0:
184,232,54546,2,0,B|128:232|128:232|96:212|96:212|-12:212,1,180
9,212,55146,1,2,0:0:0:0:
44,308,55296,1,0,0:0:0:0:
140,320,55446,1,0,0:0:0:0:
184,232,55596,1,8,0:0:0:0:
100,164,55746,1,0,0:0:0:0:
100,164,55821,1,0,0:0:0:0:
100,164,55896,2,0,B|72:120|96:60,1,90,2|8,0:0|0:0,0:0:0:0:
244,136,56196,2,0,B|348:152,1,90,8|0,0:0|0:0,0:0:0:0:
412,300,56496,5,0,0:0:0:0:
412,300,56646,2,0,B|488:276|496:184,1,135.000005149842
493,202,57096,1,0,0:0:0:0:
200,328,57546,5,0,0:0:0:0:
200,328,57621,1,0,0:0:0:0:
200,328,57696,2,0,B|100:348,1,90,4|0,0:0|0:0,0:0:0:0:
308,268,57996,2,0,B|420:292,1,90,8|0,0:0|0:0,0:0:0:0:
160,232,58296,1,0,0:0:0:0:
140,212,58371,1,0,0:0:0:0:
128,188,58446,1,0,0:0:0:0:
124,160,58521,1,0,0:0:0:0:
124,132,58596,1,8,0:0:0:0:
136,108,58671,1,0,0:0:0:0:
160,88,58746,1,0,0:0:0:0:
188,76,58821,1,0,0:0:0:0:
216,76,58896,6,0,B|332:76,1,90,4|2,0:0|0:0,0:0:0:0:
368,172,59196,1,8,0:0:0:0:
284,344,59346,1,2,0:0:0:0:
284,344,59421,1,0,0:0:0:0:
284,344,59496,2,0,B|232:304|240:244,1,90,2|0,0:0|0:0,0:0:0:0:
268,156,59796,1,8,0:0:0:0:
372,308,59946,6,0,B|472:308,1,90,0|2,0:0|0:0,0:0:0:0:
152,264,60246,2,0,B|60:264,1,90,2|8,0:0|0:0,0:0:0:0:
16,164,60546,1,0,0:0:0:0:
16,164,60621,1,0,0:0:0:0:
16,164,60696,2,0,B|72:148|96:68,1,90,0|2,0:0|0:0,0:0:0:0:
160,20,60996,1,8,0:0:0:0:
244,224,61146,1,2,0:0:0:0:
304,332,61296,6,0,B|360:356|420:328,1,90,0|2,0:0|0:0,0:0:0:0:
432,240,61596,1,10,0:0:0:0:
209,142,61746,2,0,B|243:225,1,90,2|0,0:0|0:3,0:0:0:0:
368,148,62046,1,2,0:0:0:0:
368,148,62121,1,0,0:0:0:0:
368,148,62196,2,0,B|412:128|412:56,1,90,10|0,0:0|0:0,0:0:0:0:
96,84,62496,5,2,0:0:0:0:
228,56,62646,1,0,0:0:0:0:
264,200,62796,1,10,0:0:0:0:
68,176,62946,1,0,0:0:0:0:
48,288,63096,6,0,B|116:256|216:292,1,135,2|0,0:0|0:0,0:0:0:0:
248,312,63396,1,10,0:0:0:0:
484,304,63546,5,2,0:0:0:0:
484,304,63621,1,0,0:0:0:0:
484,304,63696,2,0,B|432:328|368:288,1,90,6|0,0:0|0:0,0:0:0:0:
308,204,63996,1,8,0:0:0:0:
372,84,64146,1,2,0:0:0:0:
372,84,64221,1,0,0:0:0:0:
372,84,64296,2,0,B|428:64|484:104,1,90,0|2,0:0|0:0,0:0:0:0:
344,296,64596,1,8,0:0:0:0:
180,340,64746,1,2,0:0:0:0:
56,216,64896,6,0,B|100:180|84:96,1,90,0|2,0:0|0:0,0:0:0:0:
48,24,65196,1,10,0:0:0:0:
176,72,65346,1,0,0:0:0:0:
200,68,65421,1,0,0:0:0:0:
224,72,65496,2,0,B|256:72|256:72|272:80|272:80|332:80,1,90,2|0,0:0|0:0,0:0:0:0:
472,172,65796,1,8,0:0:0:0:
440,164,65871,1,0,0:0:0:0:
408,168,65946,1,2,0:0:0:0:
384,188,66021,1,0,0:0:0:0:
368,220,66096,6,0,B|384:308,1,90,2|0,0:0|0:0,0:0:0:0:
440,64,66396,1,8,0:0:0:0:
332,104,66546,2,0,B|288:128|216:92,1,90,2|2,0:0|0:0,0:0:0:0:
44,144,66846,2,0,B|92:120|160:156,1,90,0|10,0:0|0:0,0:0:0:0:
272,344,67146,5,2,0:0:0:0:
80,368,67296,1,4,0:0:0:0:
56,344,67371,1,0,0:0:0:0:
40,312,67446,1,0,0:0:0:0:
36,276,67521,1,0,0:0:0:0:
40,244,67596,5,10,0:0:0:0:
56,216,67671,1,0,0:0:0:0:
68,188,67746,1,2,0:0:0:0:
76,152,67821,1,0,0:0:0:0:
68,120,67896,6,0,B|56:64,1,45,2|0,0:0|0:0,0:0:0:0:
192,200,68046,2,0,B|180:152,1,45,0|0,0:0|0:0,0:0:0:0:
308,120,68196,2,0,B|296:64,1,45,10|0,0:0|0:0,0:0:0:0:
432,200,68346,2,0,B|420:152,1,45,0|0,0:0|0:0,0:0:0:0:
396,136,68496,6,0,B|388:180|388:180|408:240,1,90,6|2,0:0|0:0,0:0:0:0:
440,360,68796,1,8,0:0:0:0:
484,64,68946,1,2,0:0:0:0:
484,64,69021,1,0,0:0:0:0:
484,64,69096,2,0,B|448:28|388:16,1,90,0|2,0:0|0:0,0:0:0:0:
164,68,69396,1,8,0:0:0:0:
208,176,69546,6,0,B|320:172,1,90,0|2,0:0|0:0,0:0:0:0:
100,160,69846,2,0,B|-16:164,1,90,2|8,0:0|0:0,0:0:0:0:
176,336,70146,1,2,0:0:0:0:
176,336,70221,1,0,0:0:0:0:
176,336,70296,2,0,B|224:360|284:336,1,90,0|2,0:0|0:0,0:0:0:0:
432,288,70596,1,8,0:0:0:0:
384,108,70746,1,2,0:0:0:0:
336,284,70896,6,0,B|340:348|404:368,1,90,2|0,0:0|0:0,0:0:0:0:
496,216,71196,1,8,0:0:0:0:
300,200,71346,1,2,0:0:0:0:
300,200,71421,1,0,0:0:0:0:
300,200,71496,2,0,B|256:220|240:272,1,90,2|0,0:0|0:0,0:0:0:0:
376,304,71796,1,8,0:0:0:0:
424,188,71946,5,2,0:0:0:0:
352,76,72096,1,2,0:0:0:0:
300,200,72246,1,2,0:0:0:0:
456,216,72396,5,8,0:0:0:0:
344,32,72546,1,2,0:0:0:0:
268,228,72696,1,0,0:0:0:0:
116,364,72846,5,2,0:0:0:0:
92,336,72921,1,0,0:0:0:0:
84,300,72996,1,10,0:0:0:0:
92,264,73071,1,0,0:0:0:0:
116,240,73146,1,0,0:0:0:0:
124,204,73221,1,0,0:0:0:0:
112,172,73296,6,0,B|84:76,1,90,4|2,0:0|0:0,0:0:0:0:
0,40,73596,1,8,0:0:0:0:
216,216,73746,1,2,0:0:0:0:
216,216,73821,1,0,0:0:0:0:
216,216,73896,2,0,B|252:320,1,90,2|0,0:0|0:0,0:0:0:0:
348,364,74196,1,8,0:0:0:0:
400,256,74346,1,2,0:0:0:0:
400,256,74496,6,0,B|460:272|508:220,1,90,2|0,0:0|0:0,0:0:0:0:
220,372,74796,1,10,0:0:0:0:
176,268,74946,1,2,0:0:0:0:
176,268,75021,1,0,0:0:0:0:
176,268,75096,2,0,B|120:264|60:300,1,90,2|0,0:0|0:0,0:0:0:0:
256,180,75396,5,10,0:0:0:0:
284,156,75471,1,0,0:0:0:0:
304,124,75546,1,0,0:0:0:0:
312,88,75621,1,0,0:0:0:0:
304,56,75696,6,0,B|348:4|440:36,1,135,4|0,0:0|2:0,0:0:0:0:
488,172,75996,6,0,B|432:216|352:184,1,135,10|0,0:0|2:0,0:0:0:0:
178,137,76296,6,0,B|226:89|315:128,1,135,4|0,0:0|2:0,3:0:0:0:
430,43,76596,1,0,0:0:0:0:
488,172,76746,1,2,0:0:0:0:
488,172,76821,1,0,0:0:0:0:
488,172,76896,5,2,0:0:0:0:
256,224,77046,1,2,0:0:0:0:
500,208,77196,1,10,0:0:0:0:
248,184,77346,1,2,0:0:0:0:
488,248,77496,6,0,B|492:336|396:372|320:300,1,202.500007724762,2|0,0:0|2:0,0:0:0:0:
304,288,77796,5,8,1:0:0:0:
256,256,77871,1,0,0:0:0:0:
204,244,77946,1,8,0:0:0:0:
152,252,78021,1,0,0:0:0:0:
104,280,78096,1,4,0:0:0:0:
92,56,87696,5,4,0:0:0:0:
96,80,87846,1,2,0:0:0:0:
100,108,87996,2,0,B|88:156,2,45,2|0|0,0:0|0:0|0:0,0:0:0:0:
180,168,88596,2,0,B|192:216,2,45,2|0|0,0:0|0:0|0:0,0:0:0:0:
280,156,89196,1,2,0:0:0:0:
296,184,89346,1,0,0:0:0:0:
316,208,89496,1,0,0:0:0:0:
344,224,89646,1,0,0:0:0:0:
376,232,89796,1,2,0:0:0:0:
408,236,89946,1,0,0:0:0:0:
440,228,90096,6,0,B|456:168,3,45,6|0|4|0,0:0|0:0|0:0|0:0,0:0:0:0:
400,124,90696,2,0,B|416:64,3,45,4|0|4|0,0:0|0:0|0:0|0:0,0:0:0:0:
312,208,91296,2,0,B|324:152,3,45,4|0|4|0,0:0|0:0|0:0|0:0,0:0:0:0:
260,112,91896,5,4,0:0:0:0:
220,204,92046,1,2,0:0:0:0:
220,204,92121,1,0,0:0:0:0:
220,204,92196,1,2,0:0:0:0:
264,296,92346,1,0,0:0:0:0:
264,296,92496,5,4,0:0:0:0:
340,276,92646,1,0,0:0:0:0:
388,340,92796,2,0,B|428:340|468:352|468:352|492:328|492:292,1,135.000005149842,2|0,0:0|0:0,0:0:0:0:
491,304,93396,1,2,0:0:0:0:
444,248,93546,1,0,0:0:0:0:
424,176,93696,2,0,B|456:24,1,135.000005149842,0|2,0:0|0:0,0:0:0:0:
368,56,94146,5,0,0:0:0:0:
368,56,94296,2,0,B|344:92|348:140,1,67.5000025749208,6|0,0:0|0:0,0:0:0:0:
272,104,94596,2,0,B|268:140|296:180,1,67.5000025749208,4|0,0:0|0:0,0:0:0:0:
256,192,94896,12,2,95946,0:0:0:0:
256,328,96246,5,0,0:0:0:0:
260,296,96396,1,0,0:0:0:0:
256,264,96546,2,0,B|264:232|260:208|260:208|248:180|248:180|256:140,1,101.250003862381,0|0,0:0|2:0,0:0:0:0:
256,152,96846,6,2,B|300:104|292:32|224:-16|140:24,1,225
52,72,97296,5,4,0:0:0:0:
128,128,97446,1,0,0:0:0:0:
76,208,97596,1,8,0:0:0:0:
0,152,97746,1,0,0:0:0:0:
52,72,97896,2,0,B|84:32|132:24|192:40|224:96,1,180,2|8,0:0|0:0,0:0:0:0:
440,164,98346,5,0,0:0:0:0:
440,164,98496,2,0,B|408:204|360:216|300:196|268:140,1,180,2|8,0:0|0:0,0:0:0:0:
360,100,98946,1,0,0:0:0:0:
480,248,99096,1,6,0:0:0:0:
480,248,99246,1,0,0:0:0:0:
368,288,99396,1,12,0:0:0:0:
368,288,99546,1,0,0:0:0:0:
256,240,99696,5,4,0:0:0:0:
160,216,99846,1,0,0:0:0:0:
60,228,99996,1,8,0:0:0:0:
20,316,100146,1,0,0:0:0:0:
20,316,100296,5,4,0:0:0:0:
96,304,100446,1,0,0:0:0:0:
152,252,100596,1,8,0:0:0:0:
164,180,100746,6,0,B|176:124|152:56,1,90,0|4,0:0|0:0,0:0:0:0:
100,20,101046,1,0,0:0:0:0:
68,140,101196,1,8,0:0:0:0:
252,128,101346,2,0,B|348:108|448:144,1,180
429,137,101796,1,8,0:0:0:0:
460,232,101946,1,0,0:0:0:0:
376,296,102096,5,4,0:0:0:0:
296,244,102246,1,0,0:0:0:0:
200,240,102396,1,8,0:0:0:0:
120,288,102546,1,0,0:0:0:0:
120,288,102696,2,0,B|52:296|4:244|24:168,1,180,2|8,0:0|0:0,0:0:0:0:
116,196,103146,1,0,0:0:0:0:
108,104,103296,6,0,B|176:96|224:148|204:224,1,180,2|8,0:0|0:0,0:0:0:0:
212,320,103746,1,4,0:0:0:0:
212,320,103821,1,0,0:0:0:0:
212,320,103896,1,0,0:0:0:0:
304,364,104046,1,0,0:0:0:0:
404,352,104196,1,12,0:0:0:0:
472,280,104346,1,0,0:0:0:0:
472,280,104496,5,4,0:0:0:0:
400,248,104646,1,0,0:0:0:0:
360,180,104796,1,8,0:0:0:0:
356,104,104946,1,0,0:0:0:0:
384,32,105096,5,4,0:0:0:0:
416,60,105246,1,0,0:0:0:0:
428,96,105396,1,8,0:0:0:0:
424,132,105546,2,0,B|412:156|384:172,1,45
368,176,105696,6,0,B|268:148,1,90,4|0,0:0|0:0,0:0:0:0:
116,220,105996,1,8,0:0:0:0:
72,312,106146,1,0,0:0:0:0:
72,312,106221,1,0,0:0:0:0:
72,312,106296,2,0,B|124:344|192:288,1,90,4|0,0:0|0:0,0:0:0:0:
208,216,106596,1,8,0:0:0:0:
24,228,106746,1,0,0:0:0:0:
72,312,106896,5,0,0:0:0:0:
116,220,107196,1,8,0:0:0:0:
72,312,107346,1,0,0:0:0:0:
160,132,107646,1,0,0:0:0:0:
116,220,107796,1,8,0:0:0:0:
72,312,107946,2,0,B|132:324|172:300|172:300|212:280|268:300,1,180
340,336,108396,1,8,0:0:0:0:
340,336,108546,1,0,0:0:0:0:
408,264,108696,1,2,0:0:0:0:
408,264,108846,1,0,0:0:0:0:
364,176,108996,1,8,0:0:0:0:
364,176,109146,1,0,0:0:0:0:
268,208,109296,5,0,0:0:0:0:
168,180,109596,1,8,0:0:0:0:
268,208,109746,1,0,0:0:0:0:
72,152,110046,1,0,0:0:0:0:
168,180,110196,1,8,0:0:0:0:
268,208,110346,2,0,B|316:216|316:216|356:208|356:208|424:220,1,135,0|0,0:0|2:0,0:0:0:0:
400,215,110646,1,0,0:0:0:0:
452,308,110796,1,8,0:0:0:0:
432,332,110871,1,0,0:0:0:0:
400,344,110946,1,0,0:0:0:0:
364,344,111021,1,0,0:0:0:0:
328,336,111096,5,0,0:0:0:0:
304,328,111171,1,0,0:0:0:0:
280,324,111246,1,0,0:0:0:0:
252,324,111321,1,0,0:0:0:0:
224,328,111396,5,8,0:0:0:0:
208,328,111471,1,0,0:0:0:0:
188,332,111546,1,0,0:0:0:0:
172,340,111621,1,0,0:0:0:0:
160,360,111696,6,0,B|60:360,1,90,4|0,0:0|2:0,0:0:0:0:
20,280,111996,1,8,0:0:0:0:
108,248,112146,2,0,B|160:224|160:224|192:180|172:80,1,180
264,44,112596,1,8,0:0:0:0:
264,44,112746,2,0,B|252:104|296:160,1,90
336,200,113046,5,0,0:0:0:0:
424,240,113196,1,2,0:0:0:0:
420,144,113346,1,0,0:0:0:0:
336,200,113496,5,0,0:0:0:0:
328,232,113646,1,0,0:0:0:0:
328,264,113796,1,2,0:0:0:0:
340,292,113946,1,0,0:0:0:0:
364,312,114096,2,0,B|288:296|220:320,1,135
230,316,114696,1,0,0:0:0:0:
56,352,115296,5,4,0:0:0:0:
56,352,115596,1,4,0:0:0:0:
56,352,115896,1,4,0:0:0:0:
56,352,116196,1,4,0:0:0:0:
56,352,116496,6,0,B|40:256,1,90,4|2,0:0|0:0,0:0:0:0:
41,263,116721,1,0,0:0:0:0:
41,263,116796,1,8,0:0:0:0:
204,272,116946,2,0,B|164:164,1,90,2|0,0:0|0:0,0:0:0:0:
352,104,117246,2,0,B|256:88,1,90,0|8,0:0|0:0,0:0:0:0:
84,100,117546,5,2,0:0:0:0:
84,100,117621,1,0,0:0:0:0:
84,100,117696,2,0,B|56:156|84:208,1,90,0|2,0:0|0:0,0:0:0:0:
164,336,117996,1,8,0:0:0:0:
328,264,118146,1,2,0:0:0:0:
328,264,118221,1,0,0:0:0:0:
328,264,118296,2,0,B|384:260|452:292,1,90,2|2,0:0|0:0,0:0:0:0:
360,380,118596,1,8,0:0:0:0:
224,192,118746,1,2,0:0:0:0:
300,100,118896,6,0,B|352:64|416:88,1,90,2|2,0:0|0:0,0:0:0:0:
260,280,119196,1,8,0:0:0:0:
156,320,119346,2,0,B|116:352|44:344,1,90,2|2,0:0|0:0,0:0:0:0:
0,240,119646,1,0,0:0:0:0:
76,148,119796,1,8,0:0:0:0:
76,148,119871,1,0,0:0:0:0:
76,148,119946,6,0,B|292:188,1,180,2|2,0:0|0:0,0:0:0:0:
432,324,120396,5,8,0:0:0:0:
292,336,120546,1,2,0:0:0:0:
252,180,120696,1,2,0:0:0:0:
456,196,120846,1,0,0:0:0:0:
488,40,120996,1,8,0:0:0:0:
216,48,121146,1,2,0:0:0:0:
216,48,121221,1,0,0:0:0:0:
216,48,121296,6,0,B|104:56,1,90,2|0,0:0|0:0,0:0:0:0:
56,156,121596,1,8,0:0:0:0:
112,260,121746,1,2,0:0:0:0:
112,260,121821,1,0,0:0:0:0:
112,260,121896,2,0,B|168:284|224:248,1,90,2|0,0:0|0:0,0:0:0:0:
400,240,122196,1,8,0:0:0:0:
344,132,122346,1,2,0:0:0:0:
296,236,122496,6,0,B|320:352,1,90,2|0,0:0|0:0,0:0:0:0:
314,324,122721,1,0,0:0:0:0:
314,324,122796,1,8,0:0:0:0:
420,360,122946,2,0,B|452:316|520:312,1,90,2|2,0:0|0:0,0:0:0:0:
188,316,123246,2,0,B|156:352|92:352,1,90,0|10,0:0|0:0,0:0:0:0:
24,268,123546,1,0,0:0:0:0:
24,268,123621,1,0,0:0:0:0:
24,268,123696,6,0,B|44:176,1,90,0|2,0:0|0:0,0:0:0:0:
208,52,123996,1,8,0:0:0:0:
264,160,124146,2,0,B|244:272,1,90,2|2,0:0|0:0,0:0:0:0:
156,160,124446,1,2,0:0:0:0:
340,88,124596,1,8,0:0:0:0:
250,248,124746,5,2,0:0:0:0:
214,240,124821,1,0,0:0:0:0:
182,244,124896,1,6,0:0:0:0:
158,268,124971,1,0,0:0:0:0:
150,304,125046,1,2,0:0:0:0:
164,340,125121,1,0,0:0:0:0:
192,360,125196,5,8,0:0:0:0:
232,368,125271,1,0,0:0:0:0:
272,364,125346,1,2,0:0:0:0:
304,336,125421,1,0,0:0:0:0:
320,292,125496,5,6,0:0:0:0:
296,248,125571,1,0,0:0:0:0:
284,196,125646,1,0,0:0:0:0:
292,148,125721,1,0,0:0:0:0:
324,112,125796,5,14,0:0:0:0:
376,96,125871,1,0,0:0:0:0:
432,108,125946,1,0,0:0:0:0:
464,148,126021,1,0,0:0:0:0:
468,200,126096,6,0,B|440:304,1,90,6|2,0:0|0:0,0:0:0:0:
352,364,126396,1,8,0:0:0:0:
352,364,126471,1,0,0:0:0:0:
352,364,126546,2,0,B|304:328|236:332,1,90,0|2,0:0|0:0,0:0:0:0:
44,336,126846,2,0,B|92:340|140:308,1,90,2|8,0:0|0:0,0:0:0:0:
208,52,127146,5,2,0:0:0:0:
208,52,127221,1,0,0:0:0:0:
208,52,127296,1,2,0:0:0:0:
184,164,127446,2,0,B|212:280,1,90,0|8,0:0|0:0,0:0:0:0:
296,180,127746,1,2,0:0:0:0:
80,152,127896,1,0,0:0:0:0:
288,136,128046,1,2,0:0:0:0:
88,196,128196,1,10,0:0:0:0:
272,100,128346,1,0,0:0:0:0:
112,232,128496,6,0,B|156:264|216:244,1,90,6|0,0:0|0:0,0:0:0:0:
304,300,128796,1,8,0:0:0:0:
488,196,128946,1,2,0:0:0:0:
488,196,129021,1,0,0:0:0:0:
488,196,129096,2,0,B|440:172|364:192,1,90,2|0,0:0|0:0,0:0:0:0:
412,364,129396,1,8,0:0:0:0:
496,92,129546,5,2,0:0:0:0:
488,296,129696,1,0,0:0:0:0:
304,192,129846,1,2,0:0:0:0:
500,56,129996,5,8,0:0:0:0:
268,184,130146,1,2,0:0:0:0:
480,328,130296,2,0,B|480:352|500:380|500:380|440:360|384:368,1,135,2|0,0:0|0:0,0:0:0:0:
376,332,130596,1,10,0:0:0:0:
352,320,130671,1,0,0:0:0:0:
324,312,130746,1,2,0:0:0:0:
296,308,130821,1,0,0:0:0:0:
264,308,130896,6,0,B|144:308,1,90,4|2,0:0|0:0,0:0:0:0:
60,368,131196,1,8,0:0:0:0:
100,160,131346,1,2,0:0:0:0:
100,160,131421,1,0,0:0:0:0:
100,160,131496,2,0,B|120:208|92:268,1,90,2|0,0:0|0:0,0:0:0:0:
0,84,131796,1,8,0:0:0:0:
164,48,131946,1,2,0:0:0:0:
288,164,132096,6,0,B|336:192|400:168,1,90,2|0,0:0|0:0,0:0:0:0:
480,96,132396,1,10,0:0:0:0:
196,128,132546,1,2,0:0:0:0:
196,128,132621,1,0,0:0:0:0:
196,128,132696,2,0,B|144:112|68:124,1,90,0|2,0:0|0:0,0:0:0:0:
36,16,132996,1,8,0:0:0:0:
20,216,133146,1,2,0:0:0:0:
88,312,133296,6,0,B|160:284|236:312,1,135,4|0,0:0|2:0,0:0:0:0:
424,264,133596,2,0,B|352:236|276:264,1,135,4|0,0:0|2:0,0:0:0:0:
92,212,133896,2,0,B|164:184|240:212,1,135,4|0,0:0|2:0,0:0:0:0:
224,206,134196,1,8,0:0:0:0:
376,340,134346,1,2,0:0:0:0:
376,340,134421,1,0,0:0:0:0:
376,340,134496,2,0,B|328:352|264:328,1,90,2|2,0:0|0:0,0:0:0:0:
220,120,134796,1,0,0:0:0:0:
392,0,134946,1,0,0:0:0:0:
488,40,135096,6,0,B|472:260,1,202.500007724762,2|0,0:0|2:0,0:0:0:0:
470,290,135396,1,0,0:0:0:0:
468,332,135471,2,0,B|464:376,3,45,0|2|0|2,0:0|0:0|0:0|0:0,0:0:0:0:
316,256,140496,5,12,0:0:0:0:
192,252,140796,1,8,0:0:0:0:
196,128,141096,1,8,0:0:0:0:
320,132,141396,1,8,0:0:0:0:
305,274,141696,5,8,0:0:0:0:
173,241,141996,1,8,0:0:0:0:
206,109,142296,1,8,0:0:0:0:
338,142,142596,1,8,0:0:0:0:
290,292,142896,5,12,0:0:0:0:
155,226,143196,1,8,0:0:0:0:
221,91,143496,1,8,0:0:0:0:
356,157,143796,1,8,0:0:0:0:
270,307,144096,5,8,0:0:0:0:
140,206,144396,1,8,0:0:0:0:
241,76,144696,1,8,0:0:0:0:
371,177,144996,1,8,0:0:0:0:
244,318,145296,5,12,0:0:0:0:
127,180,145596,1,8,0:0:0:0:
266,63,145896,1,8,0:0:0:0:
383,202,146196,1,8,0:0:0:0:
214,326,146496,5,8,0:0:0:0:
120,150,146796,1,8,0:0:0:0:
296,56,147096,1,8,0:0:0:0:
390,232,147396,1,8,0:0:0:0:
180,326,147696,5,8,0:0:0:0:
119,115,147996,1,8,0:0:0:0:
330,54,148296,1,8,0:0:0:0:
391,265,148596,1,8,0:0:0:0:
144,320,148896,6,0,B|88:280|64:184,1,120,4|0,0:0|0:0,0:0:0:0:
52,140,149196,2,0,B|64:64,2,60,6|0|0,0:0|0:0|0:0,0:0:0:0:
136,116,149496,2,0,B|148:48,2,60,4|0|0,0:0|0:0|0:0,0:0:0:0:
208,156,149796,2,0,B|220:88,2,60,4|0|0,0:0|0:0|0:0,0:0:0:0:
288,128,150096,6,0,B|340:120|380:132|380:132|416:144|484:128,1,180,4|8,0:0|0:0,0:0:0:0:
464,228,150546,2,0,B|396:228|360:296|396:372,1,180,2|0,0:0|0:0,0:0:0:0:
472,316,150996,1,8,0:0:0:0:
388,272,151146,2,0,B|264:272,1,90,0|2,0:0|0:0,0:0:0:0:
144,336,151446,2,0,B|196:368|252:328,1,90,0|8,0:0|0:0,0:0:0:0:
276,184,151746,1,0,0:0:0:0:
216,136,151896,1,2,0:0:0:0:
172,200,152046,1,8,0:0:0:0:
236,252,152196,5,12,0:0:0:0:
240,284,152346,1,0,0:0:0:0:
244,316,152496,2,0,B|344:304|444:336,1,180,4|10,0:0|0:0,0:0:0:0:
232,228,152946,2,0,B|136:256|28:216,1,180,0|0,0:0|0:0,0:0:0:0:
16,132,153396,1,8,0:0:0:0:
80,56,153546,5,0,0:0:0:0:
80,56,153621,1,0,0:0:0:0:
80,56,153696,2,0,B|176:44,1,90,4|0,0:0|0:0,0:0:0:0:
436,76,153996,2,0,B|328:96,1,90,12|0,0:0|0:0,0:0:0:0:
184,296,154296,2,0,B|148:244|184:180,1,90,4|0,0:0|0:0,0:0:0:0:
316,264,154596,2,0,B|340:312|324:356,1,90,4|0,0:0|0:0,0:0:0:0:
120,352,154896,6,0,B|56:264|104:156,1,202.500007724762,4|0,0:0|0:0,0:0:0:0:
102,160,155496,1,8,0:0:0:0:
212,56,155796,5,0,0:0:0:0:
204,88,155946,1,0,0:0:0:0:
204,120,156096,1,0,0:0:0:0:
212,152,156246,1,0,0:0:0:0:
228,184,156396,2,0,B|384:184,1,135.000005149842,0|8,0:0|0:0,0:0:0:0:
436,344,156996,1,0,0:0:0:0:
460,264,157146,1,0,0:0:0:0:
380,280,157296,6,0,B|280:280,1,90,4|0,0:0|0:0,0:0:0:0:
128,240,157596,2,0,B|248:240,1,90,8|0,0:0|0:0,0:0:0:0:
448,176,157896,2,0,B|348:176,1,90
60,104,158196,2,0,B|160:104,1,90,8|0,0:0|0:0,0:0:0:0:
256,32,158496,5,4,0:0:0:0:
416,304,158646,1,0,0:0:0:0:
396,328,158721,1,0,0:0:0:0:
368,344,158796,1,8,0:0:0:0:
336,348,158871,1,0,0:0:0:0:
304,336,158946,1,0,0:0:0:0:
280,316,159021,1,0,0:0:0:0:
268,288,159096,1,4,0:0:0:0:
196,212,159246,1,0,0:0:0:0:
176,188,159321,1,0,0:0:0:0:
148,172,159396,1,8,0:0:0:0:
116,168,159471,1,0,0:0:0:0:
84,180,159546,1,0,0:0:0:0:
68,208,159621,1,0,0:0:0:0:
68,208,159696,6,0,B|92:304,1,90,6|0,0:0|0:0,0:0:0:0:
188,356,159996,1,8,0:0:0:0:
344,248,160146,2,0,B|408:164|360:44,1,180,2|0,0:0|0:0,0:0:0:0:
144,112,160596,1,8,0:0:0:0:
152,232,160746,6,0,B|192:268|256:240,1,90,0|2,0:0|0:0,0:0:0:0:
456,344,161046,1,2,0:0:0:0:
456,344,161121,1,0,0:0:0:0:
456,344,161196,2,0,B|468:248,1,90,8|0,0:0|0:0,0:0:0:0:
372,72,161496,2,0,B|360:184,1,90,2|0,0:0|0:0,0:0:0:0:
356,184,161721,1,0,0:0:0:0:
352,208,161796,1,10,0:0:0:0:
140,344,161946,6,0,B|120:300|120:300|120:224|120:224|96:168,1,180,2|0,0:0|0:0,0:0:0:0:
88,64,162396,1,10,0:0:0:0:
24,240,162546,1,0,0:0:0:0:
208,296,162696,2,0,B|256:284|300:312,1,90,2|0,0:0|0:0,0:0:0:0:
294,308,162921,1,0,0:0:0:0:
294,308,162996,1,8,0:0:0:0:
488,232,163146,5,2,0:0:0:0:
380,368,163296,1,2,0:0:0:0:
264,216,163446,1,0,0:0:0:0:
332,120,163596,2,0,B|380:108|436:128,1,90,8|2,0:0|0:0,0:0:0:0:
232,100,163896,1,2,0:0:0:0:
204,108,163971,1,0,0:0:0:0:
176,108,164046,1,0,0:0:0:0:
148,100,164121,1,0,0:0:0:0:
128,80,164196,1,10,0:0:0:0:
100,68,164271,1,0,0:0:0:0:
72,60,164346,1,0,0:0:0:0:
48,64,164421,1,0,0:0:0:0:
24,80,164496,6,0,B|12:116|28:148,1,45,6|0,0:0|0:0,0:0:0:0:
48,280,164646,2,0,B|56:240|48:208,1,45
88,160,164796,1,8,0:0:0:0:
120,152,164871,1,0,0:0:0:0:
152,152,164946,1,0,0:0:0:0:
184,156,165021,1,0,0:0:0:0:
216,168,165096,2,0,B|272:180,1,45,2|0,0:0|0:0,0:0:0:0:
300,316,165246,2,0,B|236:300,1,45
360,204,165396,2,0,B|428:220,1,45,10|0,0:0|0:0,0:0:0:0:
432,356,165546,2,0,B|380:344,1,45
388,345,165696,5,2,0:0:0:0:
376,312,165771,1,0,0:0:0:0:
376,280,165846,1,0,0:0:0:0:
388,248,165921,1,0,0:0:0:0:
404,220,165996,1,8,0:0:0:0:
412,184,166071,1,0,0:0:0:0:
416,152,166146,1,0,0:0:0:0:
408,120,166221,1,0,0:0:0:0:
392,88,166296,2,0,B|376:52|384:4,3,45,2|0|0|0,0:0|0:0|0:0|0:0,0:0:0:0:
432,88,166596,6,2,B|352:168|252:104,1,180,10|4,0:0|0:0,0:0:0:0:
64,296,167046,1,2,0:0:0:0:
168,256,167196,1,8,0:0:0:0:
272,304,167346,2,2,B|324:296|368:312|368:312|412:328|484:312,1,180,2|0,0:0|0:0,0:0:0:0:
480,136,167796,2,0,B|432:120|384:132,1,90,8|2,0:0|0:0,0:0:0:0:
220,164,168096,6,0,B|228:176|240:176,1,22.5,2|0,0:0|2:0,0:0:0:0:
144,92,168246,1,0,0:0:0:0:
120,192,168396,2,0,B|152:352,1,135,4|0,0:0|2:0,0:0:0:0:
152,332,168696,1,2,0:0:0:0:
156,344,168771,1,0,0:0:0:0:
160,352,168846,1,0,0:0:0:0:
164,360,168921,1,0,0:0:0:0:
168,372,168996,1,10,0:0:0:0:
136,360,169071,1,0,0:0:0:0:
104,352,169146,1,0,0:0:0:0:
68,352,169221,1,0,0:0:0:0:
36,364,169296,6,0,B|-4:328|24:252,1,90,6|0,0:0|0:0,0:0:0:0:
15,280,169521,1,0,0:0:0:0:
15,280,169596,2,0,B|84:212|56:96,1,180,8|2,0:0|0:0,0:0:0:0:
48,4,170046,1,2,0:0:0:0:
144,56,170196,2,0,B|256:52,1,90,8|2,0:0|0:0,0:0:0:0:
233,52,170421,1,0,0:0:0:0:
233,52,170496,1,2,0:0:0:0:
336,256,170646,5,2,0:0:0:0:
384,104,170796,1,8,0:0:0:0:
188,204,170946,1,2,0:0:0:0:
276,344,171096,2,0,B|320:372|372:352,1,90,2|0,0:0|0:0,0:0:0:0:
384,164,171396,2,0,B|332:140|272:160,1,90,8|2,0:0|0:0,0:0:0:0:
456,352,171696,5,2,0:0:0:0:
456,352,171771,1,0,0:0:0:0:
456,352,171846,2,0,B|480:248,1,90,0|10,0:0|0:0,0:0:0:0:
276,344,172146,2,0,B|296:244,1,90,0|2,0:0|0:0,0:0:0:0:
104,336,172446,2,0,B|124:244,1,90,2|8,0:0|0:0,0:0:0:0:
196,80,172746,6,2,B|160:28|52:40|40:124,1,180
136,184,173196,1,8,0:0:0:0:
168,196,173271,1,0,0:0:0:0:
204,200,173346,1,0,0:0:0:0:
236,196,173421,1,0,0:0:0:0:
268,184,173496,2,0,B|296:164|300:132,2,45,2|0|0,0:0|0:0|0:0,0:0:0:0:
336,64,173796,1,8,0:0:0:0:
368,56,173871,1,0,0:0:0:0:
400,56,173946,1,0,0:0:0:0:
432,64,174021,1,0,0:0:0:0:
460,80,174096,5,4,0:0:0:0:
480,104,174171,1,0,0:0:0:0:
488,136,174246,1,0,0:0:0:0:
488,168,174321,1,0,0:0:0:0:
480,200,174396,1,8,0:0:0:0:
460,224,174471,1,0,0:0:0:0:
432,244,174546,1,0,0:0:0:0:
400,248,174621,1,0,0:0:0:0:
368,244,174696,1,0,0:0:0:0:
340,232,174771,1,0,0:0:0:0:
312,220,174846,1,0,0:0:0:0:
280,212,174921,1,0,0:0:0:0:
248,208,174996,1,8,0:0:0:0:
212,216,175071,1,0,0:0:0:0:
184,232,175146,1,0,0:0:0:0:
164,256,175221,1,0,0:0:0:0:
152,284,175296,5,0,0:0:0:0:
152,316,175371,1,0,0:0:0:0:
164,348,175446,1,0,0:0:0:0:
188,368,175521,1,0,0:0:0:0:
220,376,175596,1,8,0:0:0:0:
256,368,175671,1,0,0:0:0:0:
280,348,175746,1,0,0:0:0:0:
288,316,175821,1,0,0:0:0:0:
280,284,175896,1,0,0:0:0:0:
264,256,175971,1,0,0:0:0:0:
256,224,176046,1,0,0:0:0:0:
256,192,176121,1,0,0:0:0:0:
264,160,176196,1,8,0:0:0:0:
280,132,176271,1,0,0:0:0:0:
304,108,176346,1,0,0:0:0:0:
336,96,176421,1,0,0:0:0:0:
368,96,176496,6,0,B|412:100,2,45,4|0|0,0:0|0:0|0:0,0:0:0:0:
392,172,176721,2,0,B|452:176,2,45,0|8|0,0:0|0:0|0:0,0:0:0:0:
356,240,176946,2,0,B|424:244,2,45
384,312,177171,2,0,B|444:316,2,45
328,364,177396,2,0,B|264:324|192:344,1,135,8|0,0:0|2:0,0:0:0:0:
176,352,177696,5,2,0:0:0:0:
152,352,177771,1,0,0:0:0:0:
132,344,177846,1,0,0:0:0:0:
116,332,177921,1,0,0:0:0:0:
104,312,177996,1,8,0:0:0:0:
100,288,178071,1,0,0:0:0:0:
100,264,178146,1,0,0:0:0:0:
100,240,178221,1,0,0:0:0:0:
100,216,178296,5,0,0:0:0:0:
100,192,178371,1,0,0:0:0:0:
100,168,178446,1,0,0:0:0:0:
100,144,178521,1,0,0:0:0:0:
100,124,178596,1,8,0:0:0:0:
100,104,178671,1,0,0:0:0:0:
100,84,178746,1,0,0:0:0:0:
100,64,178821,1,0,0:0:0:0:
100,44,178896,1,4,2:0:0:0:
92,164,188496,6,0,B|72:120,1,45,4|0,0:0|0:0,0:0:0:0:
164,140,188796,2,0,B|176:88,1,45,12|0,0:0|0:0,0:0:0:0:
232,168,189096,2,0,B|280:136,1,45,4|0,0:0|0:0,0:0:0:0:
264,232,189396,2,0,B|320:240,1,45,12|0,0:0|0:0,0:0:0:0:
244,300,189696,5,4,0:0:0:0:
268,320,189846,1,0,0:0:0:0:
300,332,189996,1,12,0:0:0:0:
332,340,190146,1,0,0:0:0:0:
364,336,190296,1,4,0:0:0:0:
396,324,190446,1,0,0:0:0:0:
420,300,190596,1,12,0:0:0:0:
432,272,190746,1,0,0:0:0:0:
440,244,190896,6,0,B|452:184,2,45,4|0|12,0:0|0:0|0:0,0:0:0:0:
372,208,191346,1,0,0:0:0:0:
372,208,191496,2,0,B|360:160,2,45,4|0|12,0:0|0:0|0:0,0:0:0:0:
300,204,191946,5,0,0:0:0:0:
268,188,192096,1,4,0:0:0:0:
236,184,192246,1,0,0:0:0:0:
204,188,192396,1,12,0:0:0:0:
180,208,192546,1,0,0:0:0:0:
172,244,192696,2,0,B|184:292,1,45,4|0,0:0|0:0,0:0:0:0:
108,296,192996,2,0,B|124:348,1,45,12|0,0:0|0:0,0:0:0:0:
44,352,193296,5,4,0:0:0:0:
44,352,193596,1,12,0:0:0:0:
44,352,193896,1,4,0:0:0:0:
44,352,194196,2,0,B|32:320|32:296,1,45,12|0,0:0|0:0,0:0:0:0:
56,240,194496,5,0,0:0:0:0:
76,168,194646,1,0,0:0:0:0:
76,92,194796,1,8,0:0:0:0:
48,24,194946,1,0,0:0:0:0:
4,84,195096,1,0,0:0:0:0:
24,112,195171,1,0,0:0:0:0:
52,128,195246,1,0,0:0:0:0:
88,136,195321,1,0,0:0:0:0:
120,128,195396,1,8,0:0:0:0:
144,108,195471,1,0,0:0:0:0:
160,80,195546,1,0,0:0:0:0:
164,48,195621,1,0,0:0:0:0:
332,360,196896,5,6,0:0:0:0:
144,232,197046,1,2,0:0:0:0:
368,232,197196,1,8,0:0:0:0:
180,360,197346,1,2,0:0:0:0:
256,148,197496,1,6,0:0:0:0:
256,132,197571,1,0,0:0:0:0:
256,116,197646,1,0,0:0:0:0:
256,100,197721,1,0,0:0:0:0:
256,84,197796,1,8,0:0:0:0:
256,68,197871,1,0,0:0:0:0:
256,52,197946,1,0,0:0:0:0:
256,36,198021,1,0,0:0:0:0:
256,20,198096,6,0,B|300:-8|360:20,1,90,6|2,0:0|0:0,0:0:0:0:
360,24,198321,1,0,0:0:0:0:
376,40,198396,1,8,0:0:0:0:
476,216,198546,2,0,B|424:244|372:204,1,90,2|0,0:0|0:0,0:0:0:0:
204,304,198846,1,2,0:0:0:0:
200,192,198996,1,10,0:0:0:0:
304,240,199146,6,0,B|328:284|328:284|328:344,1,90,2|0,0:0|0:0,0:0:0:0:
108,248,199446,2,0,B|76:216|76:216|76:168,1,90,2|8,0:0|0:0,0:0:0:0:
272,56,199746,1,2,0:0:0:0:
272,56,199821,1,0,0:0:0:0:
272,56,199896,2,0,B|248:160,1,90,2|0,0:0|0:0,0:0:0:0:
152,356,200196,2,0,B|188:248,1,90,10|2,0:0|0:0,0:0:0:0:
412,184,200496,6,0,B|436:236|408:288,1,90,2|2,0:0|0:0,0:0:0:0:
344,360,200796,1,8,0:0:0:0:
240,184,200946,2,0,B|212:136|240:72,1,90,2|0,0:0|0:0,0:0:0:0:
424,44,201246,1,2,0:0:0:0:
496,220,201396,1,10,0:0:0:0:
400,360,201546,5,2,0:0:0:0:
400,360,201621,1,0,0:0:0:0:
400,360,201696,2,0,B|360:336|304:348,1,90,0|2,0:0|0:0,0:0:0:0:
96,336,201996,2,0,B|144:360|204:336,1,90,10|2,0:0|0:0,0:0:0:0:
240,184,202296,1,2,0:0:0:0:
72,116,202446,1,2,0:0:0:0:
72,116,202521,1,0,0:0:0:0:
72,116,202596,2,0,B|44:164|76:220,1,90,8|2,0:0|0:0,0:0:0:0:
332,284,202896,6,0,B|440:284,1,90,6|0,0:0|0:0,0:0:0:0:
480,180,203196,1,8,0:0:0:0:
240,92,203346,1,2,0:0:0:0:
232,104,203421,1,0,0:0:0:0:
224,116,203496,2,0,B|196:164|224:232,1,90,2|0,0:0|0:0,0:0:0:0:
336,180,203796,1,8,0:0:0:0:
288,4,203946,1,2,0:0:0:0:
128,152,204096,6,0,B|144:280,1,90,2|0,0:0|0:0,0:0:0:0:
156,348,204396,1,8,0:0:0:0:
56,312,204546,1,2,0:0:0:0:
56,312,204621,1,0,0:0:0:0:
56,312,204696,1,2,0:0:0:0:
139,240,204846,1,0,0:0:0:0:
232,272,204996,1,8,0:0:0:0:
260,292,205071,1,0,0:0:0:0:
292,304,205146,1,2,0:0:0:0:
328,304,205221,1,0,0:0:0:0:
360,296,205296,6,0,B|408:276|420:228,1,90,6|0,0:0|0:0,0:0:0:0:
312,56,205596,1,8,0:0:0:0:
232,144,205746,2,0,B|264:168|264:168|328:168,1,90,2|2,0:0|0:0,0:0:0:0:
144,56,206046,2,0,B|104:32|104:32|60:32,1,90,0|10,0:0|0:0,0:0:0:0:
80,144,206346,5,2,0:0:0:0:
80,144,206421,1,0,0:0:0:0:
80,144,206496,2,0,B|64:260,1,90,2|0,0:0|0:0,0:0:0:0:
128,364,206796,2,0,B|136:312,1,45,8|0,0:0|0:0,0:0:0:0:
232,336,206946,2,0,B|240:276,1,45,2|0,0:0|0:0,0:0:0:0:
336,320,207096,2,0,B|344:272,1,45,2|0,0:0|0:0,0:0:0:0:
440,304,207246,2,0,B|448:256,1,45
464,172,207396,1,8,0:0:0:0:
464,144,207471,1,0,0:0:0:0:
464,116,207546,1,2,0:0:0:0:
464,88,207621,1,0,0:0:0:0:
464,60,207696,6,0,B|412:28|340:52,1,107.999996704102,2|2,0:0|0:0,0:0:0:0:
359,46,207921,1,0,0:0:0:0:
359,46,207996,1,8,0:0:0:0:
176,164,208146,1,2,0:0:0:0:
216,292,208296,1,2,0:0:0:0:
344,260,208446,1,0,0:0:0:0:
312,128,208596,1,8,0:0:0:0:
68,128,208746,6,0,B|44:188|92:244,1,107.999996704102,2|2,0:0|0:0,0:0:0:0:
312,336,209046,2,0,B|336:280|288:204,1,107.999996704102,0|8,0:0|0:0,0:0:0:0:
72,340,209346,2,0,B|196:340,1,107.999996704102,2|2,0:0|0:0,0:0:0:0:
448,332,209646,1,0,0:0:0:0:
468,188,209796,1,8,0:0:0:0:
492,52,209946,1,2,0:0:0:0:
492,52,210096,6,0,B|428:20|352:52,1,107.999996704102,6|0,0:0|0:0,0:0:0:0:
386,40,210321,1,0,0:0:0:0:
386,40,210396,1,8,0:0:0:0:
88,112,210546,1,2,0:0:0:0:
32,236,210696,2,0,B|88:260|144:236,1,107.999996704102,2|0,0:0|0:0,0:0:0:0:
220,128,210996,1,8,0:0:0:0:
124,16,211146,5,2,0:0:0:0:
137,238,211296,1,2,0:0:0:0:
84,32,211446,1,2,0:0:0:0:
176,224,211596,1,8,0:0:0:0:
60,60,211746,1,2,0:0:0:0:
204,200,211896,2,0,B|248:168|288:116,1,107.999996704102,2|0,0:0|0:0,0:0:0:0:
304,96,212121,1,0,0:0:0:0:
340,76,212196,1,8,0:0:0:0:
380,76,212271,1,0,0:0:0:0:
416,88,212346,1,2,0:0:0:0:
444,112,212421,1,0,0:0:0:0:
460,148,212496,6,0,B|436:268,1,107.999996704102,6|2,0:0|0:0,0:0:0:0:
196,376,212796,1,8,0:0:0:0:
100,272,212946,1,2,0:0:0:0:
100,272,213021,1,0,0:0:0:0:
100,272,213096,2,0,B|128:148,1,107.999996704102,0|2,0:0|0:0,0:0:0:0:
244,68,213396,1,8,0:0:0:0:
264,216,213546,1,2,0:0:0:0:
264,216,213696,6,0,B|284:280|256:328,1,107.999996704102,0|2,0:0|0:0,0:0:0:0:
64,360,213996,1,8,0:0:0:0:
20,216,214146,1,2,0:0:0:0:
20,216,214221,1,0,0:0:0:0:
20,216,214296,2,0,B|-4:160|16:100,1,107.999996704102,2|0,0:0|0:0,0:0:0:0:
208,144,214596,2,0,B|332:164,1,107.999996704102,8|2,0:0|0:0,0:0:0:0:
408,324,214896,6,0,B|500:300|496:180,1,161.999995056153,4|0,0:0|2:0,0:0:0:0:
376,252,215196,2,0,B|408:172|344:92,1,161.999995056153,4|0,0:0|2:0,0:0:0:0:
308,292,215496,2,0,B|268:216|156:224,1,161.999995056153,4|0,0:0|2:0,0:0:0:0:
171,223,215796,1,0,0:0:0:0:
196,364,215946,5,2,0:0:0:0:
316,364,216096,1,2,0:0:0:0:
148,244,216246,1,0,0:0:0:0:
364,244,216396,1,10,0:0:0:0:
256,160,216546,1,0,0:0:0:0:
256,160,216696,1,2,0:0:0:0:
80,356,216996,5,0,0:0:0:0:
80,356,217071,1,0,0:0:0:0:
80,356,217146,1,0,0:0:0:0:
80,356,217221,1,0,0:0:0:0:
80,356,217296,2,0,B|0:304|32:168,1,202.500007724762,4|0,0:0|2:0,0:0:0:0:
156,320,217596,2,0,B|116:224|196:124,1,202.500007724762,4|0,0:0|2:0,0:0:0:0:
236,336,217896,2,0,B|284:232|416:244,1,202.500007724762,4|0,0:0|2:0,0:0:0:0:
400,242,218196,1,8,0:0:0:0:
348,372,218346,5,2,0:0:0:0:
116,204,218496,1,2,0:0:0:0:
396,204,218646,1,0,0:0:0:0:
164,372,218796,1,10,0:0:0:0:
256,96,218946,1,0,0:0:0:0:
256,248,219096,1,2,0:0:0:0:
256,248,219396,5,8,0:0:0:0:
256,272,219471,1,0,0:0:0:0:
256,296,219546,1,8,0:0:0:0:
256,320,219621,1,0,0:0:0:0:
256,344,219696,6,0,B|344:312|448:348,1,180,4|8,0:0|0:0,0:0:0:0:
460,252,220146,1,0,0:0:0:0:
484,152,220296,1,0,0:0:0:0:
388,104,220446,1,0,0:0:0:0:
320,176,220596,1,8,0:0:0:0:
368,264,220746,1,0,0:0:0:0:
368,264,220896,6,0,B|380:328|464:364|528:312,2,180,0|8|0,0:0|0:0|0:0,0:0:0:0:
336,176,221646,1,0,0:0:0:0:
256,124,221796,1,8,0:0:0:0:
176,176,221946,1,0,0:0:0:0:
144,264,222096,6,0,B|112:308|56:316,1,90,2|0,0:0|0:0,0:0:0:0:
70,313,222321,1,0,0:0:0:0:
70,313,222396,1,8,0:0:0:0:
56,220,222546,1,0,0:0:0:0:
56,220,222696,2,0,B|56:160|56:160|68:108|68:108|68:32,1,180,2|8,0:0|0:0,0:0:0:0:
160,16,223146,1,0,0:0:0:0:
152,104,223296,5,6,0:0:0:0:
156,120,223371,1,0,0:0:0:0:
160,136,223446,1,0,0:0:0:0:
252,152,223596,1,14,0:0:0:0:
256,168,223671,1,0,0:0:0:0:
260,184,223746,1,0,0:0:0:0:
180,224,223896,5,6,0:0:0:0:
184,240,223971,1,0,0:0:0:0:
188,256,224046,1,0,0:0:0:0:
280,272,224196,1,14,0:0:0:0:
284,288,224271,1,0,0:0:0:0:
288,304,224346,1,0,0:0:0:0:
200,360,224496,5,4,0:0:0:0:
112,324,224646,2,0,B|64:304|0:316,1,90,0|8,0:0|0:0,0:0:0:0:
200,360,224946,1,0,0:0:0:0:
304,344,225096,2,0,B|492:344,1,180,2|8,0:0|0:0,0:0:0:0:
448,264,225546,1,0,0:0:0:0:
448,264,225696,6,0,B|512:240|524:148|452:84,2,180,2|8|2,0:0|0:0|0:0,0:0:0:0:
368,224,226446,1,0,0:0:0:0:
272,216,226596,1,8,0:0:0:0:
196,276,226746,1,0,0:0:0:0:
184,368,226896,6,0,B|236:392|280:360,1,90,2|0,0:0|0:0,0:0:0:0:
108,308,227196,2,0,B|64:292|16:304,1,90,8|0,0:0|0:0,0:0:0:0:
184,368,227496,1,2,0:0:0:0:
196,276,227646,1,0,0:0:0:0:
192,364,227796,1,8,0:0:0:0:
204,268,227946,1,0,0:0:0:0:
200,360,228096,5,4,0:0:0:0:
288,312,228246,1,0,0:0:0:0:
380,344,228396,1,12,0:0:0:0:
388,348,228471,1,0,0:0:0:0:
396,352,228546,1,0,0:0:0:0:
376,252,228696,5,4,0:0:0:0:
384,256,228771,1,0,0:0:0:0:
392,260,228846,1,0,0:0:0:0:
376,160,228996,1,12,0:0:0:0:
384,164,229071,1,0,0:0:0:0:
392,168,229146,1,0,0:0:0:0:
376,72,229296,6,0,B|492:116,1,90,4|0,0:0|0:0,0:0:0:0:
472,204,229596,1,8,0:0:0:0:
376,252,229746,1,0,0:0:0:0:
288,204,229896,2,0,B|236:164|152:180|136:248,1,180,2|8,0:0|0:0,0:0:0:0:
152,328,230346,1,0,0:0:0:0:
228,272,230496,6,0,B|288:312|364:288|380:216,2,180,2|8|2,0:0|0:0|0:0,0:0:0:0:
204,180,231246,1,0,0:0:0:0:
304,160,231396,1,8,0:0:0:0:
324,252,231546,1,0,0:0:0:0:
228,272,231696,6,0,B|104:304,1,90,2|0,0:0|0:0,0:0:0:0:
64,356,231996,1,8,0:0:0:0:
48,264,232146,2,0,B|24:224|40:160,1,90,0|2,0:0|0:0,0:0:0:0:
64,92,232446,1,0,0:0:0:0:
132,204,232596,1,8,0:0:0:0:
48,264,232746,1,0,0:0:0:0:
64,356,232896,5,4,0:0:0:0:
72,356,232971,1,0,0:0:0:0:
80,356,233046,1,0,0:0:0:0:
156,320,233196,1,12,0:0:0:0:
164,320,233271,1,0,0:0:0:0:
172,320,233346,1,0,0:0:0:0:
252,284,233496,5,4,0:0:0:0:
260,284,233571,1,0,0:0:0:0:
268,284,233646,1,0,0:0:0:0:
344,248,233796,1,12,0:0:0:0:
352,248,233871,1,0,0:0:0:0:
360,248,233946,1,0,0:0:0:0:
432,204,234096,5,4,0:0:0:0:
488,128,234246,1,0,0:0:0:0:
428,44,234396,1,8,0:0:0:0:
332,80,234546,1,0,0:0:0:0:
336,176,234696,1,0,0:0:0:0:
336,176,234996,5,8,0:0:0:0:
352,272,235146,1,0,0:0:0:0:
372,364,235296,2,0,B|424:380|464:352,1,90,2|0,0:0|0:0,0:0:0:0:
280,344,235596,2,0,B|228:328|176:348,1,90,8|0,0:0|0:0,0:0:0:0:
96,360,235896,1,2,0:0:0:0:
96,360,236046,1,0,0:0:0:0:
76,268,236196,1,8,0:0:0:0:
76,268,236346,1,0,0:0:0:0:
60,176,236496,6,0,B|88:88,1,90,2|0,0:0|0:0,0:0:0:0:
168,36,236796,1,12,0:0:0:0:
316,152,236946,2,0,B|328:204|304:248,1,90,0|2,0:0|0:0,0:0:0:0:
232,312,237246,1,0,0:0:0:0:
200,312,237321,1,0,0:0:0:0:
168,312,237396,1,8,0:0:0:0:
136,312,237471,1,0,0:0:0:0:
104,312,237546,1,0,0:0:0:0:
72,312,237621,1,0,0:0:0:0:
40,312,237696,6,6,B|40:272|40:272|44:264|44:264|44:188,1,90,6|0,0:0|0:0,0:0:0:0:
136,120,237996,5,12,0:0:0:0:
128,156,238071,1,0,0:0:0:0:
120,192,238146,1,0,0:0:0:0:
248,68,238296,5,4,0:0:0:0:
240,112,238371,1,0,0:0:0:0:
232,156,238446,1,0,0:0:0:0:
360,32,238596,5,12,0:0:0:0:
352,88,238671,1,0,0:0:0:0:
344,144,238746,1,0,0:0:0:0:
256,192,238896,12,0,241296,0:0:0:0:
