osu file format v9

[General]
AudioFilename: videoplayback.mp3
AudioLeadIn: 0
PreviewTime: 74636
Countdown: 0
SampleSet: Soft
StackLeniency: 0.7
Mode: 0
LetterboxInBreaks: 1

[Editor]
DistanceSpacing: 1
BeatDivisor: 4
GridSize: 8

[Metadata]
Title:Glorias War (M3-22)
Artist:kei
Creator:chungskale
Version:Easy
Source:[LC:AZE]
Tags:

[Difficulty]
HPDrainRate:2
CircleSize:3
OverallDifficulty:1
ApproachRate:2
SliderMultiplier:0.900000005960459
SliderTickRate:2

[Events]
//Background and Video events
0,0,"1111.jpg"
//Break Periods
2,111692,117218
//Storyboard Layer 0 (Background)
//Storyboard Layer 1 (Fail)
//Storyboard Layer 2 (Pass)
//Storyboard Layer 3 (Foreground)
//Storyboard Sound Samples
//Background Colour Transformations
3,100,163,162,255

[TimingPoints]
2636,428.571428571429,4,2,0,100,1,0
75493,-100,4,2,0,100,0,1
102921,-100,4,2,0,100,0,0
131957,-100,4,2,0,60,0,0
132171,-100,4,2,0,100,0,0
155850,-100,4,2,0,60,0,0
156278,-100,4,2,0,79,0,0
156707,-100,4,2,0,90,0,0
157136,-100,4,2,0,100,0,0
161207,-100,4,2,0,100,0,1
183278,-100,4,2,0,69,0,1
184136,-100,4,2,0,71,0,1
184564,-100,4,2,0,81,0,1
184993,-100,4,2,0,100,0,1
188636,-100,4,2,0,100,0,0

[Colours]
Combo1 : 255,255,255
Combo2 : 16,206,239
Combo3 : 150,236,245

[HitObjects]
80,96,33064,1,0
112,272,33921,1,0
288,320,34778,1,0
432,216,35636,1,2
384,136,36064,1,4
312,80,36493,5,0
136,80,37350,2,0,B|192:208|352:224,1,270.000001788138
312,48,39493,6,0,B|399:31|492:116,1,180.000001192092
344,224,41207,2,0,B|280:286|156:268,1,180.000001192092
32,160,42921,6,0,B|136:128,3,90.0000005960459,0|0|0|2
200,104,44636,1,0
288,136,45064,2,0,B|392:144|456:216,1,180.000001192092
448,296,46350,1,4
360,320,46778,5,0
272,320,47207,1,0
184,320,47636,2,0,B|76:313|60:209,1,180.000001192092
152,208,48921,1,2
264,64,49778,6,0,B|222:113|173:102,1,90.0000005960459,2|0
128,32,50636,2,0,B|73:65|80:116,1,90.0000005960459,2|0
128,176,51493,2,0,B|156:233|207:232,1,90.0000005960459,2|0
248,160,52350,2,0,B|287:109|337:120,1,90.0000005960459,2|0
408,152,53207,1,4
456,232,53636,6,2,B|384:280|280:296,1,180.000001192092
200,320,54921,2,0,B|162:315|143:254,1,90.0000005960459,2|0
200,184,55778,1,4
368,120,56636,6,0,B|343:69|277:73,1,90.0000005960459,2|0
240,144,57493,1,2
312,200,57921,1,2
384,248,58350,1,0
256,192,58457,12,4,60064
296,80,60921,2,0,B|369:153,3,90.0000005960459,0|0|4|0
360,232,62636,2,0,B|280:304,2,90.0000005960459,4|0|4
280,184,63921,5,0
216,120,64350,2,0,B|194:70|127:76,1,90.0000005960459,4|0
72,136,65207,2,0,B|48:176|88:230,1,90.0000005960459,4|0
120,304,66064,6,0,B|288:360|432:288,1,315.000002086161,0|4
456,160,68207,5,0
376,208,68636,2,4,B|270:183|264:64,1,180.000001192092
88,64,70350,2,0,B|8:128,2,90.0000005960459,4|0|4
120,144,71636,2,0,B|88:232,1,90.0000005960459,0|4
256,192,72278,12,0,74207
456,80,74636,6,0,B|376:120|400:208|344:232,1,180.000001192092,0|4
296,296,75921,5,0
240,224,76350,6,0,B|200:144|112:168|88:112,1,180.000001192092,4|4
152,56,77636,5,0
208,128,78064,6,0,B|128:168|152:256|96:280,1,180.000001192092,4|4
48,208,79350,1,0
48,120,79778,2,0,B|128:64,1,90.0000005960459,4|0
200,24,80636,6,0,B|289:32|298:123|359:125,1,180.000001192092,4|4
424,168,81921,6,0,B|384:256,2,90.0000005960459,0|4|0
344,120,83207,1,0
264,72,83636,1,4
192,120,84064,6,0,B|232:200|320:176|344:232,1,180.000001192092,0|4
256,264,85350,5,4
176,304,85778,6,2,B|112:224,2,90.0000005960459
272,304,87064,2,2,B|336:224,2,90.0000005960459
224,216,88350,6,0,B|151:162|190:79|139:46,1,180.000001192092,4|4
56,56,89636,5,0
56,152,90064,2,0,B|56:208|136:208,1,90.0000005960459
208,176,90921,1,4
176,272,91350,1,0
256,328,91778,6,0,B|299:342|336:259|424:272,1,180.000001192092,4|0
464,184,93064,1,4
368,152,93493,1,0
336,56,93921,1,4
432,56,94350,2,0,B|480:144|413:230,1,180.000001192092,0|4
328,264,95636,6,0,B|232:240,1,90.0000005960459,0|4
264,144,96493,2,0,B|177:120,1,90.0000005960459,0|4
200,24,97350,5,0
112,72,97778,2,0,B|24:136,1,90.0000005960459,4|0
40,224,98636,2,4,B|120:288,2,90.0000005960459
256,192,99600,12,4,102921
258,63,104207,6,0,B|358:67|413:146,1,180.000001192092
464,232,105493,6,0,B|373:253|295:189,1,180.000001192092
232,112,106778,6,0,B|193:197|241:285,1,180.000001192092
336,288,108064,6,0,B|284:365|184:371,1,180.000001192092
200,272,109350,6,0,B|251:194|351:188,1,180.000001192092
424,120,110636,5,0
352,48,111064,2,0,B|248:48,1,90.0000005960459,0|4
336,56,118778,6,0,B|432:56,2,90.0000005960459
288,144,120064,2,0,B|184:144,1,90.0000005960459
144,56,120921,2,0,B|32:56|40:184,1,180.000001192092,0|2
104,248,122207,5,0
176,184,122636,2,0,B|280:184,1,90.0000005960459
344,248,123493,2,0,B|456:248|448:120,1,180.000001192092,0|2
336,40,124993,6,0,B|275:19|203:43,1,135.000000894069
264,120,126064,2,0,B|312:208|264:304,1,180.000001192092
192,232,127350,2,0,B|95:203|61:101,1,180.000001192092
152,64,128636,6,0,B|205:59|248:102,1,90.0000005960459
192,184,129493,1,0
144,272,129921,2,0,B|324:272,1,180.000001192092
376,184,131207,2,0,B|196:184,1,180.000001192092,0|4
200,88,132493,6,0,B|128:24,2,90.0000005960459
296,88,133778,2,0,B|368:16,1,90.0000005960459
440,88,134636,1,4
472,184,135064,5,0
440,280,135493,2,0,B|328:128,1,180.000001192092,4|0
296,224,136778,2,0,B|136:104,1,180.000001192092,4|0
56,120,138064,2,0,B|48:240|160:264,1,180.000001192092,4|4
232,296,139350,5,0
208,200,139778,2,0,B|160:96|264:32,1,180.000001192092
304,120,141064,2,0,B|392:173|344:277,1,180.000001192092
256,328,142350,6,0,B|281:372|353:365,1,90.0000005960459
432,368,143207,2,4,B|480:272,2,90.0000005960459
256,192,144171,12,4,145778
424,88,146636,2,0,B|336:48|232:88,1,180.000001192092,0|4
152,120,147921,1,0
56,88,148350,2,0,B|8:176|56:272,1,180.000001192092,4|4
112,336,149636,1,0
184,264,150064,6,0,B|176:152|296:136,2,180.000001192092,4|4|4
256,336,152207,2,0,B|328:280|432:296,2,180.000001192092,0|4|4
160,336,154350,2,0,B|88:160,2,180.000001192092,4|4|4
256,304,156493,5,4
328,240,156921,5,4
360,144,157350,5,4
360,48,157778,2,0,B|184:32|32:152|16:288,1,450.00000298023,4|2
88,344,160350,6,0,B|177:343|194:253|255:256,1,180.000001192092,0|4
320,200,161635,5,0
240,144,162064,6,0,B|223:100|135:124|95:44,1,180.000001192092,4|4
184,8,163350,5,0
272,48,163778,6,0,B|182:56|173:147|112:149,1,180.000001192092,4|4
48,208,165064,1,0
128,264,165492,2,0,B|232:264,1,90.0000005960459,4|0
296,200,166350,6,0,B|339:183|315:95|395:55,1,180.000001192092,4|4
456,136,167636,6,0,B|472:232|386:311,1,180.000001192092,4|4
304,296,168921,5,0
208,296,169350,1,4
112,296,169778,6,0,B|128:192|224:168,1,180.000001192092,0|4
320,168,171064,5,4
416,168,171493,2,0,B|416:72,2,90.0000005960459,0|4|4
320,168,172778,2,4,B|280:88,1,90.0000005960459,0|4
184,88,173636,5,4
88,88,174064,2,0,B|64:184|168:248,1,180.000001192092,0|4
240,288,175350,5,0
328,240,175778,2,0,B|376:208|344:144,2,90.0000005960459,0|0|4
240,184,177064,5,0
160,120,177493,1,4
240,56,177921,1,4
320,120,178350,2,0,B|392:200|336:296,1,180.000001192092,4|4
240,288,179636,5,0
152,240,180064,5,4
64,200,180493,2,0,B|64:104,1,90.0000005960459,0|4
144,56,181350,6,0,B|219:104,1,90.0000005960459,0|4
304,56,182207,2,0,B|379:104,1,90.0000005960459
304,168,183064,5,0
376,240,183492,2,0,B|288:304,1,90.0000005960459,4|0
216,240,184350,2,4,B|128:304,2,90.0000005960459
256,192,185421,12,4,188635
