osu file format v12

[General]
AudioFilename: glow.mp3
AudioLeadIn: 0
PreviewTime: 82720
Countdown: 0
SampleSet: Soft
StackLeniency: 0.7
Mode: 3
LetterboxInBreaks: 0
SpecialStyle: 0
WidescreenStoryboard: 0

[Editor]
DistanceSpacing: 1
BeatDivisor: 4
GridSize: 8

[Metadata]
Title:glow
TitleUnicode:glow
Artist:keeno
ArtistUnicode:keeno
Creator:Simple_Star
Version:7K Normal
Source:Nico Nico Douga
Tags:Vocaloid Append Dark Hatsune Miku
BeatmapID:303259
BeatmapSetID:117757

[Difficulty]
HPDrainRate:7
CircleSize:7
OverallDifficulty:7
ApproachRate:5
SliderMultiplier:1.4
SliderTickRate:1

[Events]
//Background and Video events
0,0,"BG.jpg",0,0
//Break Periods
//Storyboard Layer 0 (Background)
//Storyboard Layer 1 (Fail)
//Storyboard Layer 2 (Pass)
//Storyboard Layer 3 (Foreground)
//Storyboard Sound Samples
//Background Colour Transformations
3,100,163,162,255

[TimingPoints]
2250,705.882352941176,4,2,0,40,1,0
84132,-100,4,2,0,40,0,1
106720,-100,4,2,0,40,0,0

[HitObjects]
182,192,2250,1,0,0:0:0:0:
402,192,2602,1,0,0:0:0:0:
109,192,2955,1,0,0:0:0:0:
329,192,3308,1,0,0:0:0:0:
182,192,3661,1,0,0:0:0:0:
475,192,4014,1,0,0:0:0:0:
36,192,4367,1,0,0:0:0:0:
256,192,4720,1,0,0:0:0:0:
109,192,5073,1,0,0:0:0:0:
402,192,5426,1,0,0:0:0:0:
36,192,5779,1,0,0:0:0:0:
256,192,6132,1,0,0:0:0:0:
475,192,6485,1,0,0:0:0:0:
329,192,6838,1,0,0:0:0:0:
182,192,7191,1,0,0:0:0:0:
36,192,7544,1,0,0:0:0:0:
402,192,7897,1,0,0:0:0:0:
182,192,8249,1,0,0:0:0:0:
402,192,8602,1,0,0:0:0:0:
109,192,8955,1,0,0:0:0:0:
329,192,9308,1,0,0:0:0:0:
36,192,9661,1,0,0:0:0:0:
475,192,10014,1,0,0:0:0:0:
182,192,10367,1,0,0:0:0:0:
402,192,10720,1,0,0:0:0:0:
109,192,11073,1,0,0:0:0:0:
329,192,11426,1,0,0:0:0:0:
36,192,11779,1,0,0:0:0:0:
256,192,12132,128,0,13544:0:0:0:0:
402,192,13544,1,0,0:0:0:0:
182,192,13897,1,0,0:0:0:0:
329,192,14249,1,0,0:0:0:0:
109,192,14602,1,0,0:0:0:0:
329,192,14955,1,0,0:0:0:0:
182,192,15308,1,0,0:0:0:0:
475,192,15661,1,0,0:0:0:0:
36,192,16014,1,0,0:0:0:0:
182,192,16367,1,0,0:0:0:0:
402,192,16720,1,0,0:0:0:0:
109,192,17073,1,0,0:0:0:0:
475,192,17426,1,0,0:0:0:0:
36,192,17602,1,0,0:0:0:0:
182,192,17779,1,0,0:0:0:0:
402,192,18132,1,0,0:0:0:0:
109,192,18485,1,0,0:0:0:0:
475,192,18838,1,0,0:0:0:0:
256,192,19191,1,0,0:0:0:0:
109,192,19544,1,0,0:0:0:0:
402,192,19897,1,0,0:0:0:0:
182,192,20249,1,0,0:0:0:0:
475,192,20602,1,0,0:0:0:0:
36,192,20955,1,0,0:0:0:0:
256,192,21308,1,0,0:0:0:0:
402,192,21661,1,0,0:0:0:0:
182,192,22014,1,0,0:0:0:0:
402,192,22367,1,0,0:0:0:0:
109,192,22720,1,0,0:0:0:0:
402,192,23073,1,0,0:0:0:0:
182,192,23249,1,0,0:0:0:0:
329,192,23426,1,0,0:0:0:0:
109,192,23602,1,0,0:0:0:0:
256,192,23779,1,0,0:0:0:0:
329,192,24132,1,0,0:0:0:0:
182,192,24308,1,0,0:0:0:0:
329,192,24485,1,0,0:0:0:0:
182,192,24661,1,0,0:0:0:0:
402,192,24838,1,0,0:0:0:0:
109,192,24838,1,0,0:0:0:0:
256,192,25191,1,0,0:0:0:0:
402,192,25544,1,0,0:0:0:0:
182,192,25897,1,0,0:0:0:0:
329,192,26249,1,0,0:0:0:0:
109,192,26602,1,0,0:0:0:0:
402,192,26955,1,0,0:0:0:0:
182,192,27308,1,0,0:0:0:0:
329,192,27661,1,0,0:0:0:0:
109,192,28014,1,0,0:0:0:0:
402,192,28367,1,0,0:0:0:0:
36,192,28720,1,0,0:0:0:0:
475,192,29073,1,0,0:0:0:0:
256,192,29426,1,0,0:0:0:0:
402,192,29779,1,0,0:0:0:0:
109,192,30132,1,0,0:0:0:0:
256,192,30485,1,0,0:0:0:0:
475,192,30838,1,0,0:0:0:0:
36,192,31191,1,0,0:0:0:0:
329,192,31544,1,0,0:0:0:0:
182,192,31897,1,0,0:0:0:0:
402,192,32249,1,0,0:0:0:0:
182,192,32602,1,0,0:0:0:0:
329,192,32955,1,0,0:0:0:0:
36,192,33308,1,0,0:0:0:0:
329,192,33661,1,0,0:0:0:0:
182,192,34014,1,0,0:0:0:0:
402,192,34367,1,0,0:0:0:0:
109,192,34544,1,0,0:0:0:0:
475,192,34720,1,0,0:0:0:0:
109,192,34897,1,0,0:0:0:0:
402,192,35073,1,0,0:0:0:0:
256,192,35249,1,0,0:0:0:0:
475,192,35426,1,0,0:0:0:0:
329,192,35602,1,0,0:0:0:0:
182,192,35779,1,0,0:0:0:0:
36,192,35955,1,0,0:0:0:0:
182,192,36132,1,0,0:0:0:0:
402,192,36485,1,0,0:0:0:0:
256,192,36838,1,0,0:0:0:0:
109,192,36838,1,0,0:0:0:0:
36,192,37191,1,0,0:0:0:0:
182,192,37544,1,0,0:0:0:0:
475,192,37897,1,0,0:0:0:0:
329,192,38249,1,0,0:0:0:0:
182,192,38249,1,0,0:0:0:0:
109,192,38602,1,0,0:0:0:0:
402,192,38955,1,0,0:0:0:0:
182,192,39308,1,0,0:0:0:0:
402,192,39661,1,0,0:0:0:0:
256,192,39661,1,0,0:0:0:0:
109,192,40014,1,0,0:0:0:0:
329,192,40367,1,0,0:0:0:0:
36,192,40720,1,0,0:0:0:0:
475,192,41073,1,0,0:0:0:0:
182,192,41073,1,0,0:0:0:0:
182,192,41426,1,0,0:0:0:0:
402,192,41779,1,0,0:0:0:0:
109,192,42132,1,0,0:0:0:0:
402,192,42485,1,0,0:0:0:0:
329,192,42485,1,0,0:0:0:0:
182,192,42838,1,0,0:0:0:0:
256,192,43191,1,0,0:0:0:0:
475,192,43544,1,0,0:0:0:0:
182,192,43897,1,0,0:0:0:0:
109,192,43897,1,0,0:0:0:0:
402,192,44249,1,0,0:0:0:0:
36,192,44602,1,0,0:0:0:0:
182,192,44955,1,0,0:0:0:0:
329,192,45308,1,0,0:0:0:0:
36,192,45308,1,0,0:0:0:0:
475,192,45661,1,0,0:0:0:0:
109,192,46014,1,0,0:0:0:0:
402,192,46367,1,0,0:0:0:0:
109,192,46720,1,0,0:0:0:0:
256,192,46720,1,0,0:0:0:0:
475,192,47073,1,0,0:0:0:0:
329,192,47249,1,0,0:0:0:0:
182,192,47426,1,0,0:0:0:0:
109,192,47779,1,0,0:0:0:0:
256,192,48132,1,0,0:0:0:0:
402,192,48132,1,0,0:0:0:0:
475,192,48485,1,0,0:0:0:0:
182,192,48838,1,0,0:0:0:0:
402,192,49191,1,0,0:0:0:0:
256,192,49544,1,0,0:0:0:0:
475,192,49544,1,0,0:0:0:0:
36,192,49897,1,0,0:0:0:0:
329,192,50249,1,0,0:0:0:0:
182,192,50602,1,0,0:0:0:0:
402,192,50955,1,0,0:0:0:0:
256,192,50955,1,0,0:0:0:0:
109,192,51308,1,0,0:0:0:0:
329,192,51661,1,0,0:0:0:0:
36,192,52014,1,0,0:0:0:0:
475,192,52367,1,0,0:0:0:0:
182,192,52367,1,0,0:0:0:0:
182,192,52720,1,0,0:0:0:0:
402,192,52897,1,0,0:0:0:0:
256,192,53073,1,0,0:0:0:0:
36,192,53426,1,0,0:0:0:0:
475,192,53779,1,0,0:0:0:0:
182,192,53779,1,0,0:0:0:0:
329,192,54132,1,0,0:0:0:0:
109,192,54485,1,0,0:0:0:0:
402,192,54838,1,0,0:0:0:0:
256,192,55191,1,0,0:0:0:0:
36,192,55191,1,0,0:0:0:0:
329,192,55544,1,0,0:0:0:0:
109,192,55897,1,0,0:0:0:0:
475,192,56249,1,0,0:0:0:0:
182,192,56602,1,0,0:0:0:0:
329,192,56602,1,0,0:0:0:0:
36,192,56955,1,0,0:0:0:0:
329,192,57132,1,0,0:0:0:0:
182,192,57308,1,0,0:0:0:0:
475,192,57485,1,0,0:0:0:0:
182,192,57661,1,0,0:0:0:0:
402,192,58014,1,0,0:0:0:0:
109,192,58191,1,0,0:0:0:0:
402,192,58367,1,0,0:0:0:0:
109,192,58544,1,0,0:0:0:0:
256,192,58720,1,0,0:0:0:0:
475,192,59073,1,0,0:0:0:0:
182,192,59426,1,0,0:0:0:0:
109,192,59426,1,0,0:0:0:0:
402,192,59779,1,0,0:0:0:0:
36,192,60132,1,0,0:0:0:0:
475,192,60485,1,0,0:0:0:0:
256,192,60838,1,0,0:0:0:0:
475,192,60838,1,0,0:0:0:0:
109,192,61191,1,0,0:0:0:0:
256,192,61544,1,0,0:0:0:0:
402,192,61544,1,0,0:0:0:0:
36,192,61897,1,0,0:0:0:0:
256,192,62249,1,0,0:0:0:0:
475,192,62249,1,0,0:0:0:0:
109,192,62602,1,0,0:0:0:0:
475,192,62779,1,0,0:0:0:0:
182,192,62955,1,0,0:0:0:0:
329,192,62955,1,0,0:0:0:0:
36,192,63308,1,0,0:0:0:0:
329,192,63661,1,0,0:0:0:0:
402,192,63661,1,0,0:0:0:0:
182,192,64014,1,0,0:0:0:0:
36,192,64367,1,0,0:0:0:0:
475,192,64367,1,0,0:0:0:0:
182,192,64720,1,0,0:0:0:0:
329,192,65073,1,0,0:0:0:0:
36,192,65073,1,0,0:0:0:0:
109,192,65426,1,0,0:0:0:0:
256,192,65602,1,0,0:0:0:0:
329,192,65779,1,0,0:0:0:0:
182,192,66132,1,0,0:0:0:0:
402,192,66485,1,0,0:0:0:0:
329,192,66485,1,0,0:0:0:0:
109,192,66838,1,0,0:0:0:0:
329,192,67191,1,0,0:0:0:0:
36,192,67544,1,0,0:0:0:0:
475,192,67897,1,0,0:0:0:0:
402,192,67897,1,0,0:0:0:0:
182,192,68249,1,0,0:0:0:0:
402,192,68602,1,0,0:0:0:0:
109,192,68955,1,0,0:0:0:0:
402,192,69308,1,0,0:0:0:0:
256,192,69308,1,0,0:0:0:0:
182,192,69661,1,0,0:0:0:0:
475,192,69838,1,0,0:0:0:0:
329,192,70014,1,0,0:0:0:0:
109,192,70367,1,0,0:0:0:0:
256,192,70720,1,0,0:0:0:0:
475,192,70720,1,0,0:0:0:0:
36,192,71073,1,0,0:0:0:0:
402,192,71249,1,0,0:0:0:0:
182,192,71426,1,0,0:0:0:0:
475,192,71779,1,0,0:0:0:0:
329,192,72132,1,0,0:0:0:0:
109,192,72485,1,0,0:0:0:0:
256,192,72838,1,0,0:0:0:0:
109,192,72838,1,0,0:0:0:0:
475,192,73191,1,0,0:0:0:0:
36,192,73544,1,0,0:0:0:0:
329,192,73897,1,0,0:0:0:0:
182,192,74073,1,0,0:0:0:0:
36,192,74249,1,0,0:0:0:0:
256,192,74602,1,0,0:0:0:0:
402,192,74955,1,0,0:0:0:0:
109,192,75308,1,0,0:0:0:0:
256,192,75661,1,0,0:0:0:0:
475,192,75661,1,0,0:0:0:0:
182,192,76367,1,0,0:0:0:0:
329,192,77073,1,0,0:0:0:0:
109,192,77426,1,0,0:0:0:0:
402,192,77779,1,0,0:0:0:0:
182,192,77955,1,0,0:0:0:0:
329,192,78132,1,0,0:0:0:0:
109,192,78308,1,0,0:0:0:0:
256,192,78485,1,0,0:0:0:0:
402,192,78485,1,0,0:0:0:0:
182,192,79897,1,0,0:0:0:0:
329,192,80249,1,0,0:0:0:0:
109,192,80602,1,0,0:0:0:0:
402,192,80779,1,0,0:0:0:0:
109,192,80955,1,0,0:0:0:0:
402,192,81132,1,0,0:0:0:0:
36,192,81308,1,0,0:0:0:0:
256,192,81308,1,0,0:0:0:0:
182,192,82720,128,0,84132:0:0:0:0:
402,192,84132,1,0,0:0:0:0:
256,192,84485,1,0,0:0:0:0:
109,192,84838,1,0,0:0:0:0:
329,192,85191,1,0,0:0:0:0:
36,192,85544,1,0,0:0:0:0:
475,192,85897,1,0,0:0:0:0:
182,192,86249,1,0,0:0:0:0:
109,192,86249,1,0,0:0:0:0:
402,192,86602,1,0,0:0:0:0:
182,192,86955,1,0,0:0:0:0:
329,192,87308,1,0,0:0:0:0:
36,192,87661,1,0,0:0:0:0:
475,192,87661,1,0,0:0:0:0:
256,192,88014,1,0,0:0:0:0:
475,192,88367,1,0,0:0:0:0:
329,192,88720,1,0,0:0:0:0:
402,192,89073,1,0,0:0:0:0:
329,192,89073,1,0,0:0:0:0:
182,192,89426,1,0,0:0:0:0:
402,192,89602,1,0,0:0:0:0:
256,192,89779,1,0,0:0:0:0:
475,192,90132,1,0,0:0:0:0:
109,192,90485,1,0,0:0:0:0:
182,192,90485,1,0,0:0:0:0:
329,192,90838,1,0,0:0:0:0:
36,192,91191,1,0,0:0:0:0:
475,192,91544,1,0,0:0:0:0:
182,192,91897,1,0,0:0:0:0:
329,192,91897,1,0,0:0:0:0:
402,192,92249,1,0,0:0:0:0:
109,192,92602,1,0,0:0:0:0:
402,192,92955,1,0,0:0:0:0:
36,192,93308,1,0,0:0:0:0:
329,192,93308,1,0,0:0:0:0:
256,192,93661,1,0,0:0:0:0:
402,192,93838,1,0,0:0:0:0:
109,192,93838,1,0,0:0:0:0:
182,192,94191,1,0,0:0:0:0:
329,192,94367,1,0,0:0:0:0:
182,192,94544,1,0,0:0:0:0:
36,192,94720,1,0,0:0:0:0:
256,192,94897,1,0,0:0:0:0:
402,192,95073,1,0,0:0:0:0:
109,192,95249,1,0,0:0:0:0:
475,192,95426,1,0,0:0:0:0:
256,192,95426,1,0,0:0:0:0:
36,192,95779,1,0,0:0:0:0:
402,192,96132,1,0,0:0:0:0:
475,192,96132,1,0,0:0:0:0:
182,192,96485,1,0,0:0:0:0:
475,192,96838,1,0,0:0:0:0:
109,192,97191,1,0,0:0:0:0:
329,192,97544,1,0,0:0:0:0:
402,192,97544,1,0,0:0:0:0:
36,192,97897,1,0,0:0:0:0:
475,192,98249,1,0,0:0:0:0:
256,192,98602,1,0,0:0:0:0:
109,192,98955,1,0,0:0:0:0:
182,192,98955,1,0,0:0:0:0:
402,192,99308,1,0,0:0:0:0:
36,192,99661,1,0,0:0:0:0:
329,192,100014,1,0,0:0:0:0:
182,192,100367,1,0,0:0:0:0:
109,192,100367,1,0,0:0:0:0:
475,192,100720,1,0,0:0:0:0:
182,192,101073,1,0,0:0:0:0:
329,192,101426,1,0,0:0:0:0:
36,192,101779,1,0,0:0:0:0:
475,192,101779,1,0,0:0:0:0:
256,192,102132,1,0,0:0:0:0:
402,192,102485,1,0,0:0:0:0:
182,192,102838,1,0,0:0:0:0:
475,192,103191,1,0,0:0:0:0:
402,192,103191,1,0,0:0:0:0:
109,192,103544,1,0,0:0:0:0:
256,192,103897,1,0,0:0:0:0:
475,192,104249,1,0,0:0:0:0:
109,192,104602,1,0,0:0:0:0:
36,192,104602,1,0,0:0:0:0:
329,192,104955,1,0,0:0:0:0:
109,192,105132,1,0,0:0:0:0:
402,192,105308,1,0,0:0:0:0:
182,192,105485,1,0,0:0:0:0:
329,192,105661,1,0,0:0:0:0:
109,192,105838,1,0,0:0:0:0:
475,192,106014,1,0,0:0:0:0:
329,192,106191,1,0,0:0:0:0:
182,192,106367,1,0,0:0:0:0:
36,192,106544,1,0,0:0:0:0:
256,192,106720,1,0,0:0:0:0:
475,192,106720,1,0,0:0:0:0:
109,192,107073,1,0,0:0:0:0:
402,192,107426,1,0,0:0:0:0:
182,192,107779,1,0,0:0:0:0:
475,192,108132,1,0,0:0:0:0:
36,192,108485,1,0,0:0:0:0:
182,192,108838,1,0,0:0:0:0:
329,192,109191,1,0,0:0:0:0:
256,192,109544,1,0,0:0:0:0:
402,192,109897,1,0,0:0:0:0:
182,192,110249,1,0,0:0:0:0:
329,192,110602,1,0,0:0:0:0:
36,192,110955,1,0,0:0:0:0:
182,192,111308,1,0,0:0:0:0:
329,192,111661,1,0,0:0:0:0:
402,192,112014,1,0,0:0:0:0:
256,192,112191,1,0,0:0:0:0:
109,192,112367,1,0,0:0:0:0:
475,192,112720,1,0,0:0:0:0:
256,192,113073,1,0,0:0:0:0:
109,192,113426,1,0,0:0:0:0:
402,192,113602,1,0,0:0:0:0:
182,192,113779,1,0,0:0:0:0:
329,192,114132,1,0,0:0:0:0:
182,192,114485,1,0,0:0:0:0:
329,192,114838,1,0,0:0:0:0:
36,192,115191,1,0,0:0:0:0:
475,192,115191,1,0,0:0:0:0:
