osu file format v12

[General]
AudioFilename: glow.mp3
AudioLeadIn: 0
PreviewTime: 82720
Countdown: 0
SampleSet: Soft
StackLeniency: 0.7
Mode: 3
LetterboxInBreaks: 0
SpecialStyle: 0
WidescreenStoryboard: 1

[Editor]
DistanceSpacing: 1
BeatDivisor: 2
GridSize: 8

[Metadata]
Title:glow
TitleUnicode:glow
Artist:keeno
ArtistUnicode:keeno
Creator:Simple_Star
Version:4K Easy
Source:Nico Nico Douga
Tags:Vocaloid Append Dark Hatsune Miku
BeatmapID:303258
BeatmapSetID:117757

[Difficulty]
HPDrainRate:6
CircleSize:4
OverallDifficulty:6
ApproachRate:5
SliderMultiplier:1.4
SliderTickRate:1

[Events]
//Background and Video events
0,0,"BG.jpg",0,0
//Break Periods
//Storyboard Layer 0 (Background)
//Storyboard Layer 1 (Fail)
//Storyboard Layer 2 (Pass)
//Storyboard Layer 3 (Foreground)
//Storyboard Sound Samples
//Background Colour Transformations
3,100,163,162,255

[TimingPoints]
2250,705.882352941176,4,2,0,40,1,0
84132,-100,4,2,0,40,0,1
106720,-100,4,2,0,40,0,0

[HitObjects]
329,192,2250,1,0,0:0:0:0:
109,192,3661,1,0,0:0:0:0:
475,192,5073,1,0,0:0:0:0:
182,192,6485,1,0,0:0:0:0:
402,192,7897,1,0,0:0:0:0:
36,192,9308,1,0,0:0:0:0:
402,192,10720,1,0,0:0:0:0:
109,192,11426,1,0,0:0:0:0:
256,192,12132,128,0,13544:0:0:0:0:
475,192,13544,1,0,0:0:0:0:
182,192,14249,1,0,0:0:0:0:
402,192,14955,1,0,0:0:0:0:
109,192,15661,1,0,0:0:0:0:
329,192,16367,1,0,0:0:0:0:
36,192,17073,1,0,0:0:0:0:
475,192,17779,1,0,0:0:0:0:
182,192,18485,1,0,0:0:0:0:
402,192,19191,1,0,0:0:0:0:
182,192,19897,1,0,0:0:0:0:
475,192,20602,1,0,0:0:0:0:
36,192,21308,1,0,0:0:0:0:
329,192,22014,1,0,0:0:0:0:
256,192,22720,1,0,0:0:0:0:
402,192,23426,1,0,0:0:0:0:
109,192,24132,1,0,0:0:0:0:
329,192,24838,1,0,0:0:0:0:
182,192,24838,1,0,0:0:0:0:
36,192,25544,1,0,0:0:0:0:
475,192,26249,1,0,0:0:0:0:
182,192,26955,1,0,0:0:0:0:
402,192,27661,1,0,0:0:0:0:
36,192,28367,1,0,0:0:0:0:
475,192,29073,1,0,0:0:0:0:
109,192,29779,1,0,0:0:0:0:
329,192,30485,1,0,0:0:0:0:
182,192,31191,1,0,0:0:0:0:
402,192,31897,1,0,0:0:0:0:
109,192,32602,1,0,0:0:0:0:
475,192,33308,1,0,0:0:0:0:
36,192,34014,1,0,0:0:0:0:
256,192,34720,1,0,0:0:0:0:
402,192,35426,1,0,0:0:0:0:
256,192,36132,1,0,0:0:0:0:
109,192,36838,1,0,0:0:0:0:
475,192,37544,1,0,0:0:0:0:
182,192,38249,1,0,0:0:0:0:
402,192,38955,1,0,0:0:0:0:
36,192,39661,1,0,0:0:0:0:
256,192,40367,1,0,0:0:0:0:
402,192,41073,1,0,0:0:0:0:
109,192,41779,1,0,0:0:0:0:
475,192,42485,1,0,0:0:0:0:
182,192,43191,1,0,0:0:0:0:
329,192,43897,1,0,0:0:0:0:
36,192,44602,1,0,0:0:0:0:
402,192,45308,1,0,0:0:0:0:
182,192,46014,1,0,0:0:0:0:
475,192,46720,1,0,0:0:0:0:
256,192,47426,1,0,0:0:0:0:
109,192,48132,1,0,0:0:0:0:
402,192,48838,1,0,0:0:0:0:
36,192,49544,1,0,0:0:0:0:
329,192,50249,1,0,0:0:0:0:
182,192,50955,1,0,0:0:0:0:
329,192,51661,1,0,0:0:0:0:
182,192,52367,1,0,0:0:0:0:
475,192,53073,1,0,0:0:0:0:
109,192,53779,1,0,0:0:0:0:
402,192,54485,1,0,0:0:0:0:
36,192,55191,1,0,0:0:0:0:
256,192,55897,1,0,0:0:0:0:
475,192,56602,1,0,0:0:0:0:
329,192,57308,1,0,0:0:0:0:
109,192,58014,1,0,0:0:0:0:
402,192,58720,1,0,0:0:0:0:
182,192,59426,1,0,0:0:0:0:
475,192,60132,1,0,0:0:0:0:
36,192,60838,1,0,0:0:0:0:
329,192,61544,1,0,0:0:0:0:
109,192,62249,1,0,0:0:0:0:
475,192,62955,1,0,0:0:0:0:
182,192,63661,1,0,0:0:0:0:
329,192,64367,1,0,0:0:0:0:
109,192,65073,1,0,0:0:0:0:
475,192,65779,1,0,0:0:0:0:
36,192,66485,1,0,0:0:0:0:
329,192,67191,1,0,0:0:0:0:
182,192,67897,1,0,0:0:0:0:
329,192,68602,1,0,0:0:0:0:
64,192,69308,1,0,0:0:0:0:
256,192,70014,1,0,0:0:0:0:
402,192,70720,1,0,0:0:0:0:
182,192,71426,1,0,0:0:0:0:
475,192,72132,1,0,0:0:0:0:
36,192,72838,1,0,0:0:0:0:
329,192,73544,1,0,0:0:0:0:
182,192,74249,1,0,0:0:0:0:
475,192,74955,1,0,0:0:0:0:
256,192,75661,1,0,0:0:0:0:
256,192,78485,1,0,0:0:0:0:
109,192,81308,1,0,0:0:0:0:
402,192,81308,1,0,0:0:0:0:
329,192,82720,128,0,84132:0:0:0:0:
182,192,84132,1,0,0:0:0:0:
475,192,84838,1,0,0:0:0:0:
109,192,85544,1,0,0:0:0:0:
402,192,86249,1,0,0:0:0:0:
182,192,86955,1,0,0:0:0:0:
402,192,87661,1,0,0:0:0:0:
256,192,88367,1,0,0:0:0:0:
36,192,89073,1,0,0:0:0:0:
329,192,89779,1,0,0:0:0:0:
182,192,90485,1,0,0:0:0:0:
475,192,91191,1,0,0:0:0:0:
256,192,91897,1,0,0:0:0:0:
109,192,92602,1,0,0:0:0:0:
402,192,93308,1,0,0:0:0:0:
256,192,94014,1,0,0:0:0:0:
182,192,94720,1,0,0:0:0:0:
402,192,95426,1,0,0:0:0:0:
182,192,95426,1,0,0:0:0:0:
109,192,96132,1,0,0:0:0:0:
329,192,96838,1,0,0:0:0:0:
182,192,97544,1,0,0:0:0:0:
475,192,98249,1,0,0:0:0:0:
182,192,98955,1,0,0:0:0:0:
402,192,99661,1,0,0:0:0:0:
36,192,100367,1,0,0:0:0:0:
256,192,101073,1,0,0:0:0:0:
182,192,101779,1,0,0:0:0:0:
402,192,102485,1,0,0:0:0:0:
109,192,103191,1,0,0:0:0:0:
402,192,103897,1,0,0:0:0:0:
182,192,104602,1,0,0:0:0:0:
475,192,105308,1,0,0:0:0:0:
36,192,106014,1,0,0:0:0:0:
329,192,106720,1,0,0:0:0:0:
182,192,106720,1,0,0:0:0:0:
475,192,107426,1,0,0:0:0:0:
256,192,108132,1,0,0:0:0:0:
402,192,108838,1,0,0:0:0:0:
182,192,109544,1,0,0:0:0:0:
475,192,110249,1,0,0:0:0:0:
36,192,110955,1,0,0:0:0:0:
256,192,111661,1,0,0:0:0:0:
475,192,112367,1,0,0:0:0:0:
36,192,113073,1,0,0:0:0:0:
402,192,113779,1,0,0:0:0:0:
182,192,114132,1,0,0:0:0:0:
402,192,114485,1,0,0:0:0:0:
182,192,114838,1,0,0:0:0:0:
36,192,115191,1,0,0:0:0:0:
475,192,115191,1,0,0:0:0:0:
