osu file format v14

[General]
AudioFilename: fix.mp3
AudioLeadIn: 0
PreviewTime: 105077
Countdown: 0
SampleSet: Soft
StackLeniency: 0.7
Mode: 0
LetterboxInBreaks: 0
SkinPreference:Default
EpilepsyWarning: 1
WidescreenStoryboard: 0

[Editor]
DistanceSpacing: 2
BeatDivisor: 4
GridSize: 4
TimelineZoom: 1.1

[Metadata]
Title:fix
TitleUnicode:fix
Artist:keeno
ArtistUnicode:keeno
Creator:noz1995
Version:Hard
Source:
Tags:Hatsune Miku 初音ミク Append Dark vocaloid JPop cut version
BeatmapID:773994
BeatmapSetID:351218

[Difficulty]
HPDrainRate:5
CircleSize:4
OverallDifficulty:7
ApproachRate:8
SliderMultiplier:1.3
SliderTickRate:1

[Events]
//Background and Video events
0,0,"pause-overlay.png",0,0
//Break Periods
2,48841,59890
//Storyboard Layer 0 (Background)
//Storyboard Layer 1 (Fail)
//Storyboard Layer 2 (Pass)
//Storyboard Layer 3 (Foreground)
//Storyboard Sound Samples

[TimingPoints]
640,375,4,2,1,85,1,0
11327,-100,4,2,1,35,0,0
12640,-100,4,2,1,85,0,0
24640,-100,4,2,1,60,0,0
84640,-117.647058823529,4,2,1,70,0,0
102640,-200,4,2,1,35,0,0
104890,-90.9090909090909,4,2,1,60,0,0
105640,-90.9090909090909,4,2,1,85,0,1
117077,-90.9090909090909,4,2,1,60,0,0
117640,-90.9090909090909,4,2,1,100,0,1
126640,-90.9090909090909,4,2,1,60,0,0

[Colours]
Combo1 : 249,249,0
Combo2 : 255,55,55
Combo3 : 200,200,200
Combo4 : 154,255,53

[HitObjects]
204,104,11327,5,8,0:0:0:0:
204,104,11515,2,0,P|116:104|88:152,1,130,8|8,0:0|0:0,0:0:0:0:
64,212,12077,1,8,0:0:0:0:
104,288,12265,1,8,0:0:0:0:
188,292,12452,1,8,0:0:0:0:
232,214,12640,6,0,P|289:190|361:227,1,130,6|2,0:0|0:0,0:0:0:0:
393,291,13202,1,0,0:0:0:0:
393,291,13390,2,0,P|436:236|420:160,1,130,8|2,0:0|0:0,0:0:0:0:
364,124,13952,1,0,0:0:0:0:
364,124,14140,2,0,L|390:52,2,65,2|0|2,0:0|0:0|0:0,0:0:0:0:
180,124,14890,2,0,L|153:52,2,65,8|0|2,0:0|0:0|0:0,0:0:0:0:
112,179,15452,1,0,0:0:0:0:
112,179,15640,6,0,P|109:242|151:291,1,130,2|2,0:0|0:0,0:0:0:0:
236,284,16202,1,0,0:0:0:0:
196,212,16390,1,8,0:0:0:0:
196,212,16765,2,0,L|280:180,1,65,2|0,0:0|0:0,0:0:0:0:
276,92,17140,2,0,L|192:124,1,65,2|0,0:0|0:0,0:0:0:0:
297,261,17515,2,0,L|381:229,1,65,2|0,0:0|0:0,0:0:0:0:
377,141,17890,2,0,L|293:173,1,65,10|0,0:0|0:0,0:0:0:0:
398,310,18265,2,0,L|482:278,1,65,2|8,0:0|0:0,0:0:0:0:
479,191,18640,6,0,L|331:247,1,130,6|2,0:0|0:0,0:0:0:0:
276,261,19202,1,0,0:0:0:0:
196,284,19390,2,0,P|134:231|141:159,1,130,8|2,0:0|0:0,0:0:0:0:
214,202,19952,1,0,0:0:0:0:
276,260,20140,2,0,P|284:296|260:336,2,65,2|0|2,0:0|0:0|0:0,0:0:0:0:
113,39,20890,2,0,P|103:70|113:101,1,65,8|0,0:0|0:0,0:0:0:0:
172,160,21265,2,0,L|114:194,2,43.3333333333333,2|0|0,0:0|0:0|0:0,0:0:0:0:
224,180,21640,6,0,P|260:168|304:176,1,65,2|0,0:0|0:0,0:0:0:0:
464,206,22202,1,0,0:0:0:0:
464,206,22390,2,0,P|492:150|472:90,1,130,8|2,0:0|0:0,0:0:0:0:
392,60,22952,1,0,0:0:0:0:
343,146,23140,2,0,L|278:146,1,65,2|0,0:0|0:0,0:0:0:0:
214,202,23515,2,0,L|149:202,1,65,2|0,0:0|0:0,0:0:0:0:
119,231,23796,1,0,0:0:0:0:
85,258,23890,2,0,L|20:258,2,65,8|8|2,0:0|0:0|0:0,0:0:0:0:
164,292,24452,1,8,0:0:0:0:
248,280,24640,6,0,P|300:196|284:152,1,130,6|0,0:0|0:0,0:0:0:0:
228,120,25202,1,2,0:0:0:0:
148,152,25390,1,8,0:0:0:0:
148,152,25765,1,2,0:0:0:0:
214,202,25952,1,2,0:0:0:0:
248,280,26140,2,0,L|248:356,2,65,2|0|2,0:0|0:0|0:0,0:0:0:0:
244,52,26890,1,8,0:0:0:0:
328,52,27077,1,0,0:0:0:0:
396,104,27265,1,2,0:0:0:0:
396,188,27452,1,2,0:0:0:0:
332,248,27640,6,0,L|240:248,1,65,2|0,0:0|0:0,0:0:0:0:
203,304,28015,2,0,L|111:304,1,65,2|2,0:0|0:0,0:0:0:0:
74,360,28390,1,8,0:0:0:0:
76,140,28765,2,0,L|168:140,1,65,2|2,0:0|0:0,0:0:0:0:
212,96,29140,2,0,L|304:96,2,65,2|8|2,0:0|0:0|0:0,0:0:0:0:
144,48,29702,1,0,0:0:0:0:
144,48,29796,1,0,0:0:0:0:
144,48,29890,2,0,L|56:48,2,65,8|0|2,0:0|0:0|0:0,0:0:0:0:
212,96,30452,1,8,0:0:0:0:
284,140,30640,6,0,L|444:140,1,130,2|2,0:0|0:0,0:0:0:0:
482,188,31202,1,2,0:0:0:0:
412,232,31390,2,0,L|276:232,1,130,8|2,0:0|0:0,0:0:0:0:
214,280,31952,1,2,0:0:0:0:
284,324,32140,2,0,L|420:324,1,130,2|2,0:0|0:0,0:0:0:0:
484,280,32702,1,2,0:0:0:0:
412,232,32890,2,0,L|336:180,1,65,8|0,0:0|0:0,0:0:0:0:
288,148,33265,1,2,0:0:0:0:
360,100,33452,1,2,0:0:0:0:
320,24,33640,6,0,P|292:16|236:36,1,65,2|2,0:0|0:0,0:0:0:0:
188,72,34015,1,2,0:0:0:0:
128,136,34202,1,2,0:0:0:0:
187,71,34390,2,0,P|129:47|70:71,1,130,8|2,0:0|0:0,0:0:0:0:
10,132,34952,1,2,0:0:0:0:
70,192,35139,1,2,0:0:0:0:
9,252,35327,1,8,0:0:0:0:
63,316,35515,2,2,B|96:292|152:340|188:316,1,130,2|8,0:0|0:0,0:0:0:0:
252,256,36077,2,0,P|244:216|256:180,1,65,0|2,0:0|0:0,0:0:0:0:
309,133,36452,1,8,0:0:0:0:
309,133,36640,6,0,P|384:156|440:112,1,130,2|2,0:0|0:0,0:0:0:0:
368,72,37202,1,2,0:0:0:0:
368,72,37390,2,0,P|348:56|288:56,2,65,8|0|2,0:0|0:0|0:0,0:0:0:0:
425,132,37952,1,2,0:0:0:0:
452,52,38140,2,0,P|472:28|520:12,2,65,2|0|2,0:0|0:0|0:0,0:0:0:0:
452,52,38890,1,8,0:0:0:0:
380,96,39077,1,0,0:0:0:0:
296,76,39265,1,2,0:0:0:0:
226,132,39452,1,2,0:0:0:0:
226,132,39546,1,0,0:0:0:0:
226,132,39640,6,0,P|193:130|165:115,1,65,2|2,0:0|0:0,0:0:0:0:
154,30,40015,2,0,P|186:31|214:46,1,65,2|2,0:0|0:0,0:0:0:0:
308,156,40390,1,8,0:0:0:0:
308,156,40765,1,2,0:0:0:0:
248,216,40952,1,2,0:0:0:0:
308,276,41140,2,0,L|388:276,2,65,2|8|2,0:0|0:0|0:0,0:0:0:0:
220,96,41890,1,8,0:0:0:0:
220,96,42265,1,2,0:0:0:0:
284,36,42452,1,8,0:0:0:0:
345,101,42640,6,0,P|364:161|328:229,1,130,2|2,0:0|0:0,0:0:0:0:
281,157,43202,1,2,0:0:0:0:
195,157,43390,2,0,L|124:212,1,65,8|0,0:0|0:0,0:0:0:0:
173,71,43765,2,0,L|226:33,1,65,2|2,0:0|0:0,0:0:0:0:
312,33,44140,1,2,0:0:0:0:
312,33,44515,1,2,0:0:0:0:
372,93,44702,1,2,0:0:0:0:
432,153,44890,2,0,L|520:153,2,65,8|0|2,0:0|0:0|0:0,0:0:0:0:
371,213,45452,1,2,0:0:0:0:
340,243,45546,1,0,0:0:0:0:
309,273,45640,6,0,L|217:273,1,65,2|0,0:0|0:0,0:0:0:0:
183,212,46015,1,2,0:0:0:0:
183,127,46202,1,2,0:0:0:0:
122,66,46390,2,0,P|68:42|6:68,1,130,8|2,0:0|0:0,0:0:0:0:
66,126,46952,1,8,0:0:0:0:
64,208,47140,2,0,L|4:268,2,65,2|8|2,0:0|0:0|0:0,0:0:0:0:
148,208,47702,1,0,0:0:0:0:
148,208,47796,1,0,0:0:0:0:
148,208,47890,2,0,L|208:148,2,65,8|0|2,0:0|0:0|0:0,0:0:0:0:
148,292,48452,1,8,0:0:0:0:
208,352,48641,5,6,0:0:0:0:
316,132,60640,6,0,P|340:204|312:256,1,130,6|2,0:0|0:0,0:0:0:0:
256,192,61202,1,2,0:0:0:0:
232,112,61390,2,0,P|276:56|352:56,1,130,8|2,0:0|0:0,0:0:0:0:
396,104,61952,1,2,0:0:0:0:
456,164,62140,2,0,L|536:164,2,65,2|0|2,0:0|0:0|0:0,0:0:0:0:
232,112,62890,1,8,0:0:0:0:
147,112,63077,1,2,0:0:0:0:
85,172,63265,1,2,0:0:0:0:
85,256,63452,1,2,0:0:0:0:
145,316,63640,6,0,L|210:316,1,65,2|0,0:0|0:0,0:0:0:0:
335,255,64015,2,0,L|270:255,1,65,2|2,0:0|0:0,0:0:0:0:
398,310,64390,2,0,P|421:251|395:194,1,130,8|2,0:0|0:0,0:0:0:0:
316,186,64952,1,2,0:0:0:0:
270,255,65140,1,2,0:0:0:0:
185,255,65327,1,8,0:0:0:0:
139,186,65515,2,0,P|148:156|136:116,1,65,2|0,0:0|0:0,0:0:0:0:
170,93,65796,1,0,0:0:0:0:
170,93,65890,2,0,P|196:80|248:72,1,65,8|0,0:0|0:0,0:0:0:0:
318,93,66265,1,2,0:0:0:0:
379,150,66452,1,8,0:0:0:0:
379,235,66640,5,2,0:0:0:0:
379,235,67015,1,2,0:0:0:0:
294,235,67202,1,2,0:0:0:0:
233,295,67390,1,8,0:0:0:0:
92,188,67765,2,0,L|117:106,1,65,2|2,0:0|0:0,0:0:0:0:
210,97,68140,2,0,L|192:160,1,65,2|0,0:0|0:0,0:0:0:0:
144,48,68515,1,2,0:0:0:0:
224,16,68702,1,2,0:0:0:0:
292,68,68890,2,0,L|368:68,2,65,8|0|2,0:0|0:0|0:0,0:0:0:0:
210,97,69452,1,2,0:0:0:0:
128,124,69640,6,0,L|63:124,1,65,2|0,0:0|0:0,0:0:0:0:
188,184,70015,2,0,L|276:184,1,65,2|2,0:0|0:0,0:0:0:0:
313,244,70390,1,8,0:0:0:0:
313,244,70765,1,2,0:0:0:0:
252,304,70952,1,2,0:0:0:0:
166,304,71140,1,2,0:0:0:0:
105,243,71327,1,8,0:0:0:0:
105,157,71515,2,0,P|128:112|228:100,1,130,2|8,0:0|0:0,0:0:0:0:
260,149,72077,1,0,0:0:0:0:
344,149,72265,1,2,0:0:0:0:
405,88,72452,1,8,0:0:0:0:
405,88,72640,6,0,P|428:168|384:224,1,130,2|2,0:0|0:0,0:0:0:0:
328,232,73202,1,2,0:0:0:0:
244,252,73390,2,0,B|204:228|156:280|118:252,1,130,8|2,0:0|0:0,0:0:0:0:
55,195,73952,1,2,0:0:0:0:
115,134,74140,2,0,L|207:134,1,65,2|0,0:0|0:0,0:0:0:0:
240,73,74515,1,2,0:0:0:0:
240,73,74890,1,8,0:0:0:0:
300,133,75077,1,2,0:0:0:0:
239,193,75265,1,2,0:0:0:0:
299,253,75452,1,2,0:0:0:0:
238,313,75640,6,0,L|150:313,1,65,2|0,0:0|0:0,0:0:0:0:
47,252,76015,2,0,L|112:252,1,65,2|2,0:0|0:0,0:0:0:0:
112,373,76390,1,8,0:0:0:0:
112,373,76765,2,0,L|56:316,1,65,2|2,0:0|0:0,0:0:0:0:
80,219,77140,2,0,L|126:266,1,65,2|8,0:0|0:0,0:0:0:0:
231,251,77515,2,0,L|186:205,1,65,2|0,0:0|0:0,0:0:0:0:
186,162,77796,1,0,0:0:0:0:
186,162,77890,2,0,L|246:102,1,65,8|0,0:0|0:0,0:0:0:0:
292,55,78265,1,2,0:0:0:0:
376,55,78452,1,8,0:0:0:0:
436,115,78640,5,2,0:0:0:0:
436,115,79015,2,0,P|428:148|444:188,1,65,2|2,0:0|0:0,0:0:0:0:
484,248,79390,1,8,0:0:0:0:
400,256,79577,1,0,0:0:0:0:
316,272,79765,2,0,P|272:292|252:316,1,65,2|2,0:0|0:0,0:0:0:0:
192,352,80140,1,2,0:0:0:0:
184,268,80327,1,0,0:0:0:0:
156,188,80515,2,0,P|144:148|124:124,1,65,2|2,0:0|0:0,0:0:0:0:
69,69,80890,2,0,L|5:69,2,65,8|2|2,0:0|0:0|0:0,0:0:0:0:
150,45,81452,1,2,0:0:0:0:
150,45,81546,1,0,0:0:0:0:
150,45,81640,6,0,P|196:52|232:32,1,65,2|0,0:0|0:0,0:0:0:0:
297,46,82015,2,0,P|328:39|359:47,1,65,2|2,0:0|0:0,0:0:0:0:
419,107,82390,1,8,0:0:0:0:
143,192,82765,2,0,L|56:192,2,65,2|2|2,0:0|0:0|0:0,0:0:0:0:
203,252,83327,1,8,0:0:0:0:
288,252,83515,2,0,L|360:252,1,65,2|0,0:0|0:0,0:0:0:0:
383,282,83796,1,0,0:0:0:0:
383,282,83890,2,0,L|443:222,1,65,8|8,0:0|0:0,0:0:0:0:
428,152,84265,1,8,0:0:0:0:
348,120,84452,1,8,0:0:0:0:
282,175,84640,6,0,L|154:175,1,110.50000210762,6|2,0:0|0:0,0:0:0:0:
120,123,85202,1,0,0:0:0:0:
171,71,85390,2,0,L|299:71,1,110.50000210762,8|2,0:0|0:0,0:0:0:0:
354,71,85952,1,0,0:0:0:0:
405,122,86140,2,0,P|400:152|412:184,1,55.2500010538101,2|0,0:0|0:0,0:0:0:0:
432,244,86515,1,2,0:0:0:0:
168,248,86890,1,8,0:0:0:0:
281,71,87265,2,0,L|248:28,2,36.8333340358734,2|0|0,0:0|0:0|0:0,0:0:0:0:
308,112,87640,6,0,P|376:128|416:80,2,110.50000210762,2|2|8,0:0|0:0|0:0,0:0:0:0:
169,74,88765,1,2,0:0:0:0:
117,125,88952,1,0,0:0:0:0:
117,197,89140,1,2,0:0:0:0:
168,248,89327,1,0,0:0:0:0:
240,248,89515,2,0,L|288:200,1,55.2500010538101,2|0,0:0|0:0,0:0:0:0:
304,183,89796,1,0,0:0:0:0:
304,183,89890,2,0,L|384:183,1,55.2500010538101,8|0,0:0|0:0,0:0:0:0:
465,234,90265,2,0,L|410:234,1,55.2500010538101,2|0,0:0|0:0,0:0:0:0:
342,112,90640,6,0,P|395:121|428:164,1,110.50000210762,2|2,0:0|0:0,0:0:0:0:
410,234,91202,1,0,0:0:0:0:
359,183,91390,2,0,L|223:183,1,110.50000210762,8|2,0:0|0:0,0:0:0:0:
197,234,91952,1,0,0:0:0:0:
248,285,92140,2,0,L|324:285,2,55.2500010538101,2|0|2,0:0|0:0|0:0,0:0:0:0:
180,304,92702,1,0,0:0:0:0:
128,252,92890,1,8,0:0:0:0:
128,252,93265,1,2,0:0:0:0:
112,181,93452,1,2,0:0:0:0:
112,181,93546,1,0,0:0:0:0:
112,181,93640,6,0,P|165:190|197:234,2,110.50000210762,2|2|8,0:0|0:0|0:0,0:0:0:0:
60,233,94577,1,2,0:0:0:0:
60,305,94765,1,2,0:0:0:0:
111,356,94952,1,2,0:0:0:0:
183,356,95140,2,0,L|231:308,1,55.2500010538101,2|0,0:0|0:0,0:0:0:0:
273,265,95515,2,0,P|334:244|382:276,1,110.50000210762,2|8,0:0|0:0,0:0:0:0:
396,332,96077,1,8,0:0:0:0:
324,316,96265,1,2,0:0:0:0:
273,265,96452,1,8,0:0:0:0:
243,198,96640,6,0,P|182:177|134:209,1,110.50000210762,6|2,0:0|0:0,0:0:0:0:
123,266,97202,1,0,0:0:0:0:
193,248,97390,1,8,0:0:0:0:
320,120,97765,2,0,L|364:68,1,55.2500010538101,2|2,0:0|0:0,0:0:0:0:
463,33,98140,2,0,L|427:75,1,55.2500010538101,2|0,0:0|0:0,0:0:0:0:
304,26,98515,1,2,0:0:0:0:
84,156,98890,1,8,0:0:0:0:
304,288,99265,1,2,0:0:0:0:
376,288,99452,1,0,0:0:0:0:
340,224,99640,6,0,L|268:208,1,55.2500010538101,2|0,0:0|0:0,0:0:0:0:
232,127,100015,2,0,L|286:139,1,55.2500010538101,2|0,0:0|0:0,0:0:0:0:
376,84,100390,2,0,L|248:56,1,110.50000210762,8|0,0:0|0:0,0:0:0:0:
196,64,100952,1,2,0:0:0:0:
160,128,101140,1,2,0:0:0:0:
196,192,101327,1,8,0:0:0:0:
268,192,101515,2,0,L|340:192,1,55.2500010538101,2|0,0:0|0:0,0:0:0:0:
323,192,101796,1,0,0:0:0:0:
323,192,101890,1,8,0:0:0:0:
401,312,102265,1,2,0:0:0:0:
328,312,102452,1,8,0:0:0:0:
287,252,102640,6,0,P|358:132|358:252,1,357.5,2|0,0:0|0:0,0:0:0:0:
328,312,104890,1,8,0:0:0:0:
323,192,105077,1,8,0:0:0:0:
287,252,105265,1,2,0:0:0:0:
362,248,105452,1,2,0:0:0:0:
323,192,105640,6,0,P|270:160|198:204,1,143.000004364014,6|2,0:0|0:0,0:0:0:0:
194,280,106202,1,0,0:0:0:0:
264,231,106390,2,0,B|264:75,1,143.000004364014,8|2,0:0|0:0,0:0:0:0:
202,27,106952,1,2,0:0:0:0:
140,89,107140,2,0,L|64:89,2,71.5000021820069,2|0|2,0:0|0:0|0:0,0:0:0:0:
264,300,107890,1,8,0:0:0:0:
388,89,108265,1,2,0:0:0:0:
449,151,108452,1,2,0:0:0:0:
387,213,108640,6,0,L|243:213,1,143.000004364014,2|2,0:0|0:0,0:0:0:0:
196,140,109202,1,2,0:0:0:0:
282,154,109390,2,0,P|314:207|270:279,1,143.000004364014,8|2,0:0|0:0,0:0:0:0:
194,288,109952,1,2,0:0:0:0:
107,288,110140,2,0,L|51:232,1,71.5000021820069,2|8,0:0|0:0,0:0:0:0:
56,151,110515,1,2,0:0:0:0:
256,72,110890,1,8,0:0:0:0:
456,151,111265,1,2,0:0:0:0:
512,84,111452,1,8,0:0:0:0:
456,151,111640,6,0,B|416:188|360:115|320:151,1,143.000004364014,2|2,0:0|0:0,0:0:0:0:
367,231,112202,1,2,0:0:0:0:
321,313,112390,2,0,B|281:276|225:349|186:314,1,143.000004364014,8|2,0:0|0:0,0:0:0:0:
204,224,112952,1,2,0:0:0:0:
116,256,113140,1,2,0:0:0:0:
132,164,113327,1,2,0:0:0:0:
75,91,113515,1,2,0:0:0:0:
75,91,113890,2,8,P|142:74|204:108,1,143.000004364014,8|2,0:0|0:0,0:0:0:0:
244,192,114452,1,2,0:0:0:0:
244,192,114640,6,0,P|292:208|356:184,1,107.25000327301,2|0,0:0|0:0,0:0:0:0:
378,225,115015,2,0,P|398:273|378:321,1,107.25000327301,8|0,0:0|0:0,0:0:0:0:
344,354,115390,2,0,P|296:338|232:362,1,107.25000327301,8|0,0:0|0:0,0:0:0:0:
209,320,115765,2,0,P|176:328|132:316,2,71.5000021820069,2|8|0,0:0|0:0|0:0,0:0:0:0:
176,240,116327,1,8,0:0:0:0:
144,160,116515,1,8,0:0:0:0:
200,228,116702,1,0,0:0:0:0:
168,148,116890,1,8,0:0:0:0:
224,216,117077,2,0,L|283:188,5,35.7500010910034,2|0|2|0|2|0,0:0|0:0|0:0|0:0|0:0|0:0,0:0:0:0:
290,217,117640,6,0,P|352:188|420:224,1,143.000004364014,6|2,0:0|0:0,0:0:0:0:
436,304,118202,1,2,0:0:0:0:
353,276,118390,1,8,0:0:0:0:
270,304,118577,2,0,P|224:320|176:304,2,71.5000021820069,2|2|2,0:0|0:0|0:0,0:0:0:0:
290,217,119140,2,0,L|290:61,1,143.000004364014,2|2,0:0|0:0,0:0:0:0:
212,32,119702,1,2,0:0:0:0:
136,72,119890,2,0,P|140:120|128:156,1,71.5000021820069,8|0,0:0|0:0,0:0:0:0:
68,196,120265,1,2,0:0:0:0:
148,228,120452,1,2,0:0:0:0:
148,228,120546,1,0,0:0:0:0:
148,228,120640,6,0,B|188:220|204:196|212:176|212:176|268:152,1,143.000004364014,6|2,0:0|0:0,0:0:0:0:
352,152,121202,1,2,0:0:0:0:
308,224,121390,1,8,0:0:0:0:
252,292,121577,2,0,L|180:323,1,71.5000021820069,8|2,0:0|0:0,0:0:0:0:
100,304,121952,1,2,0:0:0:0:
56,232,122140,2,0,P|72:172|152:136,1,143.000004364014,2|2,0:0|0:0,0:0:0:0:
224,136,122702,1,2,0:0:0:0:
310,136,122890,1,8,0:0:0:0:
310,136,123265,2,0,P|328:168|380:184,1,71.5000021820069,2|8,0:0|0:0,0:0:0:0:
444,192,123640,5,2,0:0:0:0:
444,192,124015,2,0,P|420:248|384:264,1,71.5000021820069,2|0,0:0|0:0,0:0:0:0:
328,268,124390,1,8,0:0:0:0:
136,268,124765,1,2,0:0:0:0:
236,116,125140,2,0,P|288:88|376:136,2,143.000004364014,2|2|8,0:0|0:0|0:0,0:0:0:0:
380,200,126452,1,0,0:0:0:0:
380,200,126640,6,0,P|436:160|440:80,1,143.000004364014,6|2,0:0|0:0,0:0:0:0:
376,36,127202,1,0,0:0:0:0:
289,36,127390,1,8,0:0:0:0:
96,132,127765,2,0,L|60:168,3,35.7500010910034,2|0|0|0,0:0|0:0|0:0|0:0,0:0:0:0:
70,200,128140,2,0,P|39:263|83:327,1,143.000004364014,2|2,0:0|0:0,0:0:0:0:
256,192,128890,1,8,0:0:0:0:
320,136,129077,1,0,0:0:0:0:
381,74,129265,2,0,L|445:74,2,47.6666681213379,2|0|0,0:0|0:0|0:0,0:0:0:0:
328,52,129640,6,0,L|248:52,1,71.5000021820069,2|0,0:0|0:0,0:0:0:0:
40,144,130202,2,0,L|112:144,1,71.5000021820069,0|8,0:0|0:0,0:0:0:0:
255,236,130765,1,2,0:0:0:0:
100,316,131140,1,2,0:0:0:0:
112,144,131515,1,2,0:0:0:0:
192,296,131890,2,0,P|256:324|324:288,1,143.000004364014,8|0,0:0|0:0,0:0:0:0:
372,228,132452,1,8,0:0:0:0:
448,184,132640,5,2,0:0:0:0:
392,340,133015,1,2,0:0:0:0:
256,248,133390,1,8,0:0:0:0:
112,244,133765,1,2,0:0:0:0:
112,116,134140,1,2,0:0:0:0:
216,68,134515,1,2,0:0:0:0:
312,96,134890,1,8,0:0:0:0:
348,172,135265,1,2,0:0:0:0:
296,220,135640,1,2,0:0:0:0:
256,192,136015,1,2,0:0:0:0:
256,192,136108,12,6,138640,0:0:0:0:
