osu file format v14

[General]
AudioFilename: fix.mp3
AudioLeadIn: 0
PreviewTime: 105077
Countdown: 0
SampleSet: Soft
StackLeniency: 0.7
Mode: 0
LetterboxInBreaks: 0
SkinPreference:Default
EpilepsyWarning: 1
WidescreenStoryboard: 0

[Editor]
DistanceSpacing: 1.01
BeatDivisor: 4
GridSize: 4
TimelineZoom: 1.1

[Metadata]
Title:fix
TitleUnicode:fix
Artist:keeno
ArtistUnicode:keeno
Creator:noz1995
Version:Easy
Source:
Tags:Hatsune Miku 初音ミク Append Dark vocaloid JPop cut version
BeatmapID:773993
BeatmapSetID:351218

[Difficulty]
HPDrainRate:2
CircleSize:3
OverallDifficulty:3
ApproachRate:3
SliderMultiplier:0.8
SliderTickRate:1

[Events]
//Background and Video events
0,0,"pause-overlay.png",0,0
//Break Periods
2,48840,59200
//Storyboard Layer 0 (Background)
//Storyboard Layer 1 (Fail)
//Storyboard Layer 2 (Pass)
//Storyboard Layer 3 (Foreground)
//Storyboard Sound Samples

[TimingPoints]
640,375,4,2,1,85,1,0
24640,-100,4,2,1,60,0,0
84640,-100,4,2,1,70,0,0
102733,-100,4,2,1,35,0,0
104890,-100,4,2,1,60,0,0
105640,-100,4,2,1,85,0,1
117077,-100,4,2,1,60,0,0
117640,-100,4,2,1,100,0,1
126640,-100,4,2,1,60,0,0
132452,-100,4,2,1,25,0,0
138640,-100,4,2,1,60,0,0

[Colours]
Combo1 : 249,249,0
Combo2 : 255,55,55
Combo3 : 200,200,200
Combo4 : 154,255,53

[HitObjects]
324,172,12640,6,0,P|266:133|184:180,1,160,6|8,0:0|0:0,0:0:0:0:
256,212,13765,1,2,0:0:0:0:
324,252,14140,2,0,P|380:228|388:124,1,160,2|10,0:0|0:0,0:0:0:0:
332,92,15265,1,2,0:0:0:0:
260,124,15640,6,0,P|212:160|120:116,1,160,2|8,0:0|0:0,0:0:0:0:
192,84,16765,2,0,L|192:252,1,160,2|2,0:0|0:0,0:0:0:0:
248,300,17890,1,8,0:0:0:0:
328,300,18265,1,2,0:0:0:0:
384,243,18640,6,0,P|348:195|392:103,1,160,6|8,0:0|0:0,0:0:0:0:
462,104,19765,1,2,0:0:0:0:
426,175,20140,2,0,L|258:175,1,160,2|8,0:0|0:0,0:0:0:0:
186,175,21265,1,2,0:0:0:0:
128,120,21640,6,0,P|73:97|19:119,2,120,2|2|2,0:0|0:0|0:0,0:0:0:0:
73,177,23140,2,0,L|20:240,1,80,2|2,0:0|0:0,0:0:0:0:
78,295,23890,2,0,L|131:232,1,80,8|2,0:0|0:0,0:0:0:0:
190,180,24640,6,0,P|260:160|308:192,2,120,6|2|2,0:0|0:0|0:0,0:0:0:0:
245,240,26140,2,0,P|284:260|334:250,1,80,2|2,0:0|0:0,0:0:0:0:
376,200,26890,1,8,0:0:0:0:
352,124,27265,1,2,0:0:0:0:
272,124,27640,6,0,P|202:144|154:112,2,120,2|2|2,0:0|0:0|0:0,0:0:0:0:
310,54,29140,2,0,L|396:9,1,80,2|2,0:0|0:0,0:0:0:0:
422,86,29890,2,0,L|340:129,1,80,8|2,0:0|0:0,0:0:0:0:
313,194,30640,6,0,P|290:248|312:302,2,120,2|2|2,0:0|0:0|0:0,0:0:0:0:
381,151,32140,2,0,P|322:113|240:160,1,160,2|8,0:0|0:0,0:0:0:0:
190,204,33265,1,2,0:0:0:0:
168,128,33640,6,0,B|180:96|200:76|228:56,1,80,2|2,0:0|0:0,0:0:0:0:
290,34,34390,2,0,B|317:29|345:33|368:42|368:42|411:37,2,120,8|2|2,0:0|0:0|0:0,0:0:0:0:
215,65,35890,1,8,0:0:0:0:
158,121,36265,1,2,0:0:0:0:
215,178,36640,6,0,B|195:193|184:200|157:202|141:198|141:198|124:240,2,120,2|2|2,0:0|0:0|0:0,0:0:0:0:
271,120,38140,2,0,L|340:60,1,80,2|2,0:0|0:0,0:0:0:0:
383,129,38890,2,0,L|321:181,1,80,8|2,0:0|0:0,0:0:0:0:
265,237,39640,6,0,L|141:237,2,120,2|2|2,0:0|0:0|0:0,0:0:0:0:
344,244,41140,2,0,P|331:281|296:312,1,80,2|2,0:0|0:0,0:0:0:0:
224,318,41891,2,0,L|144:318,1,80,8|2,0:0|0:0,0:0:0:0:
87,261,42640,6,0,P|108:200|84:148,2,120,2|2|2,0:0|0:0|0:0,0:0:0:0:
28,206,44140,2,0,L|188:206,1,160,2|8,0:0|0:0,0:0:0:0:
245,148,45265,1,2,0:0:0:0:
302,90,45640,6,0,P|382:54|442:98,1,160,2|8,0:0|0:0,0:0:0:0:
441,169,46765,1,2,0:0:0:0:
370,134,47140,1,2,0:0:0:0:
300,172,47515,2,0,L|208:172,2,80,2|8|2,0:0|0:0|0:0,0:0:0:0:
370,211,48640,5,6,0:0:0:0:
251,210,60640,6,0,L|171:210,1,80,6|2,0:0|0:0,0:0:0:0:
114,153,61390,1,8,0:0:0:0:
114,73,61765,1,2,0:0:0:0:
184,32,62140,2,0,L|264:32,1,80,2|2,0:0|0:0,0:0:0:0:
336,72,62890,1,8,0:0:0:0:
336,152,63265,1,2,0:0:0:0:
267,193,63640,6,0,B|187:193|187:193|152:228,2,120,2|2|2,0:0|0:0|0:0,0:0:0:0:
336,152,65140,2,0,P|300:120|252:116,2,80,2|2|8,0:0|0:0|0:0,0:0:0:0:
336,232,66265,1,2,0:0:0:0:
338,311,66640,6,0,P|376:302|409:262,1,80,2|2,0:0|0:0,0:0:0:0:
406,192,67390,1,8,0:0:0:0:
336,152,67765,1,2,0:0:0:0:
255,152,68140,2,0,L|172:152,1,80,2|2,0:0|0:0,0:0:0:0:
104,116,68890,1,8,0:0:0:0:
172,72,69265,1,2,0:0:0:0:
252,72,69640,6,0,B|332:71|332:71|368:36,2,120,2|2|2,0:0|0:0|0:0,0:0:0:0:
172,72,71140,2,0,L|104:4,1,80,2|2,0:0|0:0,0:0:0:0:
58,72,71890,2,0,L|114:128,1,80,8|2,0:0|0:0,0:0:0:0:
192,148,72640,6,0,B|272:148|272:148|312:188,2,120,2|2|2,0:0|0:0|0:0,0:0:0:0:
134,205,74140,2,0,L|72:256,1,80,2|2,0:0|0:0,0:0:0:0:
124,317,74890,2,0,L|185:265,1,80,8|2,0:0|0:0,0:0:0:0:
266,265,75640,6,0,P|336:285|384:253,2,120,2|2|2,0:0|0:0|0:0,0:0:0:0:
320,206,77140,2,0,L|381:154,1,80,2|2,0:0|0:0,0:0:0:0:
329,94,77890,2,0,L|267:145,1,80,8|2,0:0|0:0,0:0:0:0:
186,145,78640,6,0,B|156:120|100:168|68:144,2,120,2|2|2,0:0|0:0|0:0,0:0:0:0:
256,184,80140,2,0,L|352:184,2,80,2|2|8,0:0|0:0|0:0,0:0:0:0:
186,225,81265,1,2,0:0:0:0:
256,264,81640,6,0,L|352:264,1,80,2|2,0:0|0:0,0:0:0:0:
408,224,82390,2,0,L|504:224,1,80,8|2,0:0|0:0,0:0:0:0:
488,143,83140,2,0,B|408:143|408:143|348:84,1,160,2|8,0:0|0:0,0:0:0:0:
293,29,84265,1,2,0:0:0:0:
212,29,84640,6,0,P|173:97|209:164,1,160,6|8,0:0|0:0,0:0:0:0:
253,97,85765,2,0,L|93:97,1,160,2|2,0:0|0:0,0:0:0:0:
35,154,86890,1,8,0:0:0:0:
35,234,87265,1,2,0:0:0:0:
105,193,87640,6,0,B|149:154|211:231|257:193,1,160,2|8,0:0|0:0,0:0:0:0:
302,125,88765,2,0,P|338:201|294:265,1,160,2|2,0:0|0:0,0:0:0:0:
221,265,89890,1,8,0:0:0:0:
177,197,90265,1,2,0:0:0:0:
258,192,90640,6,0,B|304:227|363:157|410:191,1,160,2|8,0:0|0:0,0:0:0:0:
455,259,91765,2,0,P|491:191|454:123,1,160,2|2,0:0|0:0,0:0:0:0:
373,123,92890,6,0,P|303:143|255:111,2,120,8|2|2,0:0|0:0|0:0,0:0:0:0:
319,64,94390,2,0,P|264:41|198:76,2,120,8|2|2,0:0|0:0|0:0,0:0:0:0:
264,122,95890,1,8,0:0:0:0:
185,140,96265,1,2,0:0:0:0:
240,200,96640,6,0,B|277:208|299:198|315:184|315:184|379:236,1,160,6|8,0:0|0:0,0:0:0:0:
457,248,97765,1,2,0:0:0:0:
430,173,98140,2,0,L|359:115,1,80,2|2,0:0|0:0,0:0:0:0:
308,68,98890,1,8,0:0:0:0:
227,68,99265,1,2,0:0:0:0:
168,122,99640,6,0,P|204:189|168:257,1,160,2|8,0:0|0:0,0:0:0:0:
88,264,100765,1,2,0:0:0:0:
123,191,101140,2,0,L|286:191,1,160,2|8,0:0|0:0,0:0:0:0:
335,129,102265,1,2,0:0:0:0:
376,59,102640,6,0,B|416:83|424:123|420:167|383:193|383:193|418:223|422:267|416:303|376:331,1,320,2|0,0:0|0:0,0:0:0:0:
240,252,104890,1,8,0:0:0:0:
296,196,105265,1,2,0:0:0:0:
220,176,105640,6,0,L|124:176,1,80,6|2,0:0|0:0,0:0:0:0:
78,124,106390,2,0,P|58:180|92:241,2,120,8|2|2,0:0|0:0|0:0,0:0:0:0:
154,96,107890,1,8,0:0:0:0:
234,96,108265,1,2,0:0:0:0:
291,154,108640,6,0,L|379:154,1,80,2|2,0:0|0:0,0:0:0:0:
449,172,109390,2,0,P|419:89|383:75,2,120,8|2|2,0:0|0:0|0:0,0:0:0:0:
397,232,110890,1,8,0:0:0:0:
317,232,111265,1,2,0:0:0:0:
259,175,111640,6,0,L|203:119,1,80,2|2,0:0|0:0,0:0:0:0:
193,37,112390,2,0,P|141:63|121:119,2,120,10|2|2,0:0|0:0|0:0,0:0:0:0:
274,37,113890,1,8,0:0:0:0:
331,94,114265,1,2,0:0:0:0:
372,163,114640,6,0,P|421:174|459:159,2,80,2|8|8,0:0|0:0|0:0,0:0:0:0:
411,95,115765,2,0,P|501:105|490:233,1,240,2|8,0:0|0:0,0:0:0:0:
414,229,117265,1,2,0:0:0:0:
351,179,117640,6,0,P|290:157|237:183,2,120,6|2|2,0:0|0:0|0:0,0:0:0:0:
297,237,119140,2,0,P|221:255|176:226,2,120,2|2|2,0:0|0:0|0:0,0:0:0:0:
351,179,120640,6,0,B|387:207|435:151|471:179,2,120,6|2|2,0:0|0:0|0:0,0:0:0:0:
297,119,122140,2,0,B|261:91|213:147|177:119,1,120,2|2,0:0|0:0,0:0:0:0:
78,185,123265,1,2,0:0:0:0:
7,225,123640,5,2,0:0:0:0:
78,265,124015,2,0,B|111:267|135:246|146:229|146:229|233:243,1,160,2|2,0:0|0:0,0:0:0:0:
293,283,125140,2,0,P|304:230|290:196,2,80,2|2|8,0:0|0:0|0:0,0:0:0:0:
256,192,126452,12,0,129640,0:0:0:0:
296,164,131140,6,0,P|260:152|208:172,1,80,2|2,0:0|0:0,0:0:0:0:
257,233,131890,1,8,0:0:0:0:
256,192,132452,12,10,134890,0:0:0:0:
256,192,136015,12,6,138640,0:0:0:0:
