osu file format v14

[General]
AudioFilename: fix.mp3
AudioLeadIn: 0
PreviewTime: 105077
Countdown: 0
SampleSet: Soft
StackLeniency: 0.7
Mode: 0
LetterboxInBreaks: 0
SkinPreference:Default
EpilepsyWarning: 1
WidescreenStoryboard: 0

[Editor]
DistanceSpacing: 1
BeatDivisor: 4
GridSize: 4
TimelineZoom: 1.1

[Metadata]
Title:fix
TitleUnicode:fix
Artist:keeno
ArtistUnicode:keeno
Creator:noz1995
Version:Advanced
Source:
Tags:Hatsune Miku 初音ミク Append Dark vocaloid JPop cut version
BeatmapID:773992
BeatmapSetID:351218

[Difficulty]
HPDrainRate:4
CircleSize:3.5
OverallDifficulty:5
ApproachRate:5.5
SliderMultiplier:1.05
SliderTickRate:1

[Events]
//Background and Video events
0,0,"pause-overlay.png",0,0
//Break Periods
2,48840,59515
//Storyboard Layer 0 (Background)
//Storyboard Layer 1 (Fail)
//Storyboard Layer 2 (Pass)
//Storyboard Layer 3 (Foreground)
//Storyboard Sound Samples

[TimingPoints]
640,375,4,2,1,85,1,0
24640,-100,4,2,1,60,0,0
84640,-100,4,2,1,70,0,0
102640,-100,4,2,1,35,0,0
104890,-100,4,2,1,60,0,0
105640,-100,4,2,1,85,0,1
117077,-100,4,2,1,60,0,0
117640,-100,4,2,1,100,0,1
126640,-100,4,2,1,60,0,0
132452,-100,4,2,1,25,0,0
136015,-100,4,2,1,10,0,0
138640,-100,4,2,1,60,0,0

[Colours]
Combo1 : 249,249,0
Combo2 : 255,55,55
Combo3 : 200,200,200
Combo4 : 154,255,53

[HitObjects]
304,128,12640,6,0,P|256:108|196:140,1,105,6|2,0:0|0:0,0:0:0:0:
152,216,13390,1,8,0:0:0:0:
256,196,13765,1,2,0:0:0:0:
360,216,14140,2,0,L|420:196,2,52.5,2|0|2,0:0|0:0|0:0,0:0:0:0:
288,292,14890,1,8,0:0:0:0:
183,292,15265,1,2,0:0:0:0:
108,217,15640,6,0,P|127:163|96:104,1,105,2|2,0:0|0:0,0:0:0:0:
24,64,16390,1,8,0:0:0:0:
44,166,16765,1,2,0:0:0:0:
24,268,17140,1,2,0:0:0:0:
104,336,17515,2,0,P|84:364|52:376,2,52.5,2|0|8,0:0|0:0|0:0,0:0:0:0:
120,232,18265,2,2,P|140:204|172:192,1,52.5,2|8,0:0|0:0,0:0:0:0:
208,195,18640,6,0,P|256:212|308:192,1,105,6|2,0:0|0:0,0:0:0:0:
356,104,19390,1,8,0:0:0:0:
256,128,19765,1,2,0:0:0:0:
204,116,19952,1,0,0:0:0:0:
152,128,20140,2,0,P|128:136|92:116,2,52.5,2|0|2,0:0|0:0|0:0,0:0:0:0:
204,36,20890,1,8,0:0:0:0:
308,36,21265,1,2,0:0:0:0:
382,110,21640,6,0,P|368:156|392:216,1,105,2|2,0:0|0:0,0:0:0:0:
422,245,22202,1,0,0:0:0:0:
422,245,22390,2,0,L|317:245,1,105,8|2,0:0|0:0,0:0:0:0:
242,170,23140,2,0,P|177:156|127:181,1,105,2|2,0:0|0:0,0:0:0:0:
91,262,23890,2,0,P|155:275|205:250,1,105,8|2,0:0|0:0,0:0:0:0:
240,248,24452,1,8,0:0:0:0:
240,248,24640,6,0,P|289:233|339:248,1,105,6|2,0:0|0:0,0:0:0:0:
376,148,25390,2,0,P|326:162|276:147,1,105,8|2,0:0|0:0,0:0:0:0:
239,110,25952,1,2,0:0:0:0:
239,110,26140,2,0,L|119:110,1,105,2|2,0:0|0:0,0:0:0:0:
84,204,26890,2,0,L|189:204,1,105,8|2,0:0|0:0,0:0:0:0:
226,241,27452,1,2,0:0:0:0:
226,241,27640,6,0,L|331:241,1,105,2|2,0:0|0:0,0:0:0:0:
368,203,28202,1,2,0:0:0:0:
368,203,28390,2,0,P|348:160|385:101,1,105,8|2,0:0|0:0,0:0:0:0:
407,73,28952,1,2,0:0:0:0:
407,73,29140,2,0,L|480:96,2,52.5,2|8|2,0:0|0:0|0:0,0:0:0:0:
308,36,29890,1,8,0:0:0:0:
209,73,30265,2,0,L|136:96,1,52.5,2|8,0:0|0:0,0:0:0:0:
112,108,30640,6,0,P|130:156|106:216,1,105,2|2,0:0|0:0,0:0:0:0:
77,242,31202,1,2,0:0:0:0:
77,242,31390,2,0,L|180:288,1,105,8|2,0:0|0:0,0:0:0:0:
225,284,31952,1,2,0:0:0:0:
225,284,32140,2,0,L|331:242,1,105,2|2,0:0|0:0,0:0:0:0:
372,224,32702,1,2,0:0:0:0:
372,224,32890,1,8,0:0:0:0:
313,140,33265,1,2,0:0:0:0:
208,140,33640,6,0,P|147:150|92:127,1,105,2|2,0:0|0:0,0:0:0:0:
159,46,34390,2,0,P|219:35|274:58,1,105,8|2,0:0|0:0,0:0:0:0:
308,68,34952,1,2,0:0:0:0:
308,68,35140,2,0,L|360:32,2,52.5,2|8|2,0:0|0:0|0:0,0:0:0:0:
240,152,35890,2,0,P|226:195|247:260,1,105,8|2,0:0|0:0,0:0:0:0:
278,288,36452,1,8,0:0:0:0:
278,288,36640,6,0,L|382:288,1,105,2|2,0:0|0:0,0:0:0:0:
440,200,37390,2,0,L|335:200,1,105,8|2,0:0|0:0,0:0:0:0:
297,162,37952,1,2,0:0:0:0:
297,162,38140,2,0,L|228:176,2,52.5,2|0|2,0:0|0:0|0:0,0:0:0:0:
348,72,38890,2,0,P|397:56|446:72,1,105,8|2,0:0|0:0,0:0:0:0:
395,162,39640,6,0,P|345:177|296:161,1,105,2|2,0:0|0:0,0:0:0:0:
259,124,40202,1,2,0:0:0:0:
259,124,40390,2,0,L|160:188,1,105,8|2,0:0|0:0,0:0:0:0:
158,231,40952,1,2,0:0:0:0:
158,231,41140,2,0,P|139:249|134:299,2,52.5,2|8|2,0:0|0:0|0:0,0:0:0:0:
264,220,41890,1,8,0:0:0:0:
368,204,42265,2,0,P|386:185|392:136,1,52.5,2|8,0:0|0:0,0:0:0:0:
357,124,42640,6,0,P|307:139|258:123,1,105,2|2,0:0|0:0,0:0:0:0:
212,96,43202,1,2,0:0:0:0:
212,96,43390,2,0,P|162:80|113:96,1,105,8|2,0:0|0:0,0:0:0:0:
76,133,43952,1,2,0:0:0:0:
76,133,44140,2,0,P|92:181|76:231,1,105,2|2,0:0|0:0,0:0:0:0:
39,268,44702,1,2,0:0:0:0:
39,268,44890,2,0,L|155:268,1,105,8|2,0:0|0:0,0:0:0:0:
249,268,45640,5,2,0:0:0:0:
323,193,46015,1,2,0:0:0:0:
373,100,46390,2,0,P|319:87|261:109,1,105,8|2,0:0|0:0,0:0:0:0:
235,137,46952,1,8,0:0:0:0:
235,137,47140,2,0,L|176:108,2,52.5,2|8|2,0:0|0:0|0:0,0:0:0:0:
323,193,47890,1,8,0:0:0:0:
267,281,48265,1,2,0:0:0:0:
179,225,48640,5,6,0:0:0:0:
130,265,60640,6,0,L|50:185,1,105,6|2,0:0|0:0,0:0:0:0:
130,117,61390,2,0,L|210:197,1,105,8|2,0:0|0:0,0:0:0:0:
256,191,61952,1,2,0:0:0:0:
256,191,62140,2,0,P|305:174|354:190,1,105,2|2,0:0|0:0,0:0:0:0:
406,281,62890,2,0,P|356:296|307:281,1,105,8|2,0:0|0:0,0:0:0:0:
256,191,63640,6,0,P|271:141|255:92,1,105,2|2,0:0|0:0,0:0:0:0:
218,55,64202,1,2,0:0:0:0:
218,55,64390,2,0,L|331:55,1,105,8|2,0:0|0:0,0:0:0:0:
375,55,64952,1,2,0:0:0:0:
375,55,65140,2,0,L|432:32,2,52.5,2|8|2,0:0|0:0|0:0,0:0:0:0:
296,124,65890,1,8,0:0:0:0:
245,217,66265,2,0,L|197:238,1,52.5,2|8,0:0|0:0,0:0:0:0:
144,238,66640,6,0,P|159:189|144:140,1,105,2|2,0:0|0:0,0:0:0:0:
124,92,67202,1,2,0:0:0:0:
124,92,67390,2,0,P|173:77|222:93,1,105,8|2,0:0|0:0,0:0:0:0:
257,133,67952,1,2,0:0:0:0:
257,133,68140,2,0,P|306:148|355:132,1,105,2|2,0:0|0:0,0:0:0:0:
452,92,68890,1,8,0:0:0:0:
512,176,69265,1,2,0:0:0:0:
444,256,69640,6,0,P|408:240|340:260,1,105,2|2,0:0|0:0,0:0:0:0:
271,329,70390,2,0,P|221:344|172:328,1,105,8|2,0:0|0:0,0:0:0:0:
135,291,70952,1,2,0:0:0:0:
135,291,71140,2,0,L|72:320,2,52.5,2|8|2,0:0|0:0|0:0,0:0:0:0:
224,236,71890,2,0,B|224:184|224:184|184:136,1,105,8|2,0:0|0:0,0:0:0:0:
152,106,72452,1,8,0:0:0:0:
152,106,72640,6,0,L|260:44,1,105,2|2,0:0|0:0,0:0:0:0:
295,53,73202,1,2,0:0:0:0:
295,53,73390,2,0,L|386:105,1,105,8|2,0:0|0:0,0:0:0:0:
432,128,73952,1,2,0:0:0:0:
432,128,74140,2,0,L|488:92,2,52.5,2|0|2,0:0|0:0|0:0,0:0:0:0:
342,179,74890,2,0,P|326:228|342:277,1,105,8|2,0:0|0:0,0:0:0:0:
432,226,75640,6,0,P|447:176|431:127,1,105,2|2,0:0|0:0,0:0:0:0:
396,86,76202,1,2,0:0:0:0:
396,86,76390,2,0,L|292:86,1,105,8|2,0:0|0:0,0:0:0:0:
253,123,76952,1,2,0:0:0:0:
253,123,77140,2,0,L|188:104,2,52.5,2|8|2,0:0|0:0|0:0,0:0:0:0:
342,179,77890,1,8,0:0:0:0:
356,284,78265,2,0,P|322:287|284:276,1,52.5,2|8,0:0|0:0,0:0:0:0:
260,256,78640,6,0,B|224:276|192:236|159:256,1,105,2|2,0:0|0:0,0:0:0:0:
108,268,79202,1,2,0:0:0:0:
108,268,79390,2,0,L|8:190,1,105,8|2,0:0|0:0,0:0:0:0:
25,151,79952,1,2,0:0:0:0:
25,151,80140,2,0,L|121:77,1,105,2|2,0:0|0:0,0:0:0:0:
160,86,80702,1,2,0:0:0:0:
160,86,80890,2,0,P|209:101|258:86,1,105,8|2,0:0|0:0,0:0:0:0:
355,37,81640,5,2,0:0:0:0:
355,142,82015,1,2,0:0:0:0:
317,179,82202,1,2,0:0:0:0:
279,216,82390,2,0,B|223:248|179:212,1,105,8|2,0:0|0:0,0:0:0:0:
164,164,82952,1,2,0:0:0:0:
164,164,83140,2,0,L|108:172,2,52.5,2|8|2,0:0|0:0|0:0,0:0:0:0:
267,139,83890,2,0,P|263:122|242:92,2,52.5,8|8|8,0:0|0:0|0:0,0:0:0:0:
319,230,84640,6,0,P|420:231|476:148,1,210,6|8,0:0|0:0,0:0:0:0:
372,139,85765,1,2,0:0:0:0:
267,139,86140,1,2,0:0:0:0:
208,52,86515,1,2,0:0:0:0:
317,48,86890,1,8,0:0:0:0:
372,139,87265,1,2,0:0:0:0:
316,228,87640,6,0,B|264:268|216:228|164:188|116:228,1,210,2|8,0:0|0:0,0:0:0:0:
176,316,88765,2,0,P|288:340|380:304,1,210,2|2,0:0|0:0,0:0:0:0:
416,212,89890,2,0,L|472:168,2,52.5,8|0|2,0:0|0:0|0:0,0:0:0:0:
311,212,90640,6,0,P|260:124|307:35,1,210,2|8,0:0|0:0,0:0:0:0:
364,123,91765,2,0,L|147:123,1,210,2|2,0:0|0:0,0:0:0:0:
100,212,92890,2,0,P|160:224|212:208,1,105,8|2,0:0|0:0,0:0:0:0:
238,250,93452,6,0,P|298:238|350:254,1,105,2|0,0:0|0:0,0:0:0:0:
376,211,94015,1,2,0:0:0:0:
450,136,94390,2,0,L|504:136,2,52.5,8|2|2,0:0|0:0|0:0,0:0:0:0:
412,98,94952,2,0,B|360:98|360:98|320:56,1,105,2|0,0:0|0:0,0:0:0:0:
270,59,95515,1,2,0:0:0:0:
165,59,95890,1,8,0:0:0:0:
90,133,96265,1,2,0:0:0:0:
164,207,96640,6,0,P|260:160|345:218,1,210,6|8,0:0|0:0,0:0:0:0:
252,268,97765,2,0,P|220:296|192:304,1,52.5,2|2,0:0|0:0,0:0:0:0:
160,308,98140,2,0,P|104:292|48:316,2,105,2|2|8,0:0|0:0|0:0,0:0:0:0:
256,348,99265,1,2,0:0:0:0:
352,308,99640,6,0,P|408:324|464:300,2,105,2|2|8,0:0|0:0|0:0,0:0:0:0:
403,216,100765,2,0,L|443:176,1,52.5,2|2,0:0|0:0,0:0:0:0:
440,126,101140,2,0,L|484:82,2,52.5,2|0|2,0:0|0:0|0:0,0:0:0:0:
335,126,101890,1,8,0:0:0:0:
256,192,102265,1,2,0:0:0:0:
256,192,102640,12,8,104890,0:0:0:0:
211,102,105640,6,0,P|231:149|213:197,1,105,6|2,0:0|0:0,0:0:0:0:
251,235,106202,1,2,0:0:0:0:
251,235,106390,2,0,L|371:235,1,105,8|2,0:0|0:0,0:0:0:0:
393,272,106952,2,0,P|445:252|489:272,2,105,2|2|2,0:0|0:0|0:0,0:0:0:0:
355,309,107890,1,8,0:0:0:0:
250,309,108265,1,2,0:0:0:0:
175,234,108640,6,0,P|193:187|173:135,1,105,2|2,0:0|0:0,0:0:0:0:
137,100,109202,1,2,0:0:0:0:
137,100,109390,2,0,L|261:100,1,105,8|2,0:0|0:0,0:0:0:0:
292,86,109952,2,0,P|344:104|404:76,2,105,2|2|2,0:0|0:0|0:0,0:0:0:0:
248,56,110890,1,8,0:0:0:0:
344,16,111265,1,2,0:0:0:0:
448,40,111640,6,0,P|464:76|432:152,1,105,2|2,0:0|0:0,0:0:0:0:
410,174,112202,1,2,0:0:0:0:
410,174,112390,2,0,P|362:154|302:186,1,105,8|2,0:0|0:0,0:0:0:0:
277,208,112952,1,2,0:0:0:0:
172,208,113327,1,2,0:0:0:0:
120,116,113702,1,2,0:0:0:0:
120,116,113890,2,0,L|224:116,1,105,8|2,0:0|0:0,0:0:0:0:
262,78,114452,1,2,0:0:0:0:
262,78,114640,6,0,P|311:62|360:78,1,105,2|8,0:0|0:0,0:0:0:0:
408,172,115390,2,0,P|359:188|310:172,1,105,8|2,0:0|0:0,0:0:0:0:
208,167,116140,2,0,B|157:167|157:167|117:127,2,105,2|8|8,0:0|0:0|0:0,0:0:0:0:
245,204,117077,2,0,L|309:204,2,52.5,2|2|2,0:0|0:0|0:0,0:0:0:0:
207,241,117640,6,0,P|190:290|206:339,1,105,6|2,0:0|0:0,0:0:0:0:
259,339,118202,2,0,L|320:340,1,52.5,2|8,0:0|0:0,0:0:0:0:
348,302,118577,2,0,L|404:302,2,52.5,8|2|2,0:0|0:0|0:0,0:0:0:0:
310,264,119140,2,0,P|293:214|310:165,1,105,2|2,0:0|0:0,0:0:0:0:
346,129,119702,1,2,0:0:0:0:
346,129,119890,2,0,L|240:104,1,105,8|2,0:0|0:0,0:0:0:0:
206,142,120452,1,2,0:0:0:0:
206,142,120640,6,0,P|223:192|206:241,1,105,6|2,0:0|0:0,0:0:0:0:
169,276,121202,2,0,L|115:276,1,52.5,2|8,0:0|0:0,0:0:0:0:
79,313,121577,2,0,L|23:313,2,52.5,8|2|2,0:0|0:0|0:0,0:0:0:0:
116,350,122140,2,0,L|240:350,1,105,2|2,0:0|0:0,0:0:0:0:
264,324,122702,1,2,0:0:0:0:
296,284,122890,1,8,0:0:0:0:
296,179,123265,1,2,0:0:0:0:
352,88,123640,6,0,P|401:72|450:88,1,105,2|2,0:0|0:0,0:0:0:0:
401,182,124390,1,8,0:0:0:0:
296,180,124765,1,2,0:0:0:0:
244,88,125140,2,0,P|194:73|145:89,2,105,2|2|8,0:0|0:0|0:0,0:0:0:0:
256,192,126452,12,2,129640,0:0:0:0:
208,280,130390,5,8,0:0:0:0:
152,192,130765,1,2,0:0:0:0:
257,192,131140,2,0,P|312:208|371:178,1,105,2|2,0:0|0:0,0:0:0:0:
308,100,131890,2,0,P|253:84|194:114,1,105,8|2,0:0|0:0,0:0:0:0:
256,192,132452,12,8,134890,0:0:0:0:
256,192,136015,12,6,138640,0:0:0:0:
