osu file format v10

[General]
AudioFilename: Crack.mp3
AudioLeadIn: 2000
PreviewTime: 85113
Countdown: 0
SampleSet: Soft
StackLeniency: 0.6
Mode: 0
LetterboxInBreaks: 0

[Editor]
DistanceSpacing: 1.4
BeatDivisor: 4
GridSize: 4

[Metadata]
Title:Crack
TitleUnicode:Crack
Artist:keeno
ArtistUnicode:keeno
Creator:Azure
Version:Normal
Source:Vocaloid
Tags:append dark at dusk cut Hatsune Miku
BeatmapID:186253
BeatmapSetID:56348

[Difficulty]
HPDrainRate:4
CircleSize:3
OverallDifficulty:4
ApproachRate:4
SliderMultiplier:1.2
SliderTickRate:2

[Events]
//Background and Video events
0,0,"bg.jpg"
//Break Periods
2,24345,40567
//Storyboard Layer 0 (Background)
//Storyboard Layer 1 (Fail)
//Storyboard Layer 2 (Pass)
//Storyboard Layer 3 (Foreground)
Sprite,Foreground,Centre,"SB\title01.png",320,240 F,0,23438,24083,0,1 F,0,24083,38922,1 M,0,24729,26664,159,102,159,105 F,0,38922,40858,1,0 M,0,40858,,159,105
Sprite,Foreground,Centre,"SB\title03.png",320,240 M,0,26664,28600,275,160,270,162 F,0,26664,28600,0,1 F,0,28600,38922,1 F,0,38922,40858,1,0 M,0,40858,,270,162
Sprite,Foreground,Centre,"SB\title04.png",320,240 F,0,29245,31180,0,1 M,0,29247,31180,292,219,302,214 F,0,31180,38922,1 F,0,38922,40858,1,0 M,0,40858,,302,214
Sprite,Foreground,Centre,"SB\title02.png",320,240 M,0,31825,33761,322,272,309,263 F,0,31825,33761,0,1 F,0,33761,38922,1 F,0,38922,40858,1,0 M,0,40858,,292,265
//Storyboard Sound Samples
//Background Colour Transformations
3,100,38,38,38

[TimingPoints]
-1660,645.161290322581,4,2,0,40,1,0
19952,-100,4,2,1,40,0,0
21242,-100,4,2,1,65,0,0
24145,-100,4,2,0,5,0,0
41726,-100,4,2,1,60,0,0
63661,-100,4,2,2,60,0,0
64307,-100,4,2,1,60,0,0
64952,-100,4,2,2,60,0,0
65597,-100,4,2,1,60,0,0
84952,-100,4,2,2,60,0,0
86081,-100,4,2,2,60,0,1
95113,-100,4,2,1,80,0,0
96403,-100,4,2,2,80,0,1
106887,-100,4,2,2,90,0,1
127371,-100,4,2,1,40,0,1
127694,-100,4,2,0,40,0,0
129952,-100,4,2,0,20,0,0
130597,-100,4,2,0,5,0,0

[Colours]
Combo1 : 251,164,85
Combo2 : 255,255,196
Combo3 : 190,62,58
SliderBorder : 255,255,255

[HitObjects]
144,144,597,2,0,B|144:64,2,60,0|2|0,0:0|0:0|0:0,0:0:0
144,224,1565,1,0,0:0:0
144,224,1887,1,0,0:0:0
144,304,2210,2,0,B|288:304,1,120,2|0,0:0|0:0,0:0:0
344,304,3178,1,0,0:0:0
344,224,3500,2,0,B|280:224,2,60,0|2|0,0:0|0:0|0:0,0:0:0
344,144,4468,1,2,0:0:0
144,220,5758,6,0,B|144:268,2,30,0|0|2,0:0|0:0|0:0,0:0:0
144,136,6404,2,0,B|104:160|50:144|22:95,2,120,2|0|2,0:0|0:0|0:0,0:0:0
144,136,8016,1,0,0:0:0
224,180,8501,2,0,B|253:197,1,30,0|2,0:0|0:0,0:0:0
300,228,8984,1,0,0:0:0
352,256,9307,2,0,B|381:273|410:270,2,60,2|0|2,0:0|0:0|0:0,0:0:0
384,80,10920,6,0,B|464:112,2,60,2|0|0,0:0|0:0|0:0,0:0:0
312,124,11887,2,0,B|240:92,2,60,2|0|0,0:0|0:0|0:0,0:0:0
388,164,12855,1,0,0:0:0
348,240,13178,2,0,B|324:304|256:340,1,120,2|0,0:0|0:0,0:0:0
228,260,14145,2,0,B|200:280|172:316,2,60,0|2|0,0:0|0:0|0:0,0:0:0
184,188,15113,1,0,0:0:0
268,184,15436,2,0,B|300:160|344:164,1,60,0|2,0:0|0:0,0:0:0
328,248,16081,1,0,0:0:0
400,204,16403,6,0,B|448:148|440:76,2,120,2|0|0,0:0|0:0|0:0,0:0:0
328,248,18016,2,0,B|272:304,1,60,0|2,0:0|0:0,0:0:0
212,328,18661,1,0,0:0:0
136,292,18984,2,0,B|96:312|36:280|32:236,1,120,2|0,0:0|0:0,0:0:0
112,212,19952,1,0,0:0:0
136,132,20274,5,0,0:0:0
208,88,20597,2,2,B|208:48,2,30,2|2|8,0:0|0:0|0:0,0:0:0
280,132,21242,1,4,0:0:0
256,192,21565,12,0,24145,0:0:0
360,80,41887,5,0,0:0:0
428,128,42210,2,0,B|508:104,2,60,4|0|8,0:0|0:0|0:0,0:0:0
352,160,43178,1,0,0:0:0
420,208,43500,2,0,B|396:272|324:288,1,120,0|8,0:0|0:0,0:0:0
252,308,44468,1,0,0:0:0
276,228,44790,2,0,B|260:168,3,60,0|0|8|0,0:0|0:0|0:0|0:0,0:0:0
192,220,46081,1,0,0:0:0
112,244,46403,6,0,B|44:264,2,60,0|8|0,0:0|0:0|0:0,0:0:0
92,164,47371,2,0,B|208:128,1,120,4|8,0:0|0:0,0:0:0
232,208,48339,2,0,B|304:184,1,60,0|0,0:0|0:0,0:0:0
368,160,48984,1,0,0:0:0
304,108,49307,6,0,B|336:76|384:68|424:104,2,120,8|0|8,0:0|0:0|0:0,0:0:0
224,128,50919,2,0,B|204:80,2,30,0|8|0,0:0|0:0|0:0,0:0:0
284,184,51565,1,0,0:0:0
284,184,51887,1,0,0:0:0
368,160,52210,6,0,B|424:192,1,60,0|4,0:0|0:0,0:0:0
464,260,52855,1,0,0:0:0
380,264,53178,2,0,B|400:336,2,60,8|0|0,0:0|0:0|0:0,0:0:0
296,264,54145,2,0,B|240:296|176:264,1,120
108,228,55113,5,0,0:0:0
180,188,55436,2,0,B|216:136,2,60,0|8|0,0:0|0:0|0:0,0:0:0
108,148,56403,1,0,0:0:0
156,80,56726,2,0,B|192:32,2,60,0|8|0,0:0|0:0|0:0,0:0:0
216,140,57694,6,0,B|272:104|344:144,1,120,4|8,0:0|0:0,0:0:0
416,136,58661,2,0,B|456:208,1,60,0|0,0:0|0:0,0:0:0
364,216,59307,1,0,0:0:0
284,240,59629,1,8,0:0:0
204,216,59952,1,0,0:0:0
264,156,60274,6,0,B|224:120|164:128|144:164,2,120,0|8|0,0:0|0:0|0:0,0:0:0
432,56,62210,1,8,0:0:0
388,128,62532,1,0,0:0:0
328,188,62855,5,4,0:0:0
260,236,63178,2,2,B|212:292|140:284,1,120,0|0,0:0|0:0,0:0:0
72,272,64145,1,0,0:0:0
84,188,64468,2,0,B|120:132|212:140,1,120,0|0,0:0|0:0,0:0:0
272,136,65436,5,2,0:0:0
356,136,65758,2,0,B|420:136,2,60,0|8|0,0:0|0:0|0:0,0:0:0
356,220,66726,1,0,0:0:0
272,220,67049,2,0,B|208:220,2,60,0|8|0,0:0|0:0|0:0,0:0:0
356,220,68016,6,0,B|356:288,2,60,0|0|8,0:0|0:0|0:0,0:0:0
440,220,68984,1,0,0:0:0
440,136,69307,1,0,0:0:0
356,136,69629,6,0,B|316:80|356:16,2,120
284,176,71242,2,0,B|284:240,2,60,8|0|0,0:0|0:0|0:0,0:0:0
208,136,72210,1,2,0:0:0
136,176,72532,1,8,0:0:0
64,136,72855,2,8,B|0:136,1,60,2|4,0:0|0:0,0:0:0
40,264,73823,5,8,0:0:0
120,264,74145,2,0,B|120:336,2,60
120,184,75113,1,8,0:0:0
192,216,75436,1,0,0:0:0
184,136,75758,1,0,0:0:0
256,168,76081,2,0,B|312:208,1,60,0|8,0:0|0:0,0:0:0
264,272,76726,5,0,0:0:0
344,272,77049,1,0,0:0:0
424,272,77371,1,0,0:0:0
424,192,77694,2,0,B|472:152,2,60,8|0|0,0:0|0:0|0:0,0:0:0
368,136,78661,6,0,B|328:88,1,60,0|8,0:0|0:0,0:0:0
260,136,79307,2,0,B|212:176,1,60,0|0,0:0|0:0,0:0:0
128,172,79952,2,0,B|64:172,2,60,0|8|0,0:0|0:0|0:0,0:0:0
256,192,80920,12,0,82855,0:0:0
256,192,83500,5,12,0:0:0
256,192,83823,2,2,B|256:132,2,60
88,184,85113,6,0,B|8:184,1,60
56,104,85758,1,2,0:0:0
56,104,86081,6,0,B|104:64|176:80,1,120,4|8,0:0|0:0,0:0:0
248,112,87049,1,0,0:0:0
312,164,87371,1,0,0:0:0
392,144,87694,2,0,B|416:152|448:184,2,60,0|8|0,0:0|0:0|0:0,0:0:0
372,224,88661,2,0,B|396:264|396:288,1,60
320,312,89307,1,8,0:0:0
288,236,89629,1,0,0:0:0
136,308,90274,5,0,0:0:0
60,272,90597,1,8,0:0:0
32,192,90920,1,0,0:0:0
36,108,91242,2,0,B|48:64|84:36|140:36,1,120,4|8,0:0|0:0,0:0:0
204,32,92210,1,0,0:0:0
372,32,92855,6,0,B|436:32,2,60,0|8|0,0:0|0:0|0:0,0:0:0
376,116,93823,1,0,0:0:0
292,140,94145,2,0,B|292:76,2,60,0|8|0,0:0|0:0|0:0,0:0:0
272,216,95113,1,0,0:0:0
192,208,95436,1,0,0:0:0
160,280,95758,5,8,0:0:0
216,336,96081,1,0,0:0:0
288,296,96403,2,0,B|344:296|400:256,1,120,4|8,0:0|0:0,0:0:0
472,216,97371,1,0,0:0:0
428,144,97694,1,0,0:0:0
360,92,98016,2,0,B|356:60|376:36,2,60,0|8|0,0:0|0:0|0:0,0:0:0
348,176,98984,2,0,B|296:216|236:208,1,120,4|8,0:0|0:0,0:0:0
152,196,99952,1,0,0:0:0
40,244,100597,6,0,B|40:324,1,60,0|8,0:0|0:0,0:0:0
124,300,101243,2,0,B|268:300,1,120
284,228,102210,1,8,0:0:0
324,300,102532,2,0,B|388:276,1,60
456,244,103178,1,0,0:0:0
456,160,103500,1,8,0:0:0
376,136,103823,2,0,B|316:112|244:132,1,120
176,152,104790,1,8,0:0:0
96,172,105113,5,0,0:0:0
64,96,105436,2,0,B|120:40,1,60,0|4,0:0|0:0,0:0:0
184,40,106081,2,0,B|240:56,1,60,8|0,0:0|0:0,0:0:0
312,88,106726,1,4,0:0:0
376,136,107049,6,0,B|440:136,2,60,0|8|0,0:0|0:0|0:0,0:0:0
208,136,108339,2,0,B|144:136,2,60,0|8|0,0:0|0:0|0:0,0:0:0
60,212,109630,2,0,B|120:212,2,60,0|8|0,0:0|0:0|0:0,0:0:0
152,316,110920,1,0,0:0:0
232,336,111242,1,8,0:0:0
316,316,111565,1,0,0:0:0
384,264,111887,1,4,0:0:0
424,188,112210,6,0,B|460:140,2,60,0|8|0,0:0|0:0|0:0,0:0:0
264,128,113500,1,0,0:0:0
260,44,113823,1,8,0:0:0
188,88,114145,2,0,B|128:88,1,60
68,32,114790,1,0,0:0:0
48,112,115113,2,0,B|48:180,1,60,8|0,0:0|0:0,0:0:0
152,304,116081,5,4,0:0:0
212,244,116403,1,8,0:0:0
132,224,116726,1,0,0:0:0
196,92,117371,5,0,0:0:0
268,44,117694,1,8,0:0:0
276,124,118016,1,0,0:0:0
376,192,118661,5,0,0:0:0
440,248,118984,1,8,0:0:0
360,272,119307,1,0,0:0:0
196,244,119952,6,0,B|140:196,2,60,0|8|0,0:0|0:0|0:0,0:0:0
236,172,120920,1,0,0:0:0
320,172,121242,2,0,B|376:116,2,60,0|8|0,0:0|0:0|0:0,0:0:0
364,244,122210,5,0,0:0:0
320,316,122532,1,0,0:0:0
236,316,122855,1,8,0:0:0
196,244,123178,2,0,B|148:256|100:220|108:164,2,120,0|0|0,0:0|0:0|0:0,0:0:0
184,160,124790,5,0,0:0:0
256,116,125113,1,0,0:0:0
332,160,125436,1,8,0:0:0
404,116,125758,2,0,B|428:164|416:208|368:236,2,120
332,160,127372,5,4,0:0:0
256,192,127694,12,0,130598,0:0:0
