osu file format v13

[General]
AudioFilename: last concerto.mp3
AudioLeadIn: 0
PreviewTime: 42583
Countdown: 0
SampleSet: Soft
StackLeniency: 0.5
Mode: 3
LetterboxInBreaks: 0
SpecialStyle: 0
WidescreenStoryboard: 0

[Editor]
DistanceSpacing: 1.1
BeatDivisor: 4
GridSize: 4
TimelineZoom: 2.2

[Metadata]
Title:Last Concerto
TitleUnicode:Last Concerto
Artist:ke-ji
ArtistUnicode:ke-ji
Creator:LevPrism-
Version:NOVICE Lv.7
Source:SOUND VOLTEX II -infinite infection-
Tags:SDVX KAC2013 Original Song Contest Konami Bemani
BeatmapID:533452
BeatmapSetID:228964

[Difficulty]
HPDrainRate:7
CircleSize:4
OverallDifficulty:7
ApproachRate:5
SliderMultiplier:1.4
SliderTickRate:1

[Events]
//Background and Video events
0,0,"bg.jpg",0,0
//Break Periods
//Storyboard Layer 0 (Background)
//Storyboard Layer 1 (Fail)
//Storyboard Layer 2 (Pass)
//Storyboard Layer 3 (Foreground)
//Storyboard Sound Samples

[TimingPoints]
583,272.727272727273,4,2,1,20,1,0
4946,-100,4,2,1,35,0,0
9310,-100,3,2,1,35,0,0
13401,272.727272727273,4,2,1,20,1,0
16946,-100,4,2,1,20,0,0
17219,-100,4,2,1,20,0,0
21037,-100,4,2,1,35,0,0
28673,-100,4,2,1,30,0,0
43401,272.727272727273,4,2,1,35,1,1
76673,-100,4,2,1,40,0,1
77219,-100,4,2,1,45,0,1
77764,-100,4,2,1,37,0,1
78310,-100,4,2,1,20,0,0
89219,-100,4,2,1,35,0,0
93583,-100,3,2,1,20,0,0
96037,-100,3,2,1,35,0,0
97946,-100,4,2,1,10,0,0

[HitObjects]
64,192,583,5,0,0:0:0:0:
448,192,583,1,0,0:0:0:0:
64,192,855,1,0,0:0:0:0:
448,192,1128,1,0,0:0:0:0:
448,192,1401,1,0,0:0:0:0:
192,192,1673,1,0,0:0:0:0:
192,192,1946,1,0,0:0:0:0:
320,192,2219,1,0,0:0:0:0:
320,192,2492,1,0,0:0:0:0:
448,192,2764,1,0,0:0:0:0:
64,192,2764,1,0,0:0:0:0:
64,192,3037,1,0,0:0:0:0:
192,192,3310,1,0,0:0:0:0:
192,192,3583,1,0,0:0:0:0:
448,192,3855,1,0,0:0:0:0:
64,192,3855,1,0,0:0:0:0:
320,192,4128,1,0,0:0:0:0:
64,192,4401,1,0,0:0:0:0:
448,192,4401,1,0,0:0:0:0:
192,192,4673,1,0,0:0:0:0:
320,192,4673,1,0,0:0:0:0:
64,192,4946,1,0,0:0:0:0:
448,192,4946,1,0,0:0:0:0:
192,192,5219,1,0,0:0:0:0:
448,192,5492,1,0,0:0:0:0:
64,192,5764,1,0,0:0:0:0:
320,192,6037,1,0,0:0:0:0:
192,192,6310,1,0,0:0:0:0:
320,192,6583,1,0,0:0:0:0:
192,192,6855,1,0,0:0:0:0:
64,192,7128,1,0,0:0:0:0:
448,192,7128,1,0,0:0:0:0:
64,192,7401,1,0,0:0:0:0:
320,192,7673,1,0,0:0:0:0:
192,192,7673,1,0,0:0:0:0:
320,192,7946,1,0,0:0:0:0:
192,192,8219,1,0,0:0:0:0:
448,192,8219,1,0,0:0:0:0:
192,192,8492,1,0,0:0:0:0:
448,192,8764,1,0,0:0:0:0:
64,192,8764,1,0,0:0:0:0:
448,192,9037,1,0,0:0:0:0:
64,192,9310,128,0,9855:0:0:0:0:
448,192,9855,1,0,0:0:0:0:
448,192,10128,128,0,10673:0:0:0:0:
64,192,10673,1,0,0:0:0:0:
64,192,10946,128,0,11764:0:0:0:0:
448,192,10946,128,0,11764:0:0:0:0:
192,192,11764,1,8,1:0:0:0:
320,192,11946,1,8,1:0:0:0:
64,192,12128,1,8,1:0:0:0:
448,192,12310,1,8,1:0:0:0:
192,192,12446,1,8,1:0:0:0:
320,192,13401,1,0,0:0:0:0:
320,192,13810,1,0,0:0:0:0:
64,192,14083,1,0,0:0:0:0:
320,192,14219,1,0,0:0:0:0:
192,192,14355,1,0,0:0:0:0:
64,192,14628,1,0,0:0:0:0:
448,192,14764,1,0,0:0:0:0:
320,192,14901,1,0,0:0:0:0:
192,192,15173,1,0,0:0:0:0:
320,192,15310,1,0,0:0:0:0:
320,192,15719,1,0,0:0:0:0:
192,192,15992,1,0,0:0:0:0:
320,192,16128,1,0,0:0:0:0:
64,192,16264,1,0,0:0:0:0:
192,192,16537,1,0,0:0:0:0:
448,192,16673,1,0,0:0:0:0:
64,192,16810,1,0,0:0:0:0:
448,192,16946,1,8,0:0:0:0:
448,192,17083,1,8,0:0:0:0:
192,192,17219,1,0,0:0:0:0:
320,192,17628,1,0,0:0:0:0:
320,192,17901,1,0,0:0:0:0:
192,192,18037,1,0,0:0:0:0:
64,192,18173,1,0,0:0:0:0:
320,192,18446,1,0,0:0:0:0:
448,192,18583,1,0,0:0:0:0:
192,192,18719,1,0,0:0:0:0:
320,192,18992,1,0,0:0:0:0:
448,192,19128,1,0,0:0:0:0:
64,192,19128,1,0,0:0:0:0:
192,192,19264,1,0,0:0:0:0:
320,192,19401,1,0,0:0:0:0:
192,192,19673,1,0,0:0:0:0:
448,192,19673,1,0,0:0:0:0:
320,192,19810,1,0,0:0:0:0:
448,192,19946,1,0,0:0:0:0:
320,192,20083,1,0,0:0:0:0:
64,192,20083,1,0,0:0:0:0:
192,192,20219,1,0,0:0:0:0:
320,192,20355,1,0,0:0:0:0:
64,192,20492,1,0,0:0:0:0:
192,192,20628,1,0,0:0:0:0:
320,192,20764,1,0,0:0:0:0:
192,192,20901,1,0,0:0:0:0:
320,192,21037,128,0,21992:0:0:0:0:
64,192,21037,1,0,0:0:0:0:
448,192,21446,1,0,0:0:0:0:
192,192,21719,1,0,0:0:0:0:
64,192,21855,1,0,0:0:0:0:
448,192,21992,128,0,22810:0:0:0:0:
192,192,22264,1,0,0:0:0:0:
64,192,22401,1,0,0:0:0:0:
320,192,22537,1,0,0:0:0:0:
192,192,22810,1,0,0:0:0:0:
64,192,22946,128,0,23901:0:0:0:0:
448,192,23355,1,0,0:0:0:0:
320,192,23628,1,0,0:0:0:0:
192,192,23764,1,0,0:0:0:0:
448,192,23901,1,0,0:0:0:0:
192,192,24173,1,0,0:0:0:0:
64,192,24310,1,0,0:0:0:0:
320,192,24446,1,0,0:0:0:0:
64,192,24719,1,0,0:0:0:0:
192,192,24855,128,0,25810:0:0:0:0:
448,192,25264,1,0,0:0:0:0:
448,192,25537,1,0,0:0:0:0:
64,192,25673,1,0,0:0:0:0:
320,192,25810,128,0,26764:0:0:0:0:
192,192,26083,1,0,0:0:0:0:
64,192,26219,1,0,0:0:0:0:
448,192,26355,1,0,0:0:0:0:
64,192,26764,1,8,1:0:0:0:
448,192,26764,1,8,1:0:0:0:
64,192,27310,1,8,1:0:0:0:
448,192,27310,1,8,1:0:0:0:
320,192,27719,1,6,3:0:0:0:
192,192,27719,1,6,3:0:0:0:
64,192,28128,1,8,1:0:0:0:
448,192,28128,1,8,1:0:0:0:
192,192,28401,1,6,3:0:0:0:
320,192,28401,1,6,3:0:0:0:
448,192,28673,128,0,30855:0:0:0:0:
320,192,29492,1,0,0:0:0:0:
192,192,29764,1,0,0:0:0:0:
64,192,30037,1,0,0:0:0:0:
192,192,30310,1,0,0:0:0:0:
320,192,30583,1,0,0:0:0:0:
64,192,30855,1,0,0:0:0:0:
192,192,31128,128,0,31673:0:0:0:0:
320,192,31673,1,0,0:0:0:0:
64,192,31946,128,0,34946:0:0:0:0:
448,192,32764,1,0,0:0:0:0:
320,192,33037,1,0,0:0:0:0:
192,192,33310,1,0,0:0:0:0:
320,192,33583,1,0,0:0:0:0:
448,192,33855,1,0,0:0:0:0:
320,192,34128,1,0,0:0:0:0:
192,192,34401,128,0,34946:0:0:0:0:
448,192,34946,1,0,0:0:0:0:
320,192,35219,128,0,36583:0:0:0:0:
64,192,35219,128,0,36037:0:0:0:0:
192,192,36037,128,0,36310:0:0:0:0:
448,192,36310,128,0,36583:0:0:0:0:
64,192,36583,1,0,0:0:0:0:
192,192,36855,128,0,38219:0:0:0:0:
448,192,36855,128,0,37673:0:0:0:0:
320,192,37673,128,0,37946:0:0:0:0:
64,192,37946,128,0,38219:0:0:0:0:
320,192,38219,1,0,0:0:0:0:
448,192,38492,128,0,39855:0:0:0:0:
192,192,38492,128,0,39310:0:0:0:0:
64,192,39310,128,0,39583:0:0:0:0:
320,192,39583,128,0,39855:0:0:0:0:
192,192,39855,1,0,0:0:0:0:
448,192,40128,128,0,40401:0:0:0:0:
64,192,40128,128,0,41492:0:0:0:0:
320,192,40401,128,0,40673:0:0:0:0:
192,192,40673,128,0,40946:0:0:0:0:
448,192,40946,128,0,41492:0:0:0:0:
192,192,41492,128,0,41764:0:0:0:0:
448,192,41764,128,0,42583:0:0:0:0:
320,192,41764,128,0,42583:0:0:0:0:
64,192,42583,128,2,42855:1:0:0:0:
192,192,42583,1,2,1:0:0:0:
192,192,42855,128,2,43128:1:0:0:0:
448,192,42855,1,2,1:0:0:0:
320,192,43128,128,2,43401:1:0:0:0:
64,192,43128,1,2,1:0:0:0:
448,192,43401,128,8,43946:1:0:0:0:
192,192,43401,1,8,1:0:0:0:
320,192,43946,128,0,44219:0:0:0:0:
192,192,44219,128,0,44492:0:0:0:0:
64,192,44492,128,8,45310:1:0:0:0:
448,192,44492,128,8,45310:1:0:0:0:
192,192,45310,1,0,0:0:0:0:
320,192,45446,1,0,0:0:0:0:
192,192,45583,1,0,0:0:0:0:
448,192,45583,1,0,0:0:0:0:
64,192,45855,1,0,0:0:0:0:
448,192,46128,1,0,0:0:0:0:
192,192,46128,1,0,0:0:0:0:
320,192,46401,1,0,0:0:0:0:
192,192,46673,128,0,47083:0:0:0:0:
320,192,46673,128,0,47083:0:0:0:0:
64,192,47219,128,0,47628:0:0:0:0:
448,192,47219,128,0,47628:0:0:0:0:
192,192,47764,128,0,48583:0:0:0:0:
320,192,47764,1,0,0:0:0:0:
448,192,48583,1,0,0:0:0:0:
320,192,48855,1,0,0:0:0:0:
64,192,48855,1,0,0:0:0:0:
448,192,49128,1,0,0:0:0:0:
320,192,49401,1,0,0:0:0:0:
192,192,49673,1,0,0:0:0:0:
448,192,49946,1,0,0:0:0:0:
64,192,49946,1,0,0:0:0:0:
192,192,50219,1,0,0:0:0:0:
320,192,50492,1,0,0:0:0:0:
64,192,50492,1,0,0:0:0:0:
192,192,50764,1,0,0:0:0:0:
64,192,51037,128,0,51583:0:0:0:0:
320,192,51037,128,0,51583:0:0:0:0:
448,192,51583,128,0,52673:0:0:0:0:
64,192,51855,1,0,0:0:0:0:
192,192,51992,1,0,0:0:0:0:
320,192,52128,1,0,0:0:0:0:
192,192,52673,1,0,0:0:0:0:
320,192,52946,1,0,0:0:0:0:
64,192,53219,128,0,53901:0:0:0:0:
448,192,53219,128,0,53901:0:0:0:0:
320,192,54037,1,0,0:0:0:0:
192,192,54173,1,0,0:0:0:0:
64,192,54310,1,0,0:0:0:0:
320,192,54310,1,0,0:0:0:0:
448,192,54583,1,0,0:0:0:0:
192,192,54855,1,0,0:0:0:0:
448,192,54855,1,0,0:0:0:0:
192,192,55128,1,0,0:0:0:0:
448,192,55401,128,0,55946:0:0:0:0:
64,192,55401,1,0,0:0:0:0:
64,192,55946,128,0,56492:0:0:0:0:
320,192,55946,1,0,0:0:0:0:
320,192,56492,128,0,57310:0:0:0:0:
448,192,56492,1,0,0:0:0:0:
192,192,57310,1,0,0:0:0:0:
448,192,57583,1,0,0:0:0:0:
320,192,57583,1,0,0:0:0:0:
192,192,57855,1,0,0:0:0:0:
64,192,58128,1,0,0:0:0:0:
448,192,58401,1,0,0:0:0:0:
192,192,58673,1,0,0:0:0:0:
64,192,58673,1,0,0:0:0:0:
320,192,58946,1,0,0:0:0:0:
192,192,59219,1,0,0:0:0:0:
320,192,59219,1,0,0:0:0:0:
192,192,59492,1,0,0:0:0:0:
192,192,59764,128,0,60310:0:0:0:0:
64,192,59764,1,0,0:0:0:0:
448,192,60310,128,0,60583:0:0:0:0:
320,192,60310,1,0,0:0:0:0:
192,192,60583,1,0,0:0:0:0:
64,192,60855,1,0,0:0:0:0:
320,192,60855,1,0,0:0:0:0:
448,192,61128,1,0,0:0:0:0:
64,192,61401,1,0,0:0:0:0:
320,192,61673,1,0,0:0:0:0:
192,192,61946,1,0,0:0:0:0:
448,192,61946,1,0,0:0:0:0:
320,192,62219,1,0,0:0:0:0:
192,192,62492,1,0,0:0:0:0:
320,192,62764,1,0,0:0:0:0:
64,192,63037,1,0,0:0:0:0:
448,192,63037,1,0,0:0:0:0:
320,192,63310,1,0,0:0:0:0:
64,192,63583,1,0,0:0:0:0:
448,192,63583,1,0,0:0:0:0:
192,192,63855,1,0,0:0:0:0:
64,192,64128,1,0,0:0:0:0:
320,192,64128,1,0,0:0:0:0:
320,192,64401,1,0,0:0:0:0:
192,192,64673,1,0,0:0:0:0:
448,192,64673,1,0,0:0:0:0:
192,192,64946,1,0,0:0:0:0:
320,192,65219,1,0,0:0:0:0:
64,192,65219,1,0,0:0:0:0:
448,192,65492,128,0,65764:0:0:0:0:
64,192,65764,128,0,66037:0:0:0:0:
320,192,66037,1,0,0:0:0:0:
448,192,66173,1,0,0:0:0:0:
64,192,66310,1,0,0:0:0:0:
320,192,66310,1,0,0:0:0:0:
320,192,66583,1,0,0:0:0:0:
448,192,66719,1,0,0:0:0:0:
64,192,66855,1,0,0:0:0:0:
320,192,66992,1,0,0:0:0:0:
192,192,67128,1,0,0:0:0:0:
64,192,67264,1,0,0:0:0:0:
448,192,67401,1,0,3:0:0:0:
192,192,67401,1,0,3:0:0:0:
192,192,67673,1,0,0:0:0:0:
64,192,67946,1,4,3:0:0:0:
320,192,67946,1,4,3:0:0:0:
320,192,68219,1,0,0:0:0:0:
192,192,68492,1,0,3:0:0:0:
320,192,68492,1,0,3:0:0:0:
192,192,68764,1,0,0:0:0:0:
64,192,69037,1,8,1:0:0:0:
448,192,69037,1,8,1:0:0:0:
64,192,69310,128,8,69583:1:0:0:0:
448,192,69310,128,8,69583:1:0:0:0:
192,192,69583,1,0,0:0:0:0:
320,192,69583,1,0,0:0:0:0:
64,192,69855,1,0,0:0:0:0:
320,192,70128,1,0,0:0:0:0:
192,192,70401,1,0,0:0:0:0:
448,192,70673,1,0,0:0:0:0:
192,192,70673,1,0,0:0:0:0:
448,192,70946,1,0,0:0:0:0:
192,192,71219,1,0,0:0:0:0:
320,192,71492,1,0,0:0:0:0:
448,192,71764,1,8,3:0:0:0:
320,192,71764,1,8,3:0:0:0:
192,192,71901,1,0,0:0:0:0:
320,192,72037,1,0,0:0:0:0:
64,192,72173,1,0,0:0:0:0:
448,192,72310,1,8,3:0:0:0:
320,192,72310,1,8,3:0:0:0:
192,192,72446,1,0,0:0:0:0:
320,192,72583,1,0,0:0:0:0:
64,192,72719,1,0,0:0:0:0:
192,192,72855,128,2,73401:1:0:0:0:
448,192,72855,128,2,73401:1:0:0:0:
320,192,73401,128,2,73946:1:0:0:0:
64,192,73401,1,2,1:0:0:0:
64,192,73946,1,0,0:0:0:0:
320,192,74219,1,0,0:0:0:0:
192,192,74492,1,0,0:0:0:0:
64,192,74764,1,0,0:0:0:0:
448,192,75037,1,0,0:0:0:0:
192,192,75037,1,0,0:0:0:0:
320,192,75310,1,0,0:0:0:0:
192,192,75583,1,0,0:0:0:0:
320,192,75855,1,0,0:0:0:0:
64,192,76128,1,0,1:0:0:0:
192,192,76128,1,0,1:0:0:0:
320,192,76401,1,0,0:0:0:0:
64,192,76673,1,0,1:0:0:0:
192,192,76673,1,0,1:0:0:0:
448,192,76946,1,0,0:0:0:0:
64,192,77219,1,0,1:0:0:0:
192,192,77219,1,0,1:0:0:0:
320,192,77492,1,0,0:0:0:0:
64,192,77764,1,0,1:0:0:0:
192,192,77764,1,0,1:0:0:0:
448,192,78037,1,0,0:0:0:0:
192,192,78310,128,0,80492:0:0:0:0:
448,192,80492,1,0,0:0:0:0:
64,192,80492,128,0,82128:0:0:0:0:
448,192,82673,128,0,83764:0:0:0:0:
192,192,83764,128,0,84310:0:0:0:0:
448,192,84310,128,0,84855:0:0:0:0:
64,192,84310,128,0,84855:0:0:0:0:
192,192,84855,1,0,0:0:0:0:
320,192,84855,1,0,0:0:0:0:
64,192,85128,1,0,0:0:0:0:
320,192,85401,1,0,0:0:0:0:
448,192,85673,1,0,0:0:0:0:
192,192,85946,1,0,0:0:0:0:
320,192,86219,1,0,0:0:0:0:
192,192,86492,1,0,0:0:0:0:
320,192,86764,1,0,0:0:0:0:
64,192,87037,1,0,0:0:0:0:
448,192,87037,1,0,0:0:0:0:
320,192,87310,1,0,0:0:0:0:
64,192,87583,1,0,0:0:0:0:
320,192,87855,1,0,0:0:0:0:
448,192,88128,1,0,0:0:0:0:
64,192,88128,1,0,0:0:0:0:
64,192,88401,1,0,0:0:0:0:
320,192,88673,1,0,0:0:0:0:
192,192,88673,1,0,0:0:0:0:
192,192,88946,1,0,0:0:0:0:
320,192,88946,1,0,0:0:0:0:
64,192,89219,1,0,0:0:0:0:
448,192,89219,1,0,0:0:0:0:
64,192,89492,1,0,0:0:0:0:
448,192,89492,1,0,0:0:0:0:
320,192,89764,1,0,0:0:0:0:
192,192,90037,1,0,0:0:0:0:
64,192,90310,1,0,0:0:0:0:
448,192,90310,1,0,0:0:0:0:
64,192,90583,1,0,0:0:0:0:
448,192,90583,1,0,0:0:0:0:
192,192,90855,1,0,0:0:0:0:
320,192,91128,1,0,0:0:0:0:
192,192,91401,1,0,0:0:0:0:
64,192,91401,1,0,0:0:0:0:
448,192,91673,1,0,0:0:0:0:
320,192,91673,1,0,0:0:0:0:
64,192,91946,1,0,0:0:0:0:
320,192,92219,1,0,0:0:0:0:
192,192,92492,1,0,0:0:0:0:
448,192,92492,1,0,0:0:0:0:
64,192,92764,1,0,0:0:0:0:
320,192,92764,1,0,0:0:0:0:
192,192,93037,1,0,0:0:0:0:
320,192,93310,1,0,0:0:0:0:
448,192,93583,1,0,0:0:0:0:
64,192,93583,1,0,0:0:0:0:
192,192,93855,1,0,0:0:0:0:
64,192,94128,128,2,94401:1:0:0:0:
448,192,94128,128,2,94401:1:0:0:0:
192,192,94401,1,0,0:0:0:0:
320,192,94673,1,0,0:0:0:0:
448,192,94946,128,2,95219:1:0:0:0:
64,192,94946,128,2,95219:1:0:0:0:
320,192,95219,1,0,0:0:0:0:
448,192,95492,1,0,0:0:0:0:
64,192,95492,1,0,0:0:0:0:
192,192,95764,1,0,0:0:0:0:
320,192,95764,1,0,0:0:0:0:
192,192,96037,1,8,1:0:0:0:
448,192,96037,1,8,1:0:0:0:
320,192,96219,1,8,1:0:0:0:
192,192,96401,1,8,1:0:0:0:
320,192,96583,1,8,1:0:0:0:
64,192,96719,1,8,1:0:0:0:
192,192,96719,1,8,1:0:0:0:
192,192,97946,1,4,2:0:0:0:
448,192,97946,1,4,2:0:0:0:
