osu file format v13

[General]
AudioFilename: last concerto.mp3
AudioLeadIn: 0
PreviewTime: 42583
Countdown: 0
SampleSet: Soft
StackLeniency: 0.5
Mode: 3
LetterboxInBreaks: 0
SpecialStyle: 0
WidescreenStoryboard: 0

[Editor]
DistanceSpacing: 1.1
BeatDivisor: 4
GridSize: 4
TimelineZoom: 1.8

[Metadata]
Title:Last Concerto
TitleUnicode:Last Concerto
Artist:ke-ji
ArtistUnicode:ke-ji
Creator:LevPrism-
Version:EXHAUST Lv.14
Source:SOUND VOLTEX II -infinite infection-
Tags:SDVX KAC2013 Original Song Contest Konami Bemani
BeatmapID:533506
BeatmapSetID:228964

[Difficulty]
HPDrainRate:8
CircleSize:4
OverallDifficulty:8
ApproachRate:5
SliderMultiplier:1.4
SliderTickRate:1

[Events]
//Background and Video events
0,0,"bg.jpg",0,0
//Break Periods
//Storyboard Layer 0 (Background)
//Storyboard Layer 1 (Fail)
//Storyboard Layer 2 (Pass)
//Storyboard Layer 3 (Foreground)
//Storyboard Sound Samples

[TimingPoints]
583,272.727272727273,4,2,1,20,1,0
4946,-100,4,2,1,35,0,0
9310,-100,3,2,1,35,0,0
12446,-66.6666666666667,3,2,1,35,0,0
12855,-133.333333333333,3,2,1,35,0,0
13401,272.727272727273,4,2,1,20,1,0
16946,-100,4,2,1,20,0,0
17219,-100,4,2,1,20,0,0
21037,-100,4,2,1,35,0,0
28673,-100,4,2,1,30,0,0
43401,272.727272727273,4,2,1,35,1,1
76673,-100,4,2,1,40,0,1
77219,-100,4,2,1,45,0,1
77764,-100,4,2,1,37,0,1
78310,-100,4,2,1,20,0,0
89219,-100,4,2,1,35,0,0
93583,-100,3,2,1,20,0,0
96037,-100,3,2,1,35,0,0
96719,-66.6666666666667,3,2,1,35,0,0
97128,-333.333333333333,3,2,1,35,0,0
97946,-100,4,2,1,10,0,0

[HitObjects]
192,192,583,5,8,1:0:0:0:
64,192,583,1,8,1:0:0:0:
320,192,673,1,0,0:0:0:0:
448,192,764,1,0,0:0:0:0:
64,192,855,1,0,0:0:0:0:
192,192,946,1,0,0:0:0:0:
320,192,1037,1,0,0:0:0:0:
192,192,1128,1,0,0:0:0:0:
320,192,1219,1,0,0:0:0:0:
448,192,1310,1,0,0:0:0:0:
192,192,1401,1,0,0:0:0:0:
320,192,1492,1,0,0:0:0:0:
448,192,1583,1,0,0:0:0:0:
64,192,1673,1,0,0:0:0:0:
192,192,1764,1,0,0:0:0:0:
320,192,1855,1,0,0:0:0:0:
64,192,1946,1,0,0:0:0:0:
192,192,2037,1,0,0:0:0:0:
320,192,2128,1,0,0:0:0:0:
192,192,2219,1,0,0:0:0:0:
320,192,2310,1,0,0:0:0:0:
448,192,2401,1,0,0:0:0:0:
192,192,2492,1,0,0:0:0:0:
320,192,2583,1,0,0:0:0:0:
448,192,2673,1,0,0:0:0:0:
192,192,2764,1,2,1:0:0:0:
64,192,2764,1,2,1:0:0:0:
320,192,2855,1,0,0:0:0:0:
448,192,2946,1,0,0:0:0:0:
192,192,3037,1,0,0:0:0:0:
320,192,3128,1,0,0:0:0:0:
448,192,3219,1,0,0:0:0:0:
64,192,3310,1,0,0:0:0:0:
192,192,3401,1,0,0:0:0:0:
320,192,3492,1,0,0:0:0:0:
448,192,3583,1,0,0:0:0:0:
320,192,3673,1,0,0:0:0:0:
192,192,3764,1,0,0:0:0:0:
64,192,3855,1,2,1:0:0:0:
448,192,3855,1,2,1:0:0:0:
192,192,3946,1,0,0:0:0:0:
320,192,4037,1,0,0:0:0:0:
64,192,4128,1,0,0:0:0:0:
192,192,4219,1,0,0:0:0:0:
320,192,4310,1,0,0:0:0:0:
64,192,4401,1,2,1:0:0:0:
448,192,4401,1,2,1:0:0:0:
192,192,4492,1,0,0:0:0:0:
320,192,4583,1,0,0:0:0:0:
64,192,4673,1,0,0:0:0:0:
192,192,4764,1,0,0:0:0:0:
320,192,4855,1,0,0:0:0:0:
192,192,4946,1,8,1:0:0:0:
64,192,4946,1,0,0:0:0:0:
320,192,5037,1,0,0:0:0:0:
448,192,5128,1,0,0:0:0:0:
192,192,5219,1,0,0:0:0:0:
320,192,5310,1,0,0:0:0:0:
448,192,5401,1,0,0:0:0:0:
64,192,5492,1,8,1:0:0:0:
192,192,5583,1,0,0:0:0:0:
448,192,5673,1,0,0:0:0:0:
64,192,5764,1,0,0:0:0:0:
192,192,5855,1,0,0:0:0:0:
320,192,5946,1,0,0:0:0:0:
448,192,6037,1,8,1:0:0:0:
320,192,6128,1,0,0:0:0:0:
192,192,6219,1,0,0:0:0:0:
448,192,6310,1,0,0:0:0:0:
320,192,6401,1,0,0:0:0:0:
192,192,6492,1,0,0:0:0:0:
320,192,6583,1,8,1:0:0:0:
192,192,6673,1,0,0:0:0:0:
64,192,6764,1,0,0:0:0:0:
448,192,6855,1,0,0:0:0:0:
320,192,6946,1,0,0:0:0:0:
192,192,7037,1,0,0:0:0:0:
64,192,7128,1,8,1:0:0:0:
320,192,7219,1,0,0:0:0:0:
448,192,7310,1,0,0:0:0:0:
320,192,7401,1,0,0:0:0:0:
192,192,7492,1,0,0:0:0:0:
64,192,7583,1,0,0:0:0:0:
192,192,7673,1,8,1:0:0:0:
320,192,7764,1,0,0:0:0:0:
448,192,7855,1,0,0:0:0:0:
192,192,7946,1,0,0:0:0:0:
320,192,8037,1,0,0:0:0:0:
448,192,8128,1,0,0:0:0:0:
192,192,8219,1,8,1:0:0:0:
320,192,8310,1,0,0:0:0:0:
192,192,8401,1,0,0:0:0:0:
64,192,8492,1,0,0:0:0:0:
192,192,8583,1,0,0:0:0:0:
320,192,8673,1,0,0:0:0:0:
448,192,8764,1,8,1:0:0:0:
320,192,8855,1,0,0:0:0:0:
192,192,8946,1,0,0:0:0:0:
64,192,9037,1,0,0:0:0:0:
192,192,9128,1,0,0:0:0:0:
320,192,9219,1,0,0:0:0:0:
64,192,9310,1,0,0:0:0:0:
448,192,9310,1,0,0:0:0:0:
192,192,9401,1,0,0:0:0:0:
448,192,9492,1,0,0:0:0:0:
192,192,9583,1,0,0:0:0:0:
320,192,9673,1,0,0:0:0:0:
448,192,9764,1,0,0:0:0:0:
192,192,9855,128,2,10128:1:0:0:0:
64,192,9855,128,2,10128:1:0:0:0:
320,192,10128,1,0,0:0:0:0:
448,192,10219,1,0,0:0:0:0:
320,192,10310,1,0,0:0:0:0:
192,192,10401,1,0,0:0:0:0:
64,192,10492,1,0,0:0:0:0:
192,192,10583,1,0,0:0:0:0:
320,192,10673,128,2,10946:1:0:0:0:
448,192,10673,128,2,10946:1:0:0:0:
64,192,10946,1,0,0:0:0:0:
192,192,11037,1,0,0:0:0:0:
64,192,11128,1,0,0:0:0:0:
192,192,11219,1,0,0:0:0:0:
320,192,11310,1,0,0:0:0:0:
448,192,11401,1,0,0:0:0:0:
320,192,11492,1,0,0:0:0:0:
192,192,11583,1,0,0:0:0:0:
320,192,11673,1,0,0:0:0:0:
64,192,11764,1,4,3:0:0:0:
192,192,11764,1,4,3:0:0:0:
448,192,11855,1,0,3:0:0:0:
64,192,11946,1,4,3:0:0:0:
448,192,12037,1,0,3:0:0:0:
64,192,12128,1,4,3:0:0:0:
448,192,12219,1,0,3:0:0:0:
64,192,12310,1,4,3:0:0:0:
192,192,12446,1,8,1:0:0:0:
320,192,12446,1,8,1:0:0:0:
64,192,13401,1,0,0:0:0:0:
448,192,13401,1,0,0:0:0:0:
192,192,13810,1,0,0:0:0:0:
320,192,14083,1,0,0:0:0:0:
448,192,14219,1,0,0:0:0:0:
320,192,14355,1,0,0:0:0:0:
64,192,14355,1,0,0:0:0:0:
192,192,14628,1,0,0:0:0:0:
448,192,14764,1,0,0:0:0:0:
64,192,14901,1,0,0:0:0:0:
320,192,14901,1,0,0:0:0:0:
192,192,15173,1,0,0:0:0:0:
64,192,15310,1,0,0:0:0:0:
448,192,15310,1,0,0:0:0:0:
320,192,15719,1,0,0:0:0:0:
192,192,15992,1,0,0:0:0:0:
320,192,16128,1,0,0:0:0:0:
448,192,16264,1,0,0:0:0:0:
192,192,16264,1,0,0:0:0:0:
320,192,16537,1,0,0:0:0:0:
192,192,16673,1,0,0:0:0:0:
64,192,16810,1,0,0:0:0:0:
320,192,16946,1,8,0:0:0:0:
192,192,16946,1,0,0:0:0:0:
192,192,17083,1,0,0:0:0:0:
320,192,17083,1,8,0:0:0:0:
448,192,17219,1,0,0:0:0:0:
64,192,17219,1,0,0:0:0:0:
320,192,17628,1,0,0:0:0:0:
64,192,17628,1,0,0:0:0:0:
192,192,17901,1,0,0:0:0:0:
64,192,18037,1,0,0:0:0:0:
320,192,18173,1,0,0:0:0:0:
192,192,18173,1,0,0:0:0:0:
448,192,18446,1,0,0:0:0:0:
192,192,18583,1,0,0:0:0:0:
320,192,18719,1,0,0:0:0:0:
448,192,18719,1,0,0:0:0:0:
192,192,18992,1,0,0:0:0:0:
448,192,19128,1,0,0:0:0:0:
320,192,19128,1,0,0:0:0:0:
448,192,19264,1,0,0:0:0:0:
320,192,19264,1,0,0:0:0:0:
64,192,19401,1,0,0:0:0:0:
192,192,19401,1,0,0:0:0:0:
448,192,19673,1,0,0:0:0:0:
192,192,19673,1,0,0:0:0:0:
64,192,19810,1,0,0:0:0:0:
320,192,19810,1,0,0:0:0:0:
192,192,19946,1,0,0:0:0:0:
320,192,20083,1,0,0:0:0:0:
64,192,20083,1,0,0:0:0:0:
192,192,20219,1,0,0:0:0:0:
448,192,20219,1,0,0:0:0:0:
320,192,20355,1,0,0:0:0:0:
448,192,20492,1,0,0:0:0:0:
192,192,20492,1,0,0:0:0:0:
320,192,20628,1,0,0:0:0:0:
64,192,20628,1,0,0:0:0:0:
448,192,20764,1,0,0:0:0:0:
320,192,20901,1,0,0:0:0:0:
192,192,20901,1,0,0:0:0:0:
64,192,21037,1,0,0:0:0:0:
448,192,21037,128,0,21446:0:0:0:0:
320,192,21446,1,0,0:0:0:0:
64,192,21446,128,0,21719:0:0:0:0:
320,192,21719,1,0,0:0:0:0:
192,192,21855,1,0,0:0:0:0:
320,192,21992,1,0,0:0:0:0:
64,192,21992,1,0,0:0:0:0:
192,192,22264,1,0,0:0:0:0:
448,192,22401,1,0,0:0:0:0:
64,192,22537,1,0,0:0:0:0:
192,192,22810,1,0,0:0:0:0:
320,192,22810,1,0,0:0:0:0:
448,192,22946,128,0,23355:0:0:0:0:
64,192,22946,128,0,23355:0:0:0:0:
192,192,23355,1,0,0:0:0:0:
320,192,23492,1,0,0:0:0:0:
192,192,23628,1,0,0:0:0:0:
320,192,23764,1,0,0:0:0:0:
448,192,23901,1,0,0:0:0:0:
192,192,24037,128,0,24173:0:0:0:0:
448,192,24173,128,0,24310:0:0:0:0:
320,192,24310,128,0,24446:0:0:0:0:
192,192,24446,128,0,24583:0:0:0:0:
64,192,24583,128,0,24719:0:0:0:0:
320,192,24719,1,0,0:0:0:0:
192,192,24855,1,0,0:0:0:0:
448,192,24855,128,0,25264:0:0:0:0:
64,192,24855,1,0,0:0:0:0:
192,192,25264,128,0,25537:0:0:0:0:
320,192,25401,1,0,0:0:0:0:
64,192,25537,1,0,0:0:0:0:
448,192,25673,1,0,0:0:0:0:
192,192,25810,1,0,0:0:0:0:
64,192,25810,1,0,0:0:0:0:
320,192,25946,1,0,0:0:0:0:
192,192,26083,1,0,0:0:0:0:
64,192,26219,1,0,0:0:0:0:
320,192,26355,1,0,0:0:0:0:
192,192,26628,1,0,0:0:0:0:
320,192,26628,1,0,0:0:0:0:
64,192,26764,1,8,0:0:0:0:
448,192,26764,1,0,0:0:0:0:
192,192,26901,1,8,0:0:0:0:
320,192,27037,1,8,0:0:0:0:
192,192,27310,1,8,0:0:0:0:
64,192,27310,1,0,0:0:0:0:
320,192,27446,1,8,0:0:0:0:
448,192,27583,1,8,0:0:0:0:
64,192,27719,1,8,0:0:0:0:
320,192,27719,1,0,0:0:0:0:
192,192,27855,1,8,0:0:0:0:
320,192,27992,1,8,0:0:0:0:
192,192,28128,1,8,0:0:0:0:
64,192,28128,1,0,0:0:0:0:
320,192,28264,1,8,0:0:0:0:
448,192,28401,1,8,0:0:0:0:
192,192,28673,1,0,0:0:0:0:
448,192,28673,1,0,0:0:0:0:
448,192,28946,1,0,0:0:0:0:
448,192,29219,1,0,0:0:0:0:
320,192,29492,1,0,0:0:0:0:
448,192,29492,1,0,0:0:0:0:
64,192,29492,128,0,30855:0:0:0:0:
192,192,29764,1,0,0:0:0:0:
448,192,29764,1,0,0:0:0:0:
320,192,30037,1,0,0:0:0:0:
192,192,30310,1,0,0:0:0:0:
320,192,30583,1,0,0:0:0:0:
192,192,30855,1,0,0:0:0:0:
448,192,31128,128,0,31673:0:0:0:0:
64,192,31128,1,0,0:0:0:0:
320,192,31401,1,0,0:0:0:0:
64,192,31673,1,0,0:0:0:0:
192,192,31673,1,0,0:0:0:0:
320,192,31946,1,0,0:0:0:0:
448,192,31946,128,0,32764:0:0:0:0:
64,192,32219,1,0,0:0:0:0:
192,192,32492,1,0,0:0:0:0:
192,192,32764,128,0,33310:0:0:0:0:
64,192,32764,1,0,0:0:0:0:
320,192,33037,1,0,0:0:0:0:
448,192,33310,1,0,0:0:0:0:
64,192,33310,1,0,0:0:0:0:
192,192,33583,1,0,0:0:0:0:
64,192,33583,1,0,0:0:0:0:
320,192,33855,1,0,0:0:0:0:
64,192,33855,1,0,0:0:0:0:
192,192,34128,1,0,0:0:0:0:
320,192,34128,128,0,34946:0:0:0:0:
64,192,34401,1,0,0:0:0:0:
192,192,34401,128,0,34946:0:0:0:0:
448,192,34946,1,0,0:0:0:0:
64,192,34946,128,0,36037:0:0:0:0:
320,192,35219,1,0,0:0:0:0:
192,192,35219,128,0,36037:0:0:0:0:
448,192,35492,1,0,0:0:0:0:
320,192,35764,1,0,0:0:0:0:
448,192,36037,128,0,36310:0:0:0:0:
320,192,36037,1,0,0:0:0:0:
192,192,36310,1,0,0:0:0:0:
320,192,36310,128,0,36583:0:0:0:0:
64,192,36583,128,0,36855:0:0:0:0:
192,192,36855,1,0,0:0:0:0:
448,192,36855,128,0,38219:0:0:0:0:
320,192,36855,1,0,0:0:0:0:
320,192,37673,1,0,0:0:0:0:
192,192,37946,1,0,0:0:0:0:
64,192,38219,1,0,0:0:0:0:
192,192,38492,128,0,39855:0:0:0:0:
320,192,38492,128,0,39310:0:0:0:0:
448,192,38492,1,0,0:0:0:0:
64,192,39310,1,0,0:0:0:0:
448,192,39310,128,0,39583:0:0:0:0:
64,192,39583,128,0,39855:0:0:0:0:
320,192,39583,1,0,0:0:0:0:
448,192,39855,1,0,0:0:0:0:
64,192,40128,1,0,0:0:0:0:
448,192,40128,1,0,0:0:0:0:
192,192,40401,1,0,0:0:0:0:
320,192,40401,1,0,0:0:0:0:
64,192,40673,1,0,0:0:0:0:
448,192,40673,1,0,0:0:0:0:
192,192,40946,128,0,41492:0:0:0:0:
320,192,40946,128,0,41492:0:0:0:0:
64,192,41492,1,0,0:0:0:0:
448,192,41492,1,0,0:0:0:0:
64,192,41764,1,0,0:0:0:0:
192,192,41764,128,0,42310:0:0:0:0:
448,192,41764,128,0,42310:0:0:0:0:
320,192,42583,1,0,0:0:0:0:
64,192,42583,1,0,0:0:0:0:
448,192,42583,128,0,43128:0:0:0:0:
64,192,42855,1,0,0:0:0:0:
320,192,42855,1,0,0:0:0:0:
192,192,42855,1,0,0:0:0:0:
64,192,43128,1,0,0:0:0:0:
320,192,43128,1,0,0:0:0:0:
192,192,43128,1,0,0:0:0:0:
64,192,43401,128,0,43946:0:0:0:0:
320,192,43401,128,0,43946:0:0:0:0:
192,192,43401,1,0,0:0:0:0:
192,192,43946,1,0,0:0:0:0:
448,192,43946,1,0,0:0:0:0:
64,192,44219,1,0,0:0:0:0:
320,192,44219,1,0,0:0:0:0:
192,192,44492,128,0,45310:0:0:0:0:
448,192,44492,128,0,45310:0:0:0:0:
64,192,45310,1,0,0:0:0:0:
320,192,45310,1,0,0:0:0:0:
448,192,45446,1,0,0:0:0:0:
320,192,45583,128,0,45855:0:0:0:0:
192,192,45583,1,0,0:0:0:0:
192,192,45855,1,0,0:0:0:0:
64,192,45855,128,0,46401:0:0:0:0:
192,192,46128,1,0,0:0:0:0:
448,192,46128,1,0,0:0:0:0:
448,192,46401,1,0,0:0:0:0:
320,192,46401,1,0,0:0:0:0:
448,192,46673,1,8,3:0:0:0:
192,192,46673,128,8,47083:3:0:0:0:
64,192,46673,1,8,3:0:0:0:
320,192,47219,128,8,47628:1:0:0:0:
64,192,47219,128,8,47628:3:0:0:0:
448,192,47219,1,8,3:0:0:0:
448,192,47764,128,8,48446:1:0:0:0:
192,192,47764,128,8,48855:1:0:0:0:
64,192,47764,1,8,3:0:0:0:
448,192,48583,1,0,0:0:0:0:
320,192,48583,1,0,0:0:0:0:
64,192,48855,1,0,0:0:0:0:
448,192,48855,1,0,0:0:0:0:
192,192,49128,1,0,0:0:0:0:
320,192,49128,1,0,0:0:0:0:
320,192,49401,1,0,0:0:0:0:
64,192,49401,1,0,0:0:0:0:
448,192,49673,1,0,0:0:0:0:
192,192,49673,1,0,0:0:0:0:
448,192,49946,1,0,0:0:0:0:
64,192,49946,1,0,0:0:0:0:
192,192,50219,1,0,0:0:0:0:
320,192,50219,1,0,0:0:0:0:
64,192,50492,1,0,0:0:0:0:
448,192,50492,1,0,0:0:0:0:
64,192,50764,1,0,0:0:0:0:
320,192,50764,1,0,0:0:0:0:
192,192,51037,128,0,51583:0:0:0:0:
448,192,51037,128,0,51583:0:0:0:0:
64,192,51583,128,0,52537:0:0:0:0:
320,192,51583,1,0,0:0:0:0:
448,192,51855,1,0,0:0:0:0:
320,192,51992,1,0,0:0:0:0:
192,192,52128,1,0,0:0:0:0:
448,192,52128,1,0,0:0:0:0:
448,192,52673,128,0,52946:0:0:0:0:
192,192,52673,1,0,0:0:0:0:
64,192,52673,128,0,52946:0:0:0:0:
320,192,52946,1,0,0:0:0:0:
448,192,53219,128,0,53901:0:0:0:0:
64,192,53219,128,0,53901:0:0:0:0:
320,192,54037,1,0,0:0:0:0:
192,192,54173,1,0,0:0:0:0:
448,192,54310,128,0,54583:0:0:0:0:
64,192,54310,128,0,54583:0:0:0:0:
320,192,54583,1,0,0:0:0:0:
192,192,54583,128,0,55128:0:0:0:0:
448,192,54855,128,0,55128:0:0:0:0:
64,192,55128,1,0,0:0:0:0:
320,192,55128,1,0,0:0:0:0:
64,192,55401,128,0,55946:0:0:0:0:
192,192,55401,1,0,0:0:0:0:
448,192,55401,128,0,55946:0:0:0:0:
320,192,55401,1,0,0:0:0:0:
192,192,55946,128,0,56355:0:0:0:0:
320,192,55946,128,0,56355:0:0:0:0:
192,192,56492,128,0,57242:0:0:0:0:
448,192,56492,128,0,57242:0:0:0:0:
64,192,56492,128,0,57242:0:0:0:0:
448,192,57310,1,0,0:0:0:0:
64,192,57310,1,0,0:0:0:0:
192,192,57310,1,0,0:0:0:0:
320,192,57583,1,0,0:0:0:0:
64,192,57583,128,0,58401:0:0:0:0:
448,192,57583,1,0,0:0:0:0:
192,192,57855,1,0,0:0:0:0:
320,192,57855,1,0,0:0:0:0:
320,192,58128,1,0,0:0:0:0:
448,192,58128,1,0,0:0:0:0:
320,192,58401,1,0,0:0:0:0:
192,192,58401,1,0,0:0:0:0:
192,192,58673,128,0,58946:0:0:0:0:
448,192,58673,128,0,58946:0:0:0:0:
320,192,58946,1,0,0:0:0:0:
64,192,58946,1,0,0:0:0:0:
448,192,59219,1,0,0:0:0:0:
192,192,59219,1,0,0:0:0:0:
64,192,59492,1,0,0:0:0:0:
192,192,59492,1,0,0:0:0:0:
192,192,59764,128,0,60583:0:0:0:0:
448,192,59764,128,0,60583:0:0:0:0:
64,192,60173,128,0,60583:0:0:0:0:
320,192,60583,1,0,0:0:0:0:
192,192,60719,1,0,0:0:0:0:
448,192,60855,1,8,3:0:0:0:
64,192,60855,1,8,3:0:0:0:
192,192,60946,1,0,0:0:0:0:
320,192,61037,1,0,0:0:0:0:
192,192,61128,1,0,0:0:0:0:
64,192,61219,1,0,0:0:0:0:
192,192,61310,1,0,0:0:0:0:
320,192,61401,1,0,0:0:0:0:
448,192,61492,1,0,0:0:0:0:
320,192,61583,1,0,0:0:0:0:
192,192,61673,1,0,0:0:0:0:
64,192,61764,1,0,0:0:0:0:
192,192,61855,1,0,0:0:0:0:
448,192,61946,1,8,3:0:0:0:
320,192,61946,1,8,3:0:0:0:
192,192,62037,1,0,0:0:0:0:
64,192,62128,1,0,0:0:0:0:
320,192,62219,1,0,0:0:0:0:
448,192,62310,1,0,0:0:0:0:
192,192,62401,1,0,0:0:0:0:
320,192,62492,1,0,0:0:0:0:
192,192,62583,1,0,0:0:0:0:
64,192,62673,1,0,0:0:0:0:
448,192,62764,1,0,0:0:0:0:
192,192,62855,1,0,0:0:0:0:
320,192,62946,1,0,0:0:0:0:
64,192,63037,1,8,3:0:0:0:
448,192,63037,1,8,3:0:0:0:
192,192,63128,1,0,0:0:0:0:
320,192,63219,1,0,0:0:0:0:
192,192,63310,1,0,0:0:0:0:
320,192,63401,1,0,0:0:0:0:
448,192,63492,1,0,0:0:0:0:
320,192,63583,1,8,3:0:0:0:
64,192,63583,1,8,3:0:0:0:
192,192,63673,1,0,0:0:0:0:
64,192,63764,1,0,0:0:0:0:
448,192,63855,1,0,0:0:0:0:
320,192,63946,1,0,0:0:0:0:
192,192,64037,1,0,0:0:0:0:
448,192,64128,1,8,3:0:0:0:
64,192,64128,1,8,3:0:0:0:
320,192,64219,1,0,0:0:0:0:
448,192,64310,1,0,0:0:0:0:
64,192,64401,1,0,0:0:0:0:
192,192,64492,1,0,0:0:0:0:
320,192,64583,1,0,0:0:0:0:
448,192,64673,1,8,3:0:0:0:
192,192,64673,1,8,3:0:0:0:
64,192,64764,1,0,0:0:0:0:
192,192,64855,1,0,0:0:0:0:
320,192,64946,1,0,0:0:0:0:
448,192,65037,1,0,0:0:0:0:
320,192,65128,1,0,0:0:0:0:
192,192,65219,128,0,65492:0:0:0:0:
320,192,65492,128,0,65764:0:0:0:0:
64,192,65764,128,0,66719:0:0:0:0:
448,192,65764,128,0,66037:0:0:0:0:
320,192,66037,1,0,0:0:0:0:
448,192,66173,1,0,0:0:0:0:
320,192,66310,1,0,0:0:0:0:
448,192,66583,1,0,0:0:0:0:
320,192,66651,1,0,0:0:0:0:
192,192,66719,128,0,66855:0:0:0:0:
448,192,66855,1,0,0:0:0:0:
64,192,67037,1,0,0:0:0:0:
320,192,67173,1,0,0:0:0:0:
192,192,67310,1,0,0:0:0:0:
448,192,67401,1,8,0:0:0:0:
64,192,67401,128,0,67810:0:0:0:0:
448,192,67537,1,8,0:0:0:0:
448,192,67673,1,8,0:0:0:0:
448,192,67810,1,8,0:0:0:0:
192,192,67946,128,0,68355:0:0:0:0:
320,192,67946,1,8,0:0:0:0:
320,192,68083,1,8,0:0:0:0:
320,192,68219,1,8,0:0:0:0:
320,192,68355,1,8,0:0:0:0:
448,192,68492,1,8,0:0:0:0:
64,192,68492,128,0,68901:0:0:0:0:
448,192,68628,1,8,0:0:0:0:
448,192,68764,1,8,0:0:0:0:
448,192,68901,1,8,0:0:0:0:
320,192,69037,1,8,0:0:0:0:
192,192,69037,128,0,69583:0:0:0:0:
320,192,69173,1,8,0:0:0:0:
320,192,69310,128,8,69583:0:0:0:0:
64,192,69583,1,0,0:0:0:0:
448,192,69673,1,0,0:0:0:0:
320,192,69764,1,0,0:0:0:0:
192,192,69855,1,0,0:0:0:0:
320,192,69946,1,0,0:0:0:0:
192,192,70037,1,0,0:0:0:0:
64,192,70128,1,0,0:0:0:0:
192,192,70219,1,0,0:0:0:0:
320,192,70310,1,0,0:0:0:0:
448,192,70401,1,0,0:0:0:0:
320,192,70492,1,0,0:0:0:0:
192,192,70583,1,0,0:0:0:0:
64,192,70673,1,0,0:0:0:0:
448,192,70673,1,0,0:0:0:0:
320,192,70764,1,0,0:0:0:0:
192,192,70855,1,0,0:0:0:0:
448,192,70946,1,0,0:0:0:0:
64,192,70946,1,0,0:0:0:0:
192,192,71037,1,0,0:0:0:0:
320,192,71128,1,0,0:0:0:0:
192,192,71219,1,0,0:0:0:0:
320,192,71310,1,0,0:0:0:0:
192,192,71401,1,0,0:0:0:0:
448,192,71492,1,0,0:0:0:0:
64,192,71492,1,0,0:0:0:0:
192,192,71583,1,0,0:0:0:0:
320,192,71673,1,0,0:0:0:0:
448,192,71764,1,8,3:0:0:0:
64,192,71764,1,8,3:0:0:0:
192,192,71833,1,0,0:0:0:0:
320,192,71901,1,0,0:0:0:0:
64,192,71969,1,0,0:0:0:0:
448,192,72037,1,0,0:0:0:0:
192,192,72105,1,0,0:0:0:0:
320,192,72173,1,0,0:0:0:0:
64,192,72242,1,0,0:0:0:0:
192,192,72310,1,8,3:0:0:0:
448,192,72310,1,8,3:0:0:0:
320,192,72378,1,0,0:0:0:0:
448,192,72446,1,0,0:0:0:0:
320,192,72514,1,0,0:0:0:0:
192,192,72583,1,0,0:0:0:0:
64,192,72651,1,0,0:0:0:0:
192,192,72719,1,0,0:0:0:0:
320,192,72787,1,0,0:0:0:0:
448,192,72855,1,0,3:0:0:0:
192,192,72855,1,0,0:0:0:0:
64,192,72923,1,4,3:0:0:0:
448,192,72992,1,0,3:0:0:0:
64,192,73060,1,4,3:0:0:0:
448,192,73128,1,0,3:0:0:0:
64,192,73196,1,4,3:0:0:0:
448,192,73264,1,0,3:0:0:0:
64,192,73333,1,4,3:0:0:0:
320,192,73401,128,2,73946:1:0:0:0:
192,192,73401,1,2,1:0:0:0:
64,192,73946,128,0,74492:0:0:0:0:
448,192,73946,1,0,0:0:0:0:
320,192,74219,1,0,0:0:0:0:
192,192,74492,128,0,75037:0:0:0:0:
448,192,74764,1,0,0:0:0:0:
448,192,75037,1,0,0:0:0:0:
320,192,75037,1,0,0:0:0:0:
320,192,75310,1,0,0:0:0:0:
192,192,75310,1,0,0:0:0:0:
448,192,75446,1,0,0:0:0:0:
64,192,75446,1,0,0:0:0:0:
448,192,75583,128,0,75787:0:0:0:0:
320,192,75787,128,0,75992:0:0:0:0:
192,192,75992,1,0,0:0:0:0:
64,192,76128,1,8,3:0:0:0:
448,192,76128,1,8,3:0:0:0:
192,192,76196,1,0,0:0:0:0:
320,192,76264,1,0,0:0:0:0:
448,192,76333,1,0,0:0:0:0:
320,192,76401,1,0,0:0:0:0:
192,192,76469,1,0,0:0:0:0:
320,192,76537,1,0,0:0:0:0:
448,192,76605,1,0,0:0:0:0:
64,192,76673,1,8,3:0:0:0:
192,192,76673,1,8,3:0:0:0:
320,192,76742,1,0,0:0:0:0:
64,192,76810,1,0,0:0:0:0:
192,192,76878,1,0,0:0:0:0:
320,192,76946,1,0,0:0:0:0:
448,192,77014,1,0,0:0:0:0:
320,192,77083,1,0,0:0:0:0:
192,192,77151,1,0,0:0:0:0:
64,192,77219,1,8,3:0:0:0:
448,192,77219,1,8,3:0:0:0:
192,192,77287,1,0,0:0:0:0:
320,192,77355,1,0,0:0:0:0:
448,192,77423,1,0,0:0:0:0:
320,192,77492,1,0,0:0:0:0:
192,192,77560,1,0,0:0:0:0:
448,192,77628,1,0,0:0:0:0:
64,192,77696,1,0,0:0:0:0:
192,192,77764,1,8,3:0:0:0:
320,192,77764,1,8,3:0:0:0:
448,192,77833,1,0,0:0:0:0:
320,192,77901,1,0,0:0:0:0:
192,192,77969,1,0,0:0:0:0:
320,192,78037,1,0,0:0:0:0:
192,192,78105,1,0,0:0:0:0:
64,192,78173,1,0,0:0:0:0:
192,192,78242,1,0,0:0:0:0:
320,192,78310,1,8,3:0:0:0:
448,192,78310,128,8,79128:3:0:0:0:
64,192,79128,1,0,0:0:0:0:
192,192,79401,1,0,0:0:0:0:
320,192,79673,1,0,0:0:0:0:
64,192,79946,1,0,0:0:0:0:
320,192,79946,1,0,0:0:0:0:
192,192,80219,1,0,0:0:0:0:
448,192,80219,1,0,0:0:0:0:
64,192,80492,128,0,81583:0:0:0:0:
448,192,80492,128,0,81583:0:0:0:0:
192,192,80492,1,0,0:0:0:0:
320,192,82673,1,0,0:0:0:0:
192,192,82708,1,0,0:0:0:0:
64,192,82742,1,0,0:0:0:0:
448,192,83764,1,0,0:0:0:0:
64,192,83764,1,0,0:0:0:0:
448,192,84310,1,0,0:0:0:0:
64,192,84310,1,0,0:0:0:0:
320,192,84492,1,0,0:0:0:0:
64,192,84583,1,0,0:0:0:0:
320,192,84673,1,0,0:0:0:0:
64,192,84764,1,0,0:0:0:0:
192,192,84855,5,2,1:0:0:0:
320,192,84946,1,0,0:0:0:0:
448,192,85037,1,0,0:0:0:0:
64,192,85128,1,0,0:0:0:0:
192,192,85219,1,0,0:0:0:0:
320,192,85310,1,0,0:0:0:0:
192,192,85401,1,0,0:0:0:0:
320,192,85492,1,0,0:0:0:0:
448,192,85583,1,0,0:0:0:0:
192,192,85673,1,0,0:0:0:0:
320,192,85764,1,0,0:0:0:0:
448,192,85855,1,0,0:0:0:0:
64,192,85946,1,0,0:0:0:0:
192,192,86037,1,0,0:0:0:0:
320,192,86128,1,0,0:0:0:0:
64,192,86219,1,0,0:0:0:0:
192,192,86310,1,0,0:0:0:0:
320,192,86401,1,0,0:0:0:0:
192,192,86492,1,0,0:0:0:0:
320,192,86583,1,0,0:0:0:0:
448,192,86673,1,0,0:0:0:0:
192,192,86764,1,0,0:0:0:0:
320,192,86855,1,0,0:0:0:0:
448,192,86946,1,0,0:0:0:0:
192,192,87037,1,0,0:0:0:0:
64,192,87037,1,2,1:0:0:0:
320,192,87128,1,0,0:0:0:0:
448,192,87219,1,0,0:0:0:0:
192,192,87310,1,0,0:0:0:0:
320,192,87401,1,0,0:0:0:0:
448,192,87492,1,0,0:0:0:0:
64,192,87583,1,0,0:0:0:0:
192,192,87673,1,0,0:0:0:0:
320,192,87764,1,0,0:0:0:0:
448,192,87855,1,0,0:0:0:0:
320,192,87946,1,0,0:0:0:0:
192,192,88037,1,0,0:0:0:0:
448,192,88128,1,2,1:0:0:0:
64,192,88128,1,2,1:0:0:0:
192,192,88219,1,0,0:0:0:0:
320,192,88310,1,0,0:0:0:0:
64,192,88401,1,0,0:0:0:0:
448,192,88401,1,0,0:0:0:0:
192,192,88492,1,0,0:0:0:0:
320,192,88583,1,0,0:0:0:0:
448,192,88673,1,2,1:0:0:0:
64,192,88673,1,2,1:0:0:0:
192,192,88764,1,0,0:0:0:0:
320,192,88855,1,0,0:0:0:0:
192,192,88946,1,0,0:0:0:0:
320,192,89037,1,0,0:0:0:0:
448,192,89128,1,0,0:0:0:0:
64,192,89219,1,8,1:0:0:0:
320,192,89219,1,0,0:0:0:0:
192,192,89310,1,0,0:0:0:0:
448,192,89401,1,0,0:0:0:0:
320,192,89492,1,0,0:0:0:0:
192,192,89583,1,0,0:0:0:0:
448,192,89673,1,0,0:0:0:0:
64,192,89764,1,8,1:0:0:0:
320,192,89764,1,0,0:0:0:0:
192,192,89855,1,0,0:0:0:0:
320,192,89946,1,0,0:0:0:0:
64,192,90037,1,0,0:0:0:0:
192,192,90128,1,0,0:0:0:0:
320,192,90219,1,0,0:0:0:0:
64,192,90310,1,8,1:0:0:0:
448,192,90310,1,0,0:0:0:0:
320,192,90401,1,0,0:0:0:0:
192,192,90492,1,0,0:0:0:0:
448,192,90583,1,0,0:0:0:0:
320,192,90673,1,0,0:0:0:0:
192,192,90764,1,0,0:0:0:0:
448,192,90855,1,8,1:0:0:0:
64,192,90855,1,0,0:0:0:0:
320,192,90946,1,0,0:0:0:0:
192,192,91037,1,0,0:0:0:0:
64,192,91128,1,0,0:0:0:0:
192,192,91219,1,0,0:0:0:0:
320,192,91310,1,0,0:0:0:0:
192,192,91401,1,8,1:0:0:0:
64,192,91401,1,0,0:0:0:0:
320,192,91492,1,0,0:0:0:0:
448,192,91583,1,0,0:0:0:0:
320,192,91673,1,0,0:0:0:0:
192,192,91764,1,0,0:0:0:0:
64,192,91855,1,0,0:0:0:0:
192,192,91946,1,8,1:0:0:0:
448,192,91946,1,0,0:0:0:0:
320,192,92037,1,0,0:0:0:0:
448,192,92134,1,0,0:0:0:0:
64,192,92219,1,0,0:0:0:0:
192,192,92310,1,0,0:0:0:0:
320,192,92401,1,0,0:0:0:0:
448,192,92492,1,0,0:0:0:0:
64,192,92492,1,8,1:0:0:0:
320,192,92583,1,0,0:0:0:0:
192,192,92673,1,0,0:0:0:0:
64,192,92764,1,0,0:0:0:0:
192,192,92855,1,0,0:0:0:0:
320,192,92946,1,0,0:0:0:0:
192,192,93037,1,0,0:0:0:0:
448,192,93037,1,8,1:0:0:0:
320,192,93128,1,0,0:0:0:0:
192,192,93219,1,0,0:0:0:0:
64,192,93310,1,0,0:0:0:0:
192,192,93401,1,0,0:0:0:0:
320,192,93492,1,0,0:0:0:0:
64,192,93583,1,0,0:0:0:0:
448,192,93583,1,0,0:0:0:0:
192,192,93673,1,0,0:0:0:0:
320,192,93764,1,0,0:0:0:0:
448,192,93855,1,0,0:0:0:0:
320,192,93946,1,0,0:0:0:0:
192,192,94037,1,0,0:0:0:0:
64,192,94128,128,2,94401:1:0:0:0:
320,192,94128,128,2,94401:1:0:0:0:
448,192,94401,1,0,0:0:0:0:
320,192,94492,1,0,0:0:0:0:
192,192,94583,1,0,0:0:0:0:
64,192,94673,1,0,0:0:0:0:
192,192,94764,1,0,0:0:0:0:
320,192,94855,1,0,0:0:0:0:
192,192,94946,128,2,95219:1:0:0:0:
448,192,94946,128,2,95219:1:0:0:0:
320,192,95219,1,0,0:0:0:0:
192,192,95310,1,0,0:0:0:0:
64,192,95401,1,0,0:0:0:0:
192,192,95492,1,0,0:0:0:0:
320,192,95583,1,0,0:0:0:0:
192,192,95673,1,0,0:0:0:0:
64,192,95764,1,0,0:0:0:0:
192,192,95855,1,0,0:0:0:0:
448,192,95946,1,0,3:0:0:0:
320,192,96037,1,4,3:0:0:0:
448,192,96128,1,0,3:0:0:0:
320,192,96219,1,4,3:0:0:0:
448,192,96310,1,0,3:0:0:0:
320,192,96401,1,4,3:0:0:0:
448,192,96492,1,0,3:0:0:0:
320,192,96583,1,4,3:0:0:0:
192,192,96719,1,8,1:0:0:0:
64,192,96719,1,8,1:0:0:0:
448,192,97946,1,4,0:0:0:0:
192,192,97946,1,4,0:0:0:0:
