osu file format v13

[General]
AudioFilename: 01. Land of Snow.mp3
AudioLeadIn: 79
PreviewTime: 30793
Countdown: 0
SampleSet: Soft
StackLeniency: 0.4
Mode: 0
LetterboxInBreaks: 0
WidescreenStoryboard: 0

[Editor]
DistanceSpacing: 1
BeatDivisor: 4
GridSize: 4
TimelineZoom: 1

[Metadata]
Title:Land of Snow
TitleUnicode:Land of Snow
Artist:katsu
ArtistUnicode:katsu
Creator:Kyubey
Version:Hard
Source:
Tags:touhou seiga kaku desire drive DiGiTAL WiNG Frozen Traveler
BeatmapID:480365
BeatmapSetID:203194

[Difficulty]
HPDrainRate:6
CircleSize:4
OverallDifficulty:6
ApproachRate:7.5
SliderMultiplier:1.6
SliderTickRate:1

[Events]
//Background and Video events
0,0,"123.jpg",0,0
//Break Periods
//Storyboard Layer 0 (Background)
//Storyboard Layer 1 (Fail)
//Storyboard Layer 2 (Pass)
//Storyboard Layer 3 (Foreground)
//Storyboard Sound Samples
//Background Colour Transformations
3,100,163,162,255

[TimingPoints]
1921,451.127819548872,4,2,1,25,1,0
1921,-133.333333333333,4,2,1,25,0,0
16357,-100,4,2,1,40,0,0
19966,-100,4,2,1,47,0,0
23575,-100,4,2,1,54,0,0
27184,-100,4,2,1,61,0,0
30793,-100,4,2,1,70,0,1
30905,-100,4,2,1,70,0,0
59665,-100,4,2,2,70,0,0
59778,-100,4,2,1,50,0,0
60116,-100,4,2,1,40,0,0
60567,-100,4,2,1,30,0,0
61018,-100,4,2,1,25,0,0
61469,-100,4,2,1,20,0,0
61920,-100,4,2,1,15,0,0
62372,-100,4,2,1,10,0,0
62823,-100,4,2,1,5,0,0

[Colours]
Combo1 : 199,241,218
Combo2 : 0,215,215
Combo3 : 173,218,214
Combo4 : 146,150,237

[HitObjects]
312,296,1921,6,0,P|332:268|340:224,1,60.0000022888184,2|0,0:0|0:0,0:0:0:0:
264,176,2372,2,0,P|261:207|264:240,1,60.0000022888184
340,160,2823,1,0,0:0:0:0:
288,100,3048,1,0,0:0:0:0:
356,60,3274,2,0,P|364:36|368:-4,1,60.0000022888184
232,40,3725,6,0,P|216:64|208:100,1,60.0000022888184,2|0,0:0|0:0,0:0:0:0:
244,167,4176,1,0,0:0:0:0:
130,108,4402,1,0,0:0:0:0:
288,100,4627,2,0,P|324:88|360:72,1,60.0000022888184
336,160,5078,1,0,0:0:0:0:
328,236,5304,1,2,0:0:0:0:
330,247,5417,1,2,0:0:0:0:
333,258,5530,6,0,P|344:284|364:316,1,60.0000022888184,2|0,0:0|0:0,0:0:0:0:
448,328,5981,1,0,0:0:0:0:
360,311,6206,1,0,0:0:0:0:
272,328,6432,2,0,P|236:332|192:352,1,60.0000022888184
132,376,6883,1,0,0:0:0:0:
84,280,7108,1,2,0:0:0:0:
80,268,7221,1,2,0:0:0:0:
76,256,7334,5,2,0:0:0:0:
184,272,7560,1,0,0:0:0:0:
172,172,7785,1,0,0:0:0:0:
256,116,8011,1,0,0:0:0:0:
318,197,8236,2,0,P|292:212|263:219,1,60.0000022888184,2|0,0:0|0:0,0:0:0:0:
340,120,8687,1,0,0:0:0:0:
396,180,8913,1,2,0:0:0:0:
399,194,9026,1,2,0:0:0:0:
397,209,9139,6,0,P|384:244|351:271,1,60.0000022888184,2|0,0:0|0:0,0:0:0:0:
321,328,9590,2,0,P|354:340|399:338,1,60.0000022888184
368,260,10041,1,0,0:0:0:0:
335,186,10266,1,0,0:0:0:0:
273,133,10492,2,0,P|236:129|185:133,1,60.0000022888184
335,186,10943,6,0,P|349:157|353:115,1,60.0000022888184,2|0,0:0|0:0,0:0:0:0:
268,311,11394,1,0,0:0:0:0:
410,309,11620,1,0,0:0:0:0:
263,229,11845,2,0,P|233:237|202:260,1,60.0000022888184
336,268,12296,1,0,0:0:0:0:
336,188,12522,1,0,0:0:0:0:
380,71,12748,6,0,P|381:100|394:146,1,60.0000022888184,2|0,0:0|0:0,0:0:0:0:
336,188,13199,2,0,P|306:178|254:176,1,60.0000022888184
289,268,13650,1,0,0:0:0:0:
336,188,13875,1,0,0:0:0:0:
308,100,14101,1,0,0:0:0:0:
355,20,14326,1,0,0:0:0:0:
402,101,14552,6,0,L|417:159,1,60.0000022888184,2|0,0:0|0:0,0:0:0:0:
456,260,15003,1,0,0:0:0:0:
348,240,15229,1,0,0:0:0:0:
312,140,15454,1,0,0:0:0:0:
380,56,15680,1,0,0:0:0:0:
264,84,15905,2,0,P|234:91|194:96,1,60.0000022888184,0|2,0:0|0:0,0:0:0:0:
192,94,16244,1,2,0:0:0:0:
181,88,16357,6,0,P|178:137|194:197,1,80,2|0,1:0|0:0,0:0:0:0:
222,257,16808,1,0,0:0:0:0:
276,178,17033,1,0,0:0:0:0:
314,266,17259,2,0,P|316:306|330:357,1,80
353,178,17710,2,0,P|314:169|276:177,1,80,0|0,1:0|0:0,0:0:0:0:
222,257,18161,6,0,L|196:158,1,80,2|0,0:0|1:0,0:0:0:0:
120,248,18612,1,0,0:0:0:0:
304,192,18838,1,0,0:0:0:0:
240,344,19063,2,0,P|203:342|145:302,1,80,2|0,1:0|0:0,0:0:0:0:
304,285,19514,2,0,P|323:322|323:369,1,80,0|0,1:0|0:0,0:0:0:0:
386,240,19966,6,0,L|396:148,1,80,2|0,1:0|0:0,0:0:0:0:
304,285,20417,1,0,0:0:0:0:
386,240,20642,1,0,0:0:0:0:
270,203,20868,2,0,P|237:226|216:271,1,80,2|0,0:0|0:0,0:0:0:0:
190,338,21319,1,0,1:0:0:0:
136,226,21545,1,2,0:0:0:0:
130,207,21657,1,2,0:0:0:0:
124,187,21770,5,2,0:0:0:0:
219,260,21996,1,0,1:0:0:0:
108,306,22221,1,0,0:0:0:0:
124,187,22447,1,0,0:0:0:0:
243,181,22672,2,0,P|278:202|300:250,1,80,2|0,1:0|0:0,0:0:0:0:
348,165,23124,2,0,L|361:77,1,80,2|0,1:0|0:0,0:0:0:0:
423,187,23575,6,0,P|413:210|398:227,2,40,2|2|2,1:0|0:0|0:0,0:0:0:0:
331,242,24026,2,0,P|328:281|335:326,1,80
251,202,24477,1,2,0:0:0:0:
323,151,24702,1,0,0:0:0:0:
331,242,24928,2,0,P|299:278|247:291,1,80,0|0,1:0|0:0,0:0:0:0:
405,189,25379,6,0,L|488:185,1,80,2|0,0:0|1:0,0:0:0:0:
449,108,25830,1,0,0:0:0:0:
456,267,26056,1,0,0:0:0:0:
318,191,26281,2,0,P|276:195|214:214,1,80,0|0,1:0|0:0,0:0:0:0:
158,203,26733,2,0,P|174:166|182:107,1,80,0|0,1:0|0:0,0:0:0:0:
191,278,27184,6,0,L|178:366,1,80,2|0,1:0|0:0,0:0:0:0:
158,203,27635,1,0,0:0:0:0:
271,282,27860,1,0,0:0:0:0:
283,146,28086,2,0,P|293:107|309:71,1,80,2|0,0:0|0:0,0:0:0:0:
129,128,28537,2,0,P|147:164|158:203,1,80,0|0,1:0|0:0,0:0:0:0:
346,290,28988,5,2,1:0:0:0:
283,146,29439,1,2,0:0:0:0:
188,274,29890,1,2,0:0:0:0:
271,235,30342,5,2,0:0:0:0:
273,227,30454,1,2,0:0:0:0:
275,219,30567,1,2,0:0:0:0:
276,211,30680,1,2,0:0:0:0:
277,203,30793,6,0,P|278:128|273:44,1,160,6|2,1:0|0:0,0:0:0:0:
355,364,31695,1,2,0:0:0:0:
484,324,31920,1,0,0:0:0:0:
385,229,32146,1,2,1:2:0:0:
201,156,32597,5,2,1:2:0:0:
201,14,32823,1,0,1:0:0:0:
286,130,33048,1,2,0:0:0:0:
150,86,33274,1,0,0:0:0:0:
286,43,33500,1,2,1:2:0:0:
201,156,33725,2,0,L|178:202,1,40
209,234,33951,2,0,P|211:194|201:155,1,80,2|0,1:2|1:0,0:0:0:0:
300,265,34402,6,0,P|302:170|271:86,1,160,2|2,1:2|0:2,0:0:0:0:
305,283,35304,1,2,0:0:0:0:
395,316,35530,1,0,1:0:0:0:
484,349,35755,1,2,1:2:0:0:
419,115,36206,5,2,1:2:0:0:
331,154,36432,1,0,1:0:0:0:
243,193,36657,1,2,0:2:0:0:
155,233,36883,1,0,0:0:0:0:
242,272,37108,2,0,P|247:232|243:193,1,80,2|0,1:2|1:0,0:0:0:0:
166,326,37560,1,2,1:2:0:0:
166,326,38011,6,0,P|172:239|177:137,1,160,6|2,1:0|0:2,0:0:0:0:
417,254,38913,1,2,0:0:0:0:
474,131,39139,1,0,0:0:0:0:
339,142,39364,1,2,1:0:0:0:
158,190,39815,5,2,1:2:0:0:
74,209,40041,1,0,1:0:0:0:
65,296,40266,1,2,0:0:0:0:
145,332,40492,1,0,0:0:0:0:
203,267,40717,1,2,1:2:0:0:
247,188,40943,2,0,P|241:168|239:146,1,40
292,267,41169,2,0,P|304:303|314:357,1,80,2|0,1:0|1:0,0:0:0:0:
385,284,41620,6,0,P|394:199|395:114,1,160,2|2,1:0|0:0,0:0:0:0:
293,330,42522,1,2,0:0:0:0:
380,300,42748,1,0,0:0:0:0:
467,271,42973,1,2,1:0:0:0:
184,134,43424,5,2,1:0:0:0:
249,63,43650,1,0,1:0:0:0:
155,45,43876,1,2,0:0:0:0:
92,119,44101,1,0,0:0:0:0:
92,119,44214,1,0,0:0:0:0:
92,119,44327,1,2,1:0:0:0:
125,210,44552,1,0,1:0:0:0:
220,226,44778,1,2,1:0:0:0:
281,153,45003,1,0,1:0:0:0:
249,63,45229,6,0,P|250:137|261:236,1,160,6|2,1:0|0:0,0:0:0:0:
152,80,46131,1,2,0:0:0:0:
24,140,46357,1,0,0:0:0:0:
164,167,46582,1,2,1:0:0:0:
359,248,47033,5,2,1:2:0:0:
487,308,47259,1,0,1:0:0:0:
347,335,47484,1,2,0:0:0:0:
444,231,47710,1,0,0:0:0:0:
426,372,47936,1,2,1:2:0:0:
359,248,48161,2,0,L|330:205,1,40
297,201,48387,2,0,P|322:232|359:248,1,80,2|0,1:0|1:0,0:0:0:0:
332,121,48838,6,0,P|265:120|212:208,1,160,2|2,1:0|0:0,0:0:0:0:
221,204,49740,1,2,0:0:0:0:
332,121,49966,1,0,1:0:0:0:
205,66,50191,1,2,1:0:0:0:
325,235,50642,5,2,1:0:0:0:
332,121,50868,1,0,1:0:0:0:
232,170,51093,1,2,0:0:0:0:
225,281,51319,1,0,0:0:0:0:
132,217,51545,2,0,P|125:175|132:116,1,80,2|0,1:0|1:0,0:0:0:0:
122,328,51996,1,2,1:0:0:0:
122,328,52447,6,0,P|192:317|310:311,1,160,6|2,1:0|0:0,0:0:0:0:
57,121,53349,1,2,0:0:0:0:
37,223,53575,1,0,0:0:0:0:
18,325,53800,1,2,1:0:0:0:
412,197,54251,5,2,1:0:0:0:
427,118,54476,1,0,1:0:0:0:
365,66,54702,1,2,0:0:0:0:
290,93,54928,1,0,0:0:0:0:
275,172,55153,1,2,1:0:0:0:
337,224,55379,2,0,P|327:248|327:277,1,40
352,145,55605,2,0,P|356:98|354:50,1,80,2|0,1:0|1:0,0:0:0:0:
427,118,56056,6,0,P|424:198|428:289,1,160,2|2,1:0|0:0,0:0:0:0:
270,292,56958,1,2,0:0:0:0:
174,249,57184,1,0,0:0:0:0:
189,351,57409,1,2,1:0:0:0:
18,122,57860,5,2,1:2:0:0:
29,19,58086,1,0,1:0:0:0:
112,80,58311,1,2,0:0:0:0:
99,182,58537,1,0,0:0:0:0:
77,284,58763,2,0,P|116:284|154:270,1,80,2|0,1:0|1:0,0:0:0:0:
204,187,59214,2,0,L|184:345,1,160,6|0,1:0|0:0,0:0:0:0:
256,192,59778,12,0,63161,3:0:0:0:
