osu file format v5

[General]
AudioFilename: oblivious.MP3
AudioLeadIn: 0
PreviewTime: -1
Countdown: 1
SampleSet: Normal

[Metadata]
Title:TAGoblivious
Artist:kara no kyoukai
Creator:sjyt3996
Version:Easy

[Difficulty]
HPDrainRate:5
CircleSize:5
OverallDifficulty:5
SliderMultiplier:1.4
SliderTickRate:1

[Events]
//Background and Video events
0,0,"021.JPG"
//Break Periods
2,123439,136440
2,177200,203640
//Storyboard Layer 0 (Background)
//Storyboard Layer 1 (Failing)
//Storyboard Layer 2 (Passing)
//Storyboard Layer 3 (Foreground)
//Storyboard Sound Samples
//Background Colour Transformations
3,100,0,0,0

[TimingPoints]
0,480,4,1,0,100

[HitObjects]
256,192,15720,1,2
256,192,23400,5,2
256,192,31080,5,2
256,192,38760,5,2
64,32,45960,5,0
128,32,46440,1,0
192,32,46920,1,0
256,32,47400,1,0
320,32,47880,1,0
384,32,48360,1,0
448,32,48840,2,0,B|448:192,1,140
448,256,49800,2,0,B|0:256,2,420
448,352,53640,5,0
384,352,54120,1,0
320,352,54600,1,0
256,352,55080,1,0
192,352,55560,1,0
128,352,56040,1,0
64,352,56520,2,0,B|64:192,1,140
64,160,57480,2,0,B|512:160,2,420
256,128,60840,5,0
256,192,61320,1,0
256,256,61800,1,2
256,352,62520,2,0,B|0:352|0:352|0:0|0:0|512:0|512:0|512:352|512:352|224:352,1,1750
256,224,69000,5,0
256,160,69480,1,0
256,32,70200,2,0,B|0:32|0:32|0:384|0:384|512:384|512:384|512:32|512:32|224:32,1,1750
256,192,77160,5,2
256,192,84840,5,2
480,32,92040,5,0
480,96,92520,1,0
480,160,93000,1,0
480,224,93480,1,0
480,288,93960,1,0
480,352,94440,1,0
416,352,94920,2,0,B|416:192,1,140
416,32,95880,2,0,B|416:352|192:352,1,420
32,352,99720,5,0
32,288,100200,1,0
32,224,100680,1,0
32,160,101160,1,0
32,96,101640,1,0
32,32,102120,1,0
96,32,102600,2,0,B|96:192,1,140
96,352,103560,2,0,B|96:32|320:32,1,420
256,192,106920,5,0
256,192,107400,1,0
256,192,107880,1,2
256,64,108600,2,0,B|96:64|96:64|96:352,1,420
160,320,110520,2,0,B|512:320|512:320|512:224|512:224|160:224|160:224|160:128|160:128|480:128,1,1190
256,192,115080,5,0
256,192,115560,1,0
256,320,116280,2,0,B|384:320|384:320|384:0,1,420
352,32,118200,2,0,B|0:32|0:32|0:128|0:128|352:128|352:128|352:224|352:224|0:224|0:224|0:320|0:320|128:320,1,1470
96,96,137640,5,0
96,192,138120,1,0
96,288,138600,1,2
384,96,139560,5,0
384,192,140040,1,0
384,288,140520,1,2
352,192,141480,5,0
256,192,141960,1,0
160,192,142440,1,2
256,96,143400,5,0
256,192,143880,1,0
256,288,144360,1,2
96,32,145320,6,0,B|96:320,1,280
192,352,147240,2,2,B|192:64,1,280
320,32,149160,2,0,B|320:320,1,280
448,352,151080,2,2,B|448:64,1,280
256,96,153000,5,2
160,256,153480,1,2
352,256,153960,1,2
256,288,154920,5,2
160,128,155400,1,2
352,128,155880,1,2
256,96,156840,5,2
160,256,157320,1,2
352,256,157800,1,2
256,288,158760,5,2
160,128,159240,1,2
352,128,159720,1,2
160,192,160680,5,2
256,192,161160,1,2
352,192,161640,1,2
256,288,162600,5,2
256,192,163080,1,2
256,96,163560,1,2
192,128,164520,5,2
256,192,165000,1,2
320,256,165480,1,2
192,256,166440,5,2
256,192,166920,1,2
320,128,167400,1,2
256,192,169320,5,2
256,192,177000,5,2
256,32,204840,5,0
256,96,205320,1,0
256,160,205800,1,2
256,352,206520,2,0,B|160:352|160:192|256:192|352:192|352:352|448:352,1,420
480,352,208440,2,0,B|480:32|480:32|32:352|32:352|32:0,1,1190
256,352,213000,5,0
256,288,213480,1,0
256,32,214200,2,0,B|352:32|352:192|256:192|160:192|160:32|64:32,1,420
32,32,216120,2,0,B|32:352|32:352|480:32|480:32|480:384,1,1190
416,352,220680,1,2
352,352,221160,1,2
256,352,221880,2,0,B|192:352|128:352|64:352|0:352|0:288|0:224|0:128,1,420
32,32,223800,2,0,B|384:32|384:32|32:352|32:352|416:352,1,1190
480,352,228360,5,0
480,288,228840,1,2
480,160,229560,2,0,B|480:128|480:96|480:64|480:32|416:32|384:32|320:32|288:32|192:32|128:32,1,420
32,0,231480,2,0,B|32:352|32:352|480:0|480:0|480:384,1,1295
