osu file format v13

[General]
AudioFilename: shiki op2.mp3
AudioLeadIn: 2000
PreviewTime: 51825
Countdown: 0
SampleSet: None
StackLeniency: 0.7
Mode: 0
LetterboxInBreaks: 0
WidescreenStoryboard: 0

[Editor]
Bookmarks: 611,14325,15825,17753,21182,28039,31896,34896,41753,55468,62325,68753,69182,74111,82896
DistanceSpacing: 0.7
BeatDivisor: 4
GridSize: 8
TimelineZoom: 1.3

[Metadata]
Title:Calendula Requiem -Shiki TV size-
TitleUnicode:カレンデュラ レクイエム -屍鬼 TV size-
Artist:kanon*kanon
ArtistUnicode:kanon×kanon
Creator:smallboat
Version:Insane
Source:Shiki
Tags:Kanon Wakeshima An Cafe blood black sunako ghost toshio rose Ono Fuyumi Fujisaki Ryū EmingK Oracle Kawaiwkyik
BeatmapID:386617
BeatmapSetID:157988

[Difficulty]
HPDrainRate:6
CircleSize:4
OverallDifficulty:7
ApproachRate:9
SliderMultiplier:1.8
SliderTickRate:2

[Events]
//Background and Video events
0,0,"bg2.jpg",0,0
Video,-250,"video.avi"
//Break Periods
//Storyboard Layer 0 (Background)
//Storyboard Layer 1 (Fail)
//Storyboard Layer 2 (Pass)
//Storyboard Layer 3 (Foreground)
//Storyboard Sound Samples
//Background Colour Transformations
3,100,163,162,255

[TimingPoints]
611,428.571428571429,4,2,1,50,1,0
611,-125,4,2,1,50,0,0
10896,-125,4,2,1,70,0,0
14325,-100,4,2,2,60,0,0
17753,-100,4,2,2,65,0,0
21182,-100,4,2,2,70,0,0
28039,-100,4,2,2,60,0,0
40039,-100,4,2,1,60,0,0
40896,-100,4,2,5,30,0,0
41753,-100,4,2,2,50,0,0
44968,-100,4,2,2,50,0,0
45182,-100,4,2,2,60,0,0
45503,-100,4,2,2,60,0,0
47753,-100,4,2,2,50,0,0
48611,-100,4,2,1,60,0,0
48825,-100,4,2,1,60,0,0
53750,-100,4,2,5,35,0,0
54075,-100,4,2,5,30,0,0
54396,-100,4,2,5,25,0,0
54611,-100,4,2,5,35,0,0
54825,-100,4,2,1,60,0,0
55468,-83.3333333333333,4,2,2,75,0,1
60611,-83.3333333333333,4,2,2,70,0,1
61468,-83.3333333333333,4,2,2,65,0,1
62325,-83.3333333333333,4,2,2,55,0,1
67468,-83.3333333333333,4,2,1,45,0,1
68325,-83.3333333333333,4,2,5,30,0,1
68968,-66.6666666666667,4,2,1,60,0,0
69182,-83.3333333333333,4,2,2,70,0,1
75825,-66.6666666666667,4,2,2,60,0,1
76039,-83.3333333333333,4,2,2,65,0,1
81396,-83.3333333333333,4,2,2,60,0,1
82039,-83.3333333333333,4,2,2,50,0,1
82896,-100,4,2,2,60,0,0
85896,-100,4,2,2,55,0,0
86325,-100,4,2,1,70,0,0
86753,-100,4,2,1,70,0,0
87825,-62.5,4,2,4,25,0,0
88039,-100,4,2,1,10,0,0

[Colours]
Combo1 : 121,121,255
Combo2 : 170,0,0
Combo3 : 213,255,68
Combo4 : 207,207,207

[HitObjects]
109,210,182,6,0,P|147:191|165:134,1,90,2|0,0:0|0:0,0:0:0:0:
257,49,611,2,0,P|329:45|413:93,1,144,4|2,0:0|0:0,0:0:0:0:
452,304,1468,2,0,P|380:308|296:260,1,144,0|2,0:0|0:0,0:0:0:0:
24,68,2325,6,0,P|54:56|115:58,1,72
187,164,2753,1,2,0:0:0:0:
316,88,2968,1,0,0:0:0:0:
436,192,3182,2,0,P|444:156|436:112,1,72
256,272,3611,1,2,0:0:0:0:
436,192,3825,1,8,0:0:0:0:
256,272,4039,6,0,L|256:176,1,72,8|0,0:0|0:0,0:0:0:0:
76,192,4468,1,2,0:0:0:0:
256,272,4682,1,0,0:0:0:0:
76,192,4896,2,0,L|76:112,1,72,8|0,0:0|0:0,0:0:0:0:
256,128,5325,2,0,L|256:200,1,72,2|0,0:0|0:0,0:0:0:0:
436,192,5753,6,0,L|436:100,1,72,8|0,0:0|0:0,0:0:0:0:
164,140,6182,1,2,0:0:0:0:
348,140,6396,1,0,0:0:0:0:
212,212,6611,1,0,0:0:0:0:
306,60,6825,1,0,0:0:0:0:
300,212,7039,1,2,0:0:0:0:
206,60,7253,1,0,0:0:0:0:
66,248,7468,6,0,L|66:324,1,72,4|0,0:0|0:0,0:0:0:0:
446,320,7896,2,0,L|446:248,1,72,2|0,0:0|0:0,0:0:0:0:
306,60,8325,2,0,P|316:96|306:136,1,72
256,256,8753,1,2,0:0:0:0:
164,140,8968,1,0,0:0:0:0:
352,188,9182,6,0,P|362:221|352:255,1,72
208,200,9611,1,2,0:0:0:0:
436,224,9825,1,0,0:0:0:0:
288,322,10039,2,0,P|254:332|220:324,1,72
436,224,10468,1,2,0:0:0:0:
306,60,10682,1,0,0:0:0:0:
484,160,10896,6,0,P|497:127|490:91,1,72,4|0,0:0|0:0,0:0:0:0:
306,60,11325,1,2,0:0:0:0:
200,152,11539,1,0,0:0:0:0:
152,284,11753,2,0,L|160:356,1,72
35,229,12182,2,0,L|26:135,1,72,2|0,0:0|0:0,0:0:0:0:
196,80,12611,6,0,L|202:174,1,72,12|0,0:0|0:0,0:0:0:0:
328,272,13039,2,0,L|323:183,1,72,2|0,0:0|0:0,0:0:0:0:
360,88,13468,5,10,0:0:0:0:
388,92,13575,1,0,0:0:0:0:
416,100,13682,1,0,0:0:0:0:
440,120,13789,1,0,0:0:0:0:
457,142,13896,1,10,0:0:0:0:
468,168,14003,1,0,0:0:0:0:
470,196,14111,1,0,0:0:0:0:
464,224,14218,1,0,0:0:0:0:
447,255,14325,5,6,0:0:0:0:
256,336,14539,1,0,0:0:0:0:
65,255,14753,2,0,L|113:173,1,90,8|0,0:0|0:0,0:0:0:0:
184,38,15182,2,0,L|144:59,1,45,0|0,0:0|0:0,0:0:0:0:
257,137,15396,2,0,L|295:113,1,45
388,54,15611,1,8,0:0:0:0:
484,165,15825,5,0,0:0:0:0:
484,165,15932,1,0,0:0:0:0:
483,164,16039,2,0,L|468:252,1,90
252,324,16468,2,0,L|267:229,1,90,8|0,0:0|0:0,0:0:0:0:
241,214,16789,1,0,0:0:0:0:
213,194,16896,1,0,0:0:0:0:
52,188,17111,1,0,0:0:0:0:
148,40,17325,1,8,0:0:0:0:
325,42,17539,5,0,0:0:0:0:
357,46,17646,1,0,0:0:0:0:
385,58,17753,2,0,P|423:92|430:149,1,90,4|0,0:0|0:0,0:0:0:0:
332,324,18182,1,8,0:0:0:0:
351,160,18396,1,0,0:0:0:0:
351,160,18503,1,0,0:0:0:0:
351,161,18611,1,0,0:0:0:0:
351,161,18718,1,0,0:0:0:0:
350,161,18825,2,0,P|345:212|302:251,1,90,0|8,0:0|0:0,0:0:0:0:
132,248,19253,5,0,0:0:0:0:
105,224,19360,1,0,0:0:0:0:
93,194,19467,2,0,P|97:142|140:103,1,90,0|0,0:0|0:0,0:0:0:0:
321,241,19896,2,0,P|269:236|230:193,1,90,8|0,0:0|0:0,0:0:0:0:
246,134,20218,1,0,0:0:0:0:
246,134,20325,1,0,0:0:0:0:
246,133,20432,1,0,0:0:0:0:
246,134,20539,2,0,P|278:103|288:60,1,90,0|8,0:0|0:0,0:0:0:0:
264,24,20861,1,0,0:0:0:0:
224,20,20968,1,0,0:0:0:0:
188,28,21075,1,0,0:0:0:0:
160,44,21182,6,0,P|126:73|116:116,1,90,4|0,0:0|0:0,0:0:0:0:
270,312,21611,1,8,0:0:0:0:
288,196,21825,1,0,0:0:0:0:
296,160,21932,1,0,0:0:0:0:
316,132,22039,1,0,0:0:0:0:
347,119,22146,1,0,0:0:0:0:
383,120,22253,6,0,P|427:146|444:200,1,90,0|8,0:0|0:0,0:0:0:0:
292,232,22682,1,0,0:0:0:0:
443,180,22896,2,0,P|484:210|496:266,1,90,0|0,0:0|0:0,0:0:0:0:
424,332,23325,1,8,0:0:0:0:
292,232,23539,1,0,0:0:0:0:
319,208,23647,1,0,0:0:0:0:
358,207,23754,1,0,0:0:0:0:
256,344,23968,1,0,0:0:0:0:
113,246,24182,2,0,L|23:246,1,90,8|0,0:0|0:0,0:0:0:0:
6,91,24611,5,4,0:0:0:0:
119,152,24825,1,0,0:0:0:0:
205,61,25039,2,0,L|295:61,1,90,8|0,0:0|0:0,0:0:0:0:
323,85,25361,1,0,0:0:0:0:
348,112,25468,1,0,0:0:0:0:
372,140,25575,1,0,0:0:0:0:
392,172,25682,1,0,0:0:0:0:
282,265,25896,1,8,0:0:0:0:
119,152,26111,5,0,0:0:0:0:
94,126,26218,1,0,0:0:0:0:
76,96,26325,2,0,P|90:56|156:26,1,90,4|0,0:0|0:0,0:0:0:0:
205,61,26646,1,0,0:0:0:0:
205,61,26753,2,0,L|247:45,1,45,8|0,0:0|0:0,0:0:0:0:
323,85,26968,2,0,L|380:64,1,45,0|0,0:0|0:0,0:0:0:0:
472,136,27182,6,0,P|479:179|465:221,1,90,0|0,0:0|0:0,3:0:0:0:
282,265,27611,2,0,P|260:228|216:204,1,90,8|0,0:0|0:0,0:0:0:0:
62,174,28039,5,0,0:0:0:0:
62,174,28146,1,0,0:0:0:0:
62,174,28253,2,0,L|48:232,1,45
65,299,28468,2,0,P|107:309|150:296,1,90,8|0,0:0|0:0,0:0:0:0:
176,272,28789,1,0,0:0:0:0:
196,244,28896,1,0,0:0:0:0:
208,212,29003,1,0,0:0:0:0:
212,176,29111,1,0,0:0:0:0:
114,23,29325,2,0,P|69:28|33:55,1,90,8|0,0:0|0:0,0:0:0:0:
132,192,29753,5,0,0:0:0:0:
132,192,29860,1,0,0:0:0:0:
131,192,29968,2,0,L|122:248,1,45
139,314,30182,2,0,P|183:319|224:303,1,90,8|0,0:0|0:0,0:0:0:0:
289,253,30503,1,0,0:0:0:0:
289,253,30611,2,0,L|284:188,1,45
357,172,30825,2,0,P|401:172|440:151,1,90,0|8,0:0|0:0,0:0:0:0:
376,10,31253,5,0,0:0:0:0:
340,9,31360,1,0,0:0:0:0:
304,15,31468,2,0,P|262:30|233:63,1,90,0|0,0:0|0:0,0:0:0:0:
130,191,31896,2,0,P|91:171|72:132,1,90,8|0,0:0|0:0,0:0:0:0:
92,48,32218,1,0,0:0:0:0:
92,48,32325,1,0,0:0:0:0:
92,48,32432,1,0,0:0:0:0:
92,48,32539,2,0,P|139:78|150:127,1,90,0|8,0:0|0:0,0:0:0:0:
199,300,32968,5,0,0:0:0:0:
233,316,33075,1,0,0:0:0:0:
268,316,33182,2,0,P|304:312|349:265,1,90
368,89,33611,2,0,P|337:134|340:173,1,90,8|0,0:0|0:0,0:0:0:0:
355,199,33932,1,0,0:0:0:0:
384,219,34039,1,0,0:0:0:0:
417,230,34146,1,0,0:0:0:0:
452,232,34253,1,0,0:0:0:0:
484,85,34468,2,0,P|479:46|427:1,1,90,8|0,0:0|0:0,0:0:0:0:
232,52,34896,5,0,0:0:0:0:
232,52,35003,1,0,0:0:0:0:
232,52,35111,2,0,L|217:125,1,45
149,127,35325,2,0,P|94:133|57:115,1,90,8|0,0:0|0:0,0:0:0:0:
16,56,35646,1,0,0:0:0:0:
49,41,35753,1,0,0:0:0:0:
80,40,35860,1,0,0:0:0:0:
112,54,35968,1,0,0:0:0:0:
273,162,36182,2,0,P|318:167|359:151,1,90,8|0,0:0|0:0,0:0:0:0:
232,52,36610,5,0,0:0:0:0:
232,52,36718,1,0,0:0:0:0:
232,52,36825,2,0,L|272:104,1,45
273,162,37039,2,0,P|236:186|192:188,1,90,8|0,0:0|0:0,0:0:0:0:
148,124,37361,1,0,0:0:0:0:
148,124,37468,2,0,L|92:88,1,45
53,155,37682,2,0,P|42:198|57:240,1,90,0|8,0:0|0:0,0:0:0:0:
206,343,38110,5,0,0:0:0:0:
236,352,38217,1,0,0:0:0:0:
272,356,38325,2,0,P|316:355|351:329,1,90
339,110,38753,2,0,P|297:125|273:162,1,90,8|0,0:0|0:0,0:0:0:0:
272,244,39075,1,0,0:0:0:0:
272,244,39182,2,0,L|312:272,1,45
392,260,39396,2,0,P|400:216|388:173,1,90,0|8,0:0|0:0,0:0:0:0:
324,36,39825,1,0,0:0:0:0:
176,5,40039,6,0,L|150:112,1,90,0|0,0:0|0:0,0:0:0:0:
145,127,40361,1,2,0:0:0:0:
136,161,40468,1,2,0:0:0:0:
27,112,40682,1,2,0:0:0:0:
17,149,40789,1,2,0:0:0:0:
8,190,40896,6,0,L|-3:249,1,45,6|0,0:0|0:0,0:0:0:0:
72,336,41111,2,0,L|87:283,1,45,4|0,0:0|0:0,0:0:0:0:
196,216,41325,2,0,L|185:259,1,45,6|0,0:0|0:0,0:0:0:0:
268,352,41539,2,0,L|283:294,1,45,4|0,0:0|0:0,0:0:0:0:
389,267,41753,6,0,P|472:244|495:161,1,180,4|8,0:0|0:0,0:0:0:0:
386,48,42396,1,0,0:0:0:0:
386,48,42503,1,0,0:0:0:0:
386,48,42611,2,0,L|330:0,1,45
282,62,42825,2,0,P|247:88|203:95,1,90,0|8,0:0|0:0,0:0:0:0:
64,69,43253,1,0,0:0:0:0:
64,69,43361,1,0,0:0:0:0:
64,69,43468,2,0,P|37:94|24:161,1,90
176,245,43896,5,8,0:0:0:0:
271,358,44111,1,0,0:0:0:0:
271,358,44218,1,0,0:0:0:0:
271,358,44325,2,0,L|224:320,1,45
176,245,44539,2,0,P|206:213|215:170,1,90,0|8,0:0|0:0,3:0:0:0:
105,55,44968,2,0,P|84:58|59:72,1,45,0|0,0:0|0:0,0:0:0:0:
107,136,45182,6,0,P|148:123|185:56,1,90,4|0,0:0|0:0,0:0:0:0:
279,20,45503,1,0,0:0:0:0:
279,20,45611,2,0,P|312:48|356:53,1,90,8|0,0:0|0:0,0:0:0:0:
458,101,45932,1,0,0:0:0:0:
458,101,46039,6,0,P|427:134|423:183,1,90,0|0,0:0|0:0,0:0:0:0:
361,263,46361,1,0,0:0:0:0:
360,263,46468,2,0,P|357:307|327:340,1,90,8|0,0:0|0:0,0:0:0:0:
185,340,46789,1,0,0:0:0:0:
185,340,46896,6,0,P|155:308|151:264,1,90,4|0,0:0|0:0,0:0:0:0:
212,171,47218,1,0,0:0:0:0:
212,171,47325,2,0,P|256:187|312:179,1,90,8|0,0:0|0:0,0:0:0:0:
439,126,47753,6,0,L|426:84,1,45,4|0,0:0|0:0,0:0:0:0:
300,40,47968,2,0,L|314:83,1,45,0|0,0:0|0:0,0:0:0:0:
167,179,48182,2,0,L|212:171,1,45,0|0,0:0|0:0,0:0:0:0:
302,270,48396,2,0,L|292:227,1,45,0|0,0:0|0:0,0:0:0:0:
213,250,48611,6,0,P|168:261|105:232,1,90,4|0,0:0|0:0,0:0:0:0:
126,77,49039,1,8,0:0:0:0:
300,40,49253,1,2,0:0:0:0:
334,51,49361,1,2,0:0:0:0:
363,71,49468,1,2,0:0:0:0:
384,99,49575,1,2,0:0:0:0:
391,134,49682,1,2,0:0:0:0:
337,264,49896,1,8,0:0:0:0:
147,342,50111,5,0,0:0:0:0:
147,342,50218,1,0,0:0:0:0:
147,342,50325,2,0,P|118:307|106:264,1,90,0|0,0:0|0:0,0:0:0:0:
167,148,50646,1,2,0:0:0:0:
167,148,50753,2,0,P|184:181|176:236,1,90,10|0,0:0|0:0,0:0:0:0:
107,265,51075,1,0,0:0:0:0:
74,249,51182,1,0,0:0:0:0:
49,223,51289,1,0,0:0:0:0:
34,189,51396,1,0,0:0:0:0:
174,73,51611,1,8,0:0:0:0:
400,45,51825,5,2,0:0:0:0:
426,68,51932,1,2,0:0:0:0:
443,97,52039,2,0,P|449:141|428:189,1,90,2|0,0:0|0:0,0:0:0:0:
343,287,52468,1,12,0:0:0:0:
224,352,52682,5,2,0:0:0:0:
188,348,52789,1,2,0:0:0:0:
156,332,52896,2,0,P|119:306|107:264,1,90,2|0,0:0|0:0,0:0:0:0:
176,164,53325,1,12,0:0:0:0:
188,44,53539,1,0,0:0:0:0:
4,64,53753,5,4,0:0:0:0:
90,299,54075,1,4,0:0:0:0:
248,116,54396,1,4,0:0:0:0:
413,84,54611,1,4,0:0:0:0:
296,37,54825,5,0,0:0:0:0:
296,37,54932,1,0,0:0:0:0:
296,37,55039,2,0,P|334:81|337:127,1,90
336,184,55361,1,0,0:0:0:0:
336,184,55468,6,0,P|270:225|269:302,1,161.999995056153,4|0,0:0|0:0,0:0:0:0:
302,332,55896,1,8,0:0:0:0:
424,335,56111,1,0,0:0:0:0:
424,335,56218,1,0,0:0:0:0:
424,335,56325,1,0,0:0:0:0:
495,248,56539,1,0,0:0:0:0:
483,144,56753,2,0,P|469:92|431:54,1,107.999996704102,8|0,0:0|0:0,0:0:0:0:
80,54,57182,6,0,P|42:92|64:210,1,161.999995056153,0|0,0:0|0:0,0:0:0:0:
144,236,57611,2,0,P|173:192|179:138,1,107.999996704102,8|0,0:0|0:0,0:0:0:0:
225,39,58039,2,0,L|246:88,1,53.9999983520508
325,146,58253,2,0,L|340:76,1,53.9999983520508,0|0,0:0|0:0,0:0:0:0:
419,91,58468,1,8,0:0:0:0:
424,312,58682,5,0,0:0:0:0:
391,331,58789,1,0,0:0:0:0:
354,337,58896,2,0,P|298:313|271:264,1,107.999996704102,0|0,0:0|0:0,0:0:0:0:
264,237,59218,1,0,0:0:0:0:
271,198,59325,2,0,P|301:154|351:135,1,107.999996704102,8|0,0:0|0:0,0:0:0:0:
305,33,59753,2,0,L|237:33,1,53.9999983520508,0|0,0:0|0:0,0:0:0:0:
148,112,59968,2,0,L|216:112,1,53.9999983520508,0|0,0:0|0:0,0:0:0:0:
186,208,60182,2,0,P|172:244|96:279,1,107.999996704102,8|0,0:0|0:0,0:0:0:0:
16,96,60611,6,0,P|32:44|75:13,1,107.999996704102
221,22,61039,1,8,0:0:0:0:
148,112,61253,1,0,0:0:0:0:
180,131,61361,1,0,0:0:0:0:
215,141,61468,1,0,0:0:0:0:
252,147,61575,1,0,0:0:0:0:
289,146,61682,1,0,0:0:0:0:
325,135,61789,1,0,0:0:0:0:
359,120,61896,2,0,L|470:92,1,107.999996704102,8|0,0:0|0:0,0:0:0:0:
376,42,62325,6,0,P|359:121|429:191,1,161.999995056153,4|0,0:0|0:0,0:0:0:0:
452,268,62753,2,0,P|423:297|352:310,1,107.999996704102,8|0,0:0|0:0,0:0:0:0:
321,306,63075,1,0,0:0:0:0:
284,296,63182,1,0,0:0:0:0:
253,273,63289,1,0,0:0:0:0:
227,243,63396,1,0,0:0:0:0:
58,144,63611,1,8,0:0:0:0:
47,347,63825,1,0,0:0:0:0:
227,243,64039,6,0,P|263:194|240:94,1,161.999995056153,4|0,0:0|0:0,0:0:0:0:
58,144,64467,2,0,P|91:170|161:173,1,107.999996704102,8|0,0:0|0:0,0:0:0:0:
175,142,64789,1,0,0:0:0:0:
169,104,64896,1,0,0:0:0:0:
150,71,65003,1,0,0:0:0:0:
118,49,65111,1,0,0:0:0:0:
34,244,65325,1,8,0:0:0:0:
257,316,65539,5,0,0:0:0:0:
295,296,65646,1,0,0:0:0:0:
331,270,65753,2,0,P|335:208|261:137,1,161.999995056153,0|0,0:0|0:0,0:0:0:0:
158,258,66182,6,0,P|212:256|253:223,1,107.999996704102,8|0,0:0|0:0,0:0:0:0:
169,104,66503,2,0,L|176:157,1,53.9999983520508,0|0,0:0|0:0,0:0:0:0:
285,55,66718,2,0,L|225:50,1,53.9999983520508,0|0,0:0|0:0,0:0:0:0:
34,93,67039,1,8,0:0:0:0:
104,252,67253,1,0,0:0:0:0:
310,323,67468,6,0,L|250:315,1,53.9999983520508,4|0,0:0|0:0,0:0:0:0:
104,252,67682,2,0,L|176:260,1,53.9999983520508,8|0,0:0|0:0,0:0:0:0:
288,207,67896,2,0,L|208:199,1,53.9999983520508,8|0,0:0|0:0,0:0:0:0:
125,135,68111,2,0,L|189:91,1,53.9999983520508,8|0,0:0|0:0,0:0:0:0:
248,36,68325,6,0,P|271:27|323:27,1,53.9999983520508,14|4,0:0|0:0,0:0:0:0:
436,24,68539,2,0,P|417:49|378:67,1,53.9999983520508,8|0,0:0|0:0,0:0:0:0:
359,189,68753,2,0,P|389:176|441:186,1,53.9999983520508,12|4,0:0|0:0,0:0:0:0:
447,204,68968,1,0,0:0:0:0:
465,247,69075,1,0,0:0:0:0:
466,284,69182,6,0,P|411:339|335:323,1,161.999995056153,4|0,0:0|0:0,0:0:0:0:
302,303,69611,1,8,0:0:0:0:
292,156,69825,1,0,0:0:0:0:
292,156,69932,1,0,0:0:0:0:
292,156,70039,1,0,0:0:0:0:
386,261,70253,1,0,0:0:0:0:
203,246,70468,2,0,P|186:189|138:159,1,107.999996704102,8|0,0:0|0:0,0:0:0:0:
77,281,70896,6,0,P|132:254|144:154,1,161.999995056153
92,92,71325,2,0,P|68:140|72:193,1,107.999996704102,8|0,0:0|0:0,0:0:0:0:
205,180,71753,2,0,L|185:124,1,53.9999983520508,0|0,0:0|0:0,0:0:0:0:
240,28,71968,2,0,L|265:100,1,53.9999983520508,0|0,0:0|0:0,0:0:0:0:
324,137,72182,1,8,0:0:0:0:
472,112,72396,5,0,0:0:0:0:
444,88,72503,1,0,0:0:0:0:
408,80,72610,2,0,P|350:101|321:148,1,107.999996704102,0|0,0:0|0:0,0:0:0:0:
324,236,72932,1,0,0:0:0:0:
324,236,73039,2,0,P|315:289|279:328,1,107.999996704102,8|0,0:0|0:0,0:0:0:0:
203,359,73360,1,0,0:0:0:0:
203,359,73467,2,0,L|143:347,1,53.9999983520508,0|0,0:0|0:0,0:0:0:0:
11,288,73682,2,0,L|63:301,1,53.9999983520508
153,203,73896,2,0,L|148:258,1,53.9999983520508,8|0,0:0|0:0,0:0:0:0:
56,200,74111,2,0,L|64:127,1,53.9999983520508
104,52,74325,6,0,P|140:13|191:0,1,107.999996704102,4|0,0:0|0:0,0:0:0:0:
324,236,74753,2,0,P|276:259|224:253,1,107.999996704102,8|0,0:0|0:0,0:0:0:0:
153,203,75075,1,0,0:0:0:0:
154,166,75182,1,0,0:0:0:0:
176,135,75289,1,0,0:0:0:0:
208,116,75396,2,0,P|260:122|301:155,1,107.999996704102,0|8,0:0|0:0,0:0:0:0:
394,304,75825,2,0,P|408:334|408:368,1,67.5000025749208,0|0,0:0|0:0,0:0:0:0:
332,352,76039,6,0,P|279:345|238:312,1,107.999996704102,4|0,0:0|0:0,0:0:0:0:
413,189,76468,2,0,P|387:220|310:233,1,107.999996704102,8|0,0:0|0:0,0:0:0:0:
244,76,76896,2,0,P|229:98|208:115,1,53.9999983520508
154,167,77111,2,0,P|140:144|136:104,1,53.9999983520508
185,236,77325,2,0,P|224:269|261:238,1,107.999996704102,8|0,0:0|0:0,0:0:0:0:
412,104,77753,6,0,P|362:122|313:104,1,107.999996704102,4|0,0:0|0:0,0:0:0:0:
116,8,78182,1,8,0:0:0:0:
20,160,78396,1,0,0:0:0:0:
20,160,78503,1,0,0:0:0:0:
20,160,78611,2,0,L|48:228,1,53.9999983520508
92,272,78825,2,0,P|131:275|188:229,1,107.999996704102,0|8,0:0|0:0,0:0:0:0:
116,8,79253,5,0,0:0:0:0:
88,32,79361,1,0,0:0:0:0:
76,68,79468,2,0,P|87:106|150:142,1,107.999996704102,0|0,0:0|0:0,0:0:0:0:
396,56,79896,1,8,0:0:0:0:
208,36,80111,1,0,0:0:0:0:
216,72,80218,1,0,0:0:0:0:
224,108,80325,1,0,0:0:0:0:
232,144,80432,1,0,0:0:0:0:
240,180,80539,2,0,P|268:224|318:243,1,107.999996704102,0|8,0:0|0:0,0:0:0:0:
396,56,80968,5,0,0:0:0:0:
512,122,81182,2,0,P|484:167|436:190,1,107.999996704102
399,195,81503,1,0,0:0:0:0:
362,184,81611,1,0,0:0:0:0:
329,165,81718,1,0,0:0:0:0:
309,132,81825,1,0,0:0:0:0:
300,95,81932,1,4,0:0:0:0:
303,57,82039,6,0,L|336:3,1,53.9999983520508,12|0,0:0|0:0,0:0:0:0:
424,10,82253,2,0,L|396:56,1,53.9999983520508,12|0,0:0|0:0,0:0:0:0:
459,133,82468,2,0,L|519:121,1,53.9999983520508,8|0,0:0|0:0,0:0:0:0:
494,224,82682,2,0,L|473:277,1,53.9999983520508,8|0,0:0|0:0,0:0:0:0:
412,345,82896,5,0,0:0:0:0:
256,360,83110,1,0,0:0:0:0:
111,289,83324,2,0,P|91:249|98:186,1,90,8|0,0:0|0:0,0:0:0:0:
111,129,83646,1,0,0:0:0:0:
111,128,83753,2,0,L|139:63,1,45
208,120,83968,2,0,L|232:64,1,45
300,32,84182,2,0,L|373:57,1,45,8|0,0:0|0:0,0:0:0:0:
424,88,84396,1,0,0:0:0:0:
424,88,84503,1,0,0:0:0:0:
424,88,84610,6,0,P|460:112|490:167,1,90,4|0,0:0|0:0,0:0:0:0:
448,336,85039,2,0,P|412:308|387:261,1,90,8|0,0:0|0:0,0:0:0:0:
368,232,85361,1,0,0:0:0:0:
348,192,85468,2,0,L|288:176,1,45
246,119,85682,2,0,L|189:116,1,45
123,143,85896,1,8,0:0:0:0:
96,268,86110,1,0,0:0:0:0:
125,286,86217,1,0,0:0:0:0:
164,288,86325,5,4,0:0:0:0:
206,75,86539,1,0,0:0:0:0:
166,79,86646,1,0,0:0:0:0:
130,99,86753,1,2,0:0:0:0:
123,143,86861,1,0,0:0:0:0:
140,184,86968,1,2,0:0:0:0:
183,193,87075,1,0,0:0:0:0:
224,175,87182,1,2,0:0:0:0:
258,141,87289,1,0,0:0:0:0:
294,115,87396,6,0,L|337:101,1,45,2|0,0:0|0:0,0:0:0:0:
390,176,87611,2,0,L|348:192,1,45,2|0,0:0|0:0,0:0:0:0:
464,240,87825,6,0,P|492:184|456:104,1,144,6|0,0:0|0:0,0:0:0:0:
