osu file format v9

[General]
AudioFilename: shiki tvsize.mp3
AudioLeadIn: 1996
PreviewTime: 53742
Countdown: 0
SampleSet: Normal
StackLeniency: 0.6
Mode: 1
LetterboxInBreaks: 0

[Editor]
Bookmarks: 14314,28028,41742,55457,69171,82885,88028
DistanceSpacing: 0.8
BeatDivisor: 4
GridSize: 8

[Metadata]
Title:Calendula Requiem (TV Size)
Artist:kanon*kanon
Creator:AngelHoney
Version:KumaTaiko
Source:Shiki
Tags:TW-KUMA01 littlecar3370

[Difficulty]
HPDrainRate:8
CircleSize:4
OverallDifficulty:7
ApproachRate:8
SliderMultiplier:1.4
SliderTickRate:1

[Events]
//Background and Video events
0,0,"shiki.jpg"
Video,0,"Shiki.avi"
//Break Periods
//Storyboard Layer 0 (Background)
//Storyboard Layer 1 (Fail)
//Storyboard Layer 2 (Pass)
//Storyboard Layer 3 (Foreground)
//Storyboard Sound Samples
//Background Colour Transformations
3,100,0,0,0

[TimingPoints]
610,428.571428571429,4,1,1,90,1,0
55467,-100,4,1,1,90,0,1
82895,-100,4,1,1,90,0,0

[HitObjects]
200,160,610,1,4
152,72,2324,1,4
224,176,2752,5,8
264,224,2967,1,8
328,336,3395,1,8
328,336,3610,1,8
272,304,3824,1,8
272,304,4038,5,0
328,368,4895,1,0
160,176,5752,1,0
288,168,6181,5,8
288,168,6395,1,8
312,296,6824,1,8
344,352,7038,1,8
312,296,7252,1,8
344,352,7467,5,4
248,296,7895,5,8
472,336,8752,1,8
360,352,9181,5,0
296,264,9610,1,0
264,288,9824,1,0
176,224,10252,1,0
128,192,10467,1,0
80,160,10681,1,0
80,160,10895,1,4
192,152,11324,5,8
232,184,11538,5,0
256,200,11645,1,0
280,216,11752,5,8
264,160,11967,1,8
248,104,12181,1,8
80,160,12288,1,8
272,152,12395,1,8
280,176,12502,1,8
288,208,12610,5,0
312,320,13038,5,8
376,224,13467,5,0
320,224,13681,1,0
312,320,13895,5,8
328,296,14002,1,8
328,296,14110,1,8
328,296,14217,1,8
328,296,14324,5,0
224,256,14752,5,8
256,304,14967,5,0
272,320,15074,1,0
272,320,15288,1,0
272,320,15395,1,0
272,320,15610,5,8
224,288,15824,5,0
176,256,16038,1,0
288,280,16467,5,8
304,224,16681,5,0
256,200,16895,1,0
232,192,17002,1,0
304,224,17110,1,0
280,216,17217,1,0
304,224,17324,5,8
248,216,17538,1,8
192,208,17752,5,0
88,168,18181,5,8
136,200,18395,5,0
160,216,18502,5,8
208,248,18717,1,8
232,264,18824,5,0
280,296,19038,5,8
248,248,19252,5,0
224,200,19467,1,0
296,280,19895,5,8
304,336,20110,5,0
304,336,20217,5,8
256,304,20431,5,0
240,280,20538,5,8
216,264,20645,1,8
192,248,20752,5,0
144,224,20967,5,8
136,168,21181,5,0
232,232,21610,5,8
264,272,21824,5,0
280,296,21931,1,0
320,336,22145,1,0
304,312,22252,1,0
320,336,22467,5,8
272,312,22681,5,0
312,352,22895,1,0
280,296,23324,5,8
272,312,23538,5,0
272,312,23752,1,0
272,312,23860,1,0
272,312,23967,1,0
272,312,24074,1,0
272,312,24181,5,8
272,312,24395,1,8
272,312,24610,5,0
224,208,25038,5,8
176,176,25252,5,0
152,160,25360,5,8
192,120,25574,1,8
192,120,25681,1,0
192,120,25788,5,0
192,120,25895,5,8
168,168,26110,1,8
208,208,26324,5,0
152,200,26752,2,0,B|504:152,1,350
440,152,28038,1,0
336,192,28467,5,8
296,224,28681,5,0
272,240,28788,1,0
216,224,29002,1,0
192,216,29110,1,0
136,208,29324,5,8
184,232,29538,5,0
232,256,29752,1,0
256,264,29860,1,0
280,280,29967,1,0
280,280,30074,1,0
280,280,30181,5,8
304,328,30395,5,0
280,280,30502,5,8
336,264,30717,1,8
336,288,30824,5,0
280,376,31038,5,8
240,336,31252,1,0
216,320,31360,1,0
200,296,31467,1,8
200,240,31681,1,0
176,192,31895,1,0
160,136,32110,1,8
208,112,32324,1,0
232,120,32431,1,0
208,128,32538,1,0
288,136,32645,1,0
312,144,32752,1,0
256,160,32967,1,0
352,240,33181,1,0
344,296,33288,1,8
320,288,33395,1,0
312,344,33610,1,8
256,328,33824,1,0
224,280,33931,1,0
200,232,34038,1,8
192,208,34252,1,0
184,184,34467,1,0
152,144,34681,1,8
96,160,34895,1,0
80,216,35110,1,8
72,240,35217,1,8
72,264,35324,1,0
104,312,35538,1,8
160,328,35752,1,8
184,336,35860,1,8
240,352,36074,1,8
288,328,36288,1,8
288,328,36395,1,8
304,304,36502,1,8
320,280,36610,1,0
288,232,36824,1,0
272,208,36931,1,0
280,184,37038,1,8
224,184,37252,1,8
200,168,37360,1,8
168,192,37467,1,0
112,192,37681,1,8
24,120,38110,1,0
48,136,38217,1,0
232,304,38324,1,0
280,272,38538,1,0
320,232,38752,1,8
344,184,38967,1,8
360,168,39074,1,8
312,144,39288,1,8
288,136,39395,1,0
264,128,39502,1,0
232,128,39610,1,8
184,152,39824,1,0
144,192,40038,1,4
168,272,40360,1,4
184,352,40681,5,4
120,192,41324,5,0
120,192,41431,1,0
120,192,41538,1,0
120,192,41645,1,0
120,192,41752,1,0
96,176,41860,1,0
72,168,41967,5,8
208,216,42181,5,0
248,256,42395,5,8
264,280,42502,5,0
248,224,42717,5,8
240,200,42824,1,8
232,176,42931,1,8
224,152,43038,5,0
184,192,43252,5,8
224,232,43467,5,0
248,248,43574,1,0
272,264,43681,1,0
296,280,43788,1,0
320,296,43895,5,8
368,320,44110,5,0
352,296,44217,5,8
336,240,44431,1,8
336,240,44538,1,8
336,240,44645,5,0
336,240,44752,5,8
368,320,44967,1,8
368,320,45181,5,0
312,320,45395,5,8
312,320,45502,5,0
256,264,45824,5,8
208,232,46038,5,0
160,208,46252,5,8
136,200,46360,5,0
216,224,46681,5,8
224,168,46895,5,0
272,200,47110,1,0
296,216,47217,5,8
272,208,47324,5,0
360,272,47538,1,0
336,320,47752,5,8
320,344,47860,1,8
320,344,47967,1,8
320,344,48074,1,8
296,328,48181,1,8
272,312,48288,1,8
320,344,48395,5,0
296,296,48610,1,0
272,248,48824,5,8
296,296,49038,5,0
312,320,49145,5,8
296,296,49360,1,8
296,296,49467,5,0
312,320,49681,5,8
312,320,49895,1,8
312,320,50002,1,8
312,320,50110,5,0
312,320,50217,1,0
312,320,50324,1,0
264,296,50538,5,8
296,296,50967,1,8
296,296,51181,5,0
296,296,51395,1,0
296,296,51610,1,0
296,296,51824,1,0
256,256,52038,1,0
296,296,52252,5,8
320,312,52360,1,8
360,352,52574,1,8
344,328,52681,1,8
344,328,52788,1,8
344,328,52895,5,0
344,328,53110,1,0
288,336,53324,1,0
240,304,53538,1,0
288,272,53752,1,4
248,200,54074,5,12
216,120,54395,1,12
240,176,54610,5,4
136,208,55038,1,0
136,208,55145,1,0
136,208,55252,1,0
136,208,55360,1,0
160,224,55467,1,0
208,256,55681,5,8
184,208,55895,5,0
168,184,56002,1,0
168,184,56110,5,8
208,224,56324,5,0
248,264,56538,5,8
264,288,56645,5,0
288,304,56752,1,0
304,328,56860,1,0
304,328,56967,5,8
360,320,57181,5,0
304,320,57395,1,0
328,320,57502,5,8
328,320,57824,5,0
288,280,58038,1,0
248,240,58252,1,0
224,224,58360,1,0
200,208,58467,5,8
200,208,58681,1,8
200,208,58895,5,0
152,232,59110,5,8
152,232,59217,1,8
152,232,59324,5,0
152,232,59431,1,0
152,232,59538,5,8
104,200,59752,5,0
56,168,59967,5,8
80,184,60074,1,8
80,184,60181,5,0
80,184,60288,1,0
80,184,60395,5,8
136,184,60610,5,0
192,176,60824,1,0
192,176,61038,1,0
192,176,61252,1,0
192,176,61467,1,4
256,336,62110,1,0
296,296,62324,1,0
248,264,62538,5,8
248,264,62645,1,8
248,264,62752,5,0
248,264,62860,1,0
240,240,62967,5,8
280,280,63181,5,0
264,224,63395,5,8
256,200,63502,1,8
248,176,63610,5,0
232,120,63824,5,8
200,72,64038,5,0
200,72,64145,1,0
232,120,64360,1,0
248,144,64467,5,8
272,192,64681,5,0
200,72,64895,1,0
200,72,65002,1,0
232,120,65217,1,0
248,144,65324,5,8
192,160,65538,5,0
224,208,65752,1,0
264,248,65967,5,8
280,272,66074,1,8
296,296,66181,5,0
344,328,66395,5,8
296,360,66610,5,0
296,296,66824,5,8
296,296,66931,1,8
288,272,67038,5,0
240,248,67252,5,8
296,256,67467,5,0
240,160,67895,1,0
128,192,68324,1,4
88,88,68752,1,0
96,112,68860,1,0
112,136,68967,1,0
112,136,69074,1,0
112,136,69181,1,0
160,112,69395,1,0
184,104,69502,1,0
224,144,69717,1,8
264,184,69931,1,0
288,200,70038,1,0
328,240,70252,1,0
344,264,70360,1,8
360,288,70467,1,8
400,328,70681,1,0
408,272,70895,1,8
408,216,71110,1,8
408,192,71217,1,8
408,168,71324,1,0
368,128,71538,1,0
320,104,71752,1,0
296,96,71860,1,8
240,88,72074,1,8
216,96,72181,1,0
176,136,72395,1,0
160,160,72502,1,0
160,192,72610,1,0
152,248,72824,1,0
152,272,72931,1,0
168,328,73145,1,0
192,328,73252,1,8
224,328,73360,1,8
248,328,73467,1,0
296,304,73788,1,4
352,280,74110,1,12
400,256,74324,2,0,B|80:88,1,350
136,192,75824,1,0
152,216,75931,1,0
168,240,76038,1,8
200,288,76252,1,8
216,312,76360,1,8
272,328,76574,1,0
280,304,76788,1,0
288,280,76895,1,0
344,296,77110,1,8
368,280,77217,1,8
400,280,77325,1,0
392,256,77431,1,8
352,248,77538,1,0
312,208,77752,1,4
304,152,78181,1,12
248,152,78395,1,0
224,152,78502,1,0
192,152,78610,1,0
168,200,78824,1,0
168,256,79038,1,8
224,264,79252,1,8
248,272,79360,1,8
272,288,79467,1,0
328,280,79681,1,0
352,272,79788,1,8
328,224,80002,1,0
352,216,80216,1,8
344,192,80324,1,0
360,136,80538,1,0
368,112,80645,1,0
376,88,80752,1,0
320,104,80967,1,0
272,128,81181,1,0
248,136,81288,1,0
224,152,81395,1,0
200,160,81502,1,0
184,184,81610,1,8
152,232,81824,1,8
144,288,82038,1,0
144,312,82145,1,0
200,328,82360,1,8
224,336,82467,1,8
272,304,82681,1,8
320,280,82895,1,4
