osu file format v9

[General]
AudioFilename: shiki tvsize.mp3
AudioLeadIn: 1996
PreviewTime: 53742
Countdown: 0
SampleSet: Normal
StackLeniency: 0.6
Mode: 0
LetterboxInBreaks: 0

[Editor]
Bookmarks: 14314,28028,41742,55457,69171,82885,88028
DistanceSpacing: 0.8
BeatDivisor: 4
GridSize: 16

[Metadata]
Title:Calendula Requiem (TV Size)
Artist:kanon*kanon
Creator:AngelHoney
Version:Hard
Source:Shiki
Tags:TW-KUMA01 littlecar3370

[Difficulty]
HPDrainRate:5
CircleSize:4
OverallDifficulty:5
ApproachRate:7
SliderMultiplier:1.2
SliderTickRate:0.5

[Events]
//Background and Video events
0,0,"shiki.jpg"
Video,0,"Shiki.avi"
//Break Periods
//Storyboard Layer 0 (Background)
//Storyboard Layer 1 (Fail)
//Storyboard Layer 2 (Pass)
//Storyboard Layer 3 (Foreground)
//Storyboard Sound Samples
//Background Colour Transformations
3,100,0,0,0

[TimingPoints]
610,428.571428571429,4,1,1,50,1,0
824,-100,4,1,1,30,0,0
1252,-100,4,1,0,50,0,0
1681,-100,4,1,1,30,0,0
2110,-100,4,1,0,50,0,0
2538,-100,4,1,1,31,0,0
2860,-100,4,1,0,50,0,0
3181,-100,4,1,1,40,0,0
3502,-100,4,1,1,47,0,0
3717,-100,4,1,1,56,0,0
3931,-100,4,1,0,60,0,0
4467,-100,4,1,1,20,0,0
4788,-100,4,1,0,60,0,0
5110,-100,4,1,1,60,0,0
6288,-100,4,1,1,50,0,0
6610,-100,4,1,1,30,0,0
6931,-100,4,1,1,50,0,0
7360,-100,4,1,0,60,0,0
7681,-100,4,1,1,50,0,0
8002,-100,4,1,1,60,0,0
8217,-100,4,1,0,60,0,0
8538,-100,4,1,1,50,0,0
9074,-100,4,1,1,46,0,0
9502,-100,4,1,1,40,0,0
9931,-100,4,1,1,36,0,0
10252,-100,4,1,1,30,0,0
10574,-100,4,1,1,35,0,0
10788,-100,4,1,0,60,0,0
11110,-100,4,1,1,50,0,0
12395,-100,4,1,0,60,0,0
12824,-100,4,1,0,70,0,0
13252,-100,4,1,0,80,0,0
13681,-100,4,1,0,90,0,0
14110,-142.857142857143,4,1,0,80,0,0
14324,-142.857142857143,4,1,0,80,0,1
14377,-142.857142857143,4,1,0,80,0,0
15181,-142.857142857143,4,1,0,50,0,0
15395,-142.857142857143,4,1,0,70,0,0
16895,-142.857142857143,4,1,0,50,0,0
17110,-142.857142857143,4,1,0,60,0,0
18610,-142.857142857143,4,1,0,50,0,0
18824,-142.857142857143,4,1,0,60,0,0
20324,-142.857142857143,4,1,0,50,0,0
20538,-142.857142857143,4,1,0,60,0,0
21181,-142.857142857143,4,1,0,70,0,0
22038,-142.857142857143,4,1,0,50,0,0
22145,-142.857142857143,4,1,0,65,0,0
23324,-142.857142857143,4,1,0,50,0,0
24610,-142.857142857143,4,1,0,61,0,0
25467,-142.857142857143,4,1,0,70,0,0
26002,-100,4,1,0,60,0,0
26752,-100,4,1,0,50,0,0
27181,-100,4,1,0,45,0,0
27610,-83.3333333333333,4,1,0,40,0,0
27931,-83.3333333333333,4,1,0,50,0,0
41645,-83.3333333333333,4,1,0,60,0,0
41752,-83.3333333333333,4,1,0,60,0,1
41806,-83.3333333333333,4,1,0,60,0,0
53645,-83.3333333333333,4,1,0,70,0,0
53860,-83.3333333333333,4,1,0,80,0,0
54181,-83.3333333333333,4,1,0,90,0,0
54502,-83.3333333333333,4,1,0,80,0,0
54717,-83.3333333333333,4,1,0,60,0,0
55038,-83.3333333333333,4,1,0,70,0,0
55252,-83.3333333333333,4,1,0,80,0,0
55413,-83.3333333333333,4,1,0,90,0,0
55467,-83.3333333333333,4,1,0,90,0,1
55520,-83.3333333333333,4,1,0,90,0,0
55574,-83.3333333333333,4,1,0,70,0,0
56002,-83.3333333333333,4,1,0,60,0,0
69181,-83.3333333333333,4,1,0,60,0,1
69235,-83.3333333333333,4,1,0,60,0,0
81288,-83.3333333333333,4,1,0,30,0,0
81502,-83.3333333333333,4,1,0,60,0,0
81717,-83.3333333333333,4,1,0,30,0,0
81931,-83.3333333333333,4,1,0,60,0,0
82145,-83.3333333333333,4,1,0,30,0,0
82360,-83.3333333333333,4,1,0,60,0,0
82574,-83.3333333333333,4,1,0,30,0,0
82788,-83.3333333333333,4,1,0,60,0,0
82895,-83.3333333333333,4,1,0,60,0,1
84502,-83.3333333333333,4,1,0,60,0,0
84610,-83.3333333333333,4,1,0,60,0,1
86217,-83.3333333333333,4,1,0,60,0,0
86324,-83.3333333333333,4,1,0,60,0,1
87824,-83.3333333333333,4,2,0,0,0,1
88038,-83.3333333333333,4,2,0,0,0,0

[Colours]
Combo1 : 248,211,171
Combo2 : 171,252,203
Combo3 : 175,221,254
Combo4 : 249,254,186
Combo5 : 240,80,80

[HitObjects]
80,112,610,6,0,B|208:96,1,120
128,208,1467,2,0,B|256:192,1,120
320,96,2324,1,0
432,48,2752,1,0
448,80,2967,1,0
400,192,3395,1,0
384,224,3610,1,0
368,256,3824,1,0
352,288,4038,6,0,B|304:320|216:320,1,120,0|0
208,288,4681,1,0
192,256,4895,2,0,B|144:208|64:208,1,120
48,192,5538,1,0
16,176,5752,2,0,B|80:144|96:64,1,120
96,48,6395,2,0,B|160:32|224:80,1,120
240,96,7038,1,0
272,128,7252,1,0
304,160,7467,6,0,B|368:208|432:176,1,120,4|0
464,176,8110,1,0
496,208,8324,2,0,B|448:256|448:320,1,120
448,352,8967,1,0
400,336,9181,2,0,B|256:368,1,120
240,368,9824,1,0
192,352,10038,1,0
48,208,10467,5,0
64,160,10681,1,0
80,112,10895,1,4
240,64,11324,1,0
272,96,11538,1,0
232,224,11967,1,0
272,256,12181,2,0,B|400:208,1,120
336,96,13038,2,0,B|464:48,1,120
224,64,13895,1,0
96,160,14324,6,0,B|176:144,1,62.999998497963,4|0
192,176,14752,2,0,B|288:192,1,83.999997997284
384,128,15610,1,0
464,240,16038,2,0,B|384:256,1,62.999998497963
368,272,16467,2,0,B|272:256,1,83.999997997284
176,304,17324,1,0
64,240,17752,6,0,B|96:176,1,62.999998497963
80,144,18181,2,0,B|176:112,1,83.999997997284
240,64,18824,1,0
336,80,19038,1,0
400,144,19252,1,0
432,240,19467,2,0,B|368:256,1,62.999998497963
352,288,19895,2,0,B|256:256,1,83.999997997284
192,304,20538,1,0
128,240,20752,1,0
96,256,20860,1,0
64,272,20967,1,0
0,208,21181,6,0,B|32:128,1,83.999997997284,4|0
112,176,21824,2,0,B|144:96,1,83.999997997284
224,48,22467,1,0
288,112,22681,1,0
368,80,22895,2,0,B|400:176,1,83.999997997284
304,199,23538,2,0,B|336:295,1,83.999997997284
352,368,24181,1,0
256,352,24395,1,0
192,288,24610,6,0,B|96:304,1,83.999997997284
64,224,25252,1,0
32,144,25467,2,0,B|128:128,1,83.999997997284
176,64,26110,1,0
208,80,26217,1,0
240,96,26324,2,0,B|368:96,2,120
224,176,27395,1,0
192,256,27610,1,0
160,336,27824,1,0
256,320,28038,6,0,B|384:304,1,108.000002574921,4|0
336,256,28467,2,0,B|464:240,1,108.000002574921
480,208,28895,1,0
432,112,29110,1,0
336,64,29324,2,0,B|240:40,1,72.0000017166138
144,144,29752,2,0,B|272:128,1,108.000002574921
224,176,30181,2,0,B|336:192,1,108.000002574921
400,272,30610,2,0,B|320:304,1,72.0000017166138
224,336,31038,1,0
128,288,31252,5,0
128,288,31360,1,0
128,288,31467,2,0,B|160:208,1,72.0000017166138
272,128,31895,2,0,B|248:216,1,72.0000017166138
320,288,32324,1,0
352,304,32431,1,0
400,224,32645,1,0
432,240,32752,1,0
432,128,32967,1,0
402,98,33074,1,0
368,80,33181,6,0,B|279:96,1,72.0000017166138,0|0
240,192,33610,2,0,B|160:208,1,72.0000017166138
144,176,33931,2,0,B|80:208|48:272,1,108.000002574921
32,64,34467,2,0,B|64:144,1,72.0000017166138
144,48,34895,5,0
176,64,35002,1,0
208,80,35110,2,0,B|304:64,1,72.0000017166138
256,160,35538,1,0
288,176,35645,1,0
320,192,35752,2,0,B|416:176,1,72.0000017166138
496,160,36181,1,0
448,256,36395,1,0
336,288,36610,2,0,B|224:272,1,108.000002574921
192,240,37038,2,0,B|144:320,1,72.0000017166138
48,176,37467,2,0,B|144:160,1,72.0000017166138
224,144,37895,1,0
272,240,38110,5,0
256,272,38217,1,0
240,304,38324,2,0,B|304:320|352:288,1,108.000002574921
384,272,38752,2,0,B|448:272|512:320,1,108.000002574921
512,272,39181,1,0
464,192,39395,1,0
448,96,39610,1,0
384,16,39824,1,0
304,80,40038,6,0,B|192:128|80:64,1,216.000005149841
32,144,40895,1,0
48,160,41002,1,0
64,176,41110,1,0
80,192,41217,1,0
96,208,41324,1,0
112,224,41431,1,0
128,240,41538,1,0
144,256,41645,1,0
163,273,41752,6,0,B|240:288|307:217,1,144.000003433228,4|0
368,160,42395,1,0
384,192,42502,2,0,B|400:256|384:304,1,108.000002574921
288,336,43038,1,0
176,304,43252,1,0
144,272,43360,1,0
125,237,43467,2,0,B|112:176|149:117,1,108.000002574921
176,96,43895,2,0,B|256:136,1,72.0000017166138
288,112,44217,2,0,B|368:80,1,72.0000017166138
400,64,44538,2,0,B|480:112,2,72.0000017166138
400,176,45181,5,0
432,272,45395,1,0
400,288,45502,1,0
368,304,45610,1,0
276,261,45824,2,0,B|180:245,1,72.0000017166138
128,192,46252,1,0
96,208,46359,1,0
64,224,46467,1,0
0,96,46681,2,0,B|80:112,1,72.0000017166138
160,80,47110,1,0
256,112,47324,1,0
352,96,47538,1,0
432,160,47752,2,0,B|384:208|320:208,1,108.000002574921
304,240,48181,2,0,B|216:224,1,72.0000017166138
128,288,48610,6,0,B|208:288|272:352,1,144.000003433228,4|0
352,304,49252,1,0
384,336,49360,2,0,B|432:256,1,72.0000017166138
464,272,49681,2,0,B|512:192,1,72.0000017166138
448,112,50110,1,0
416,128,50217,1,0
384,144,50324,2,0,B|344:152|296:144,1,72.0000017166138
272,128,50645,2,0,B|208:112|160:128,1,108.000002574921
48,128,51181,1,0
64,160,51288,1,0
80,192,51395,1,0
32,272,51610,1,0
128,304,51824,6,0,B|208:256,1,72.0000017166138
224,368,52252,2,0,B|288:320,1,72.0000017166138
368,176,52681,2,0,B|288:240,1,72.0000017166138
320,80,53110,2,0,B|240:144,1,72.0000017166138
112,144,53538,2,0,B|176:88,1,72.0000017166138
80,304,54074,1,0
256,304,54395,2,0,B|328:336,1,72.0000017166138
320,176,55038,6,0,B|424:192,1,72.0000017166138
496,224,55467,2,0,B|472:104,1,108.000002574921,4|0
432,112,55895,2,0,B|464:16,1,72.0000017166138
352,48,56324,2,0,B|240:96,1,108.000002574921
224,128,56752,2,0,B|128:112,1,72.0000017166138
48,144,57181,2,0,B|112:176|128:256,1,108.000002574921
96,256,57610,2,0,B|144:288|229:268,1,108.000002574921
224,240,58038,2,0,B|288:208|384:240,1,144.000003433228
448,304,58681,5,0
464,272,58788,1,0
480,240,58895,2,0,B|512:176|480:80,1,144.000003433228
400,32,59538,1,0
320,96,59752,2,0,B|240:80|176:112,1,144.000003433228
96,176,60395,1,0
64,288,60610,2,0,B|152:264,1,72.0000017166138
160,368,61038,2,0,B|248:384|304:344,1,144.000003433228
368,288,61681,1,0
368,192,61895,1,0
320,112,62110,1,0
240,48,62324,6,0,B|192:176,1,108.000002574921,4|0
176,112,62752,2,0,B|83:80,1,72.0000017166138
32,160,63181,2,0,B|80:192,1,36.0000008583069
144,240,63502,2,0,B|104:264,1,36.0000008583069
176,336,63824,1,0
272,304,64038,2,0,B|352:288|432:336,1,144.000003433228
496,272,64681,1,0
432,192,64895,1,0
400,208,65002,1,0
320,144,65217,1,0
288,160,65324,1,0
208,240,65538,5,0
176,208,65645,1,0
151,170,65752,2,0,B|119:90|183:18,1,144.000003433228
256,80,66395,1,0
336,128,66610,2,0,B|477:104,1,144.000003433228
448,192,67252,1,0
352,224,67467,2,0,B|384:304|336:384,1,144.000003433228
224,320,68110,1,0
224,320,68217,1,0
224,320,68324,2,0,B|192:256|232:168,1,144.000003433228
288,96,68967,5,0
320,112,69074,1,0
352,128,69181,2,0,B|432:128|504:56,1,144.000003433228,4|0
368,32,69824,1,0
272,80,70038,2,0,B|224:32|112:32,1,144.000003433228
48,80,70681,1,0
16,176,70895,2,0,B|48:256,1,72.0000017166138
96,224,71217,2,0,B|144:304,1,72.0000017166138
176,256,71538,2,0,B|240:304,1,72.0000017166138
320,320,71967,1,0
416,304,72181,1,0
480,224,72395,5,0
443,197,72502,1,0
406,170,72610,2,0,B|352:112|262:122,1,144.000003433228
176,144,73252,1,0
80,128,73467,1,0
32,304,73788,1,0
208,272,74110,1,0
288,336,74324,1,0
384,368,74538,2,0,B|480:320|480:240,1,144.000003433228
464,160,75181,1,0
384,80,75395,1,0
288,128,75610,1,0
368,208,75824,5,0
352,240,75931,1,0
336,272,76038,2,0,B|272:240|208:256,1,108.000002574921,4|0
240,304,76467,2,0,B|176:352|100:332,1,144.000003433228
32,272,77110,1,0
0,176,77324,1,0
80,128,77538,1,0
160,176,77752,2,0,B|208:144|288:160,1,108.000002574921
304,160,78181,1,0
368,256,78395,1,0
400,224,78502,2,0,B|448:176|432:96,1,108.000002574921
336,64,79038,6,0,B|248:48,1,72.0000017166138
224,64,79360,1,0
192,96,79467,2,0,B|160:160|48:168,1,144.000003433228
16,256,80110,1,0
112,304,80324,2,0,B|208:288|272:336,1,144.000003433228
352,304,80967,1,0
464,336,81181,2,0,B|432:256,1,72.0000017166138,4|0
400,176,81610,1,0
384,144,81717,1,0
368,112,81824,1,0
288,192,82038,2,0,B|200:192,1,72.0000017166138,4|0
112,192,82467,1,0
80,192,82574,1,0
48,192,82681,1,0
256,192,82895,12,0,84610
256,192,84824,12,4,86324
256,192,86538,12,0,88038
