osu file format v9

[General]
AudioFilename: shiki tvsize.mp3
AudioLeadIn: 1996
PreviewTime: 53742
Countdown: 0
SampleSet: Soft
StackLeniency: 0.6
Mode: 0
LetterboxInBreaks: 0

[Editor]
Bookmarks: 14314,28028,41742,55457,69171,82885,88028
DistanceSpacing: 0.8
BeatDivisor: 2
GridSize: 16

[Metadata]
Title:Calendula Requiem (TV Size)
Artist:kanon*kanon
Creator:AngelHoney
Version:Easy
Source:Shiki
Tags:TW-KUMA01 littlecar3370

[Difficulty]
HPDrainRate:2
CircleSize:3
OverallDifficulty:2
ApproachRate:3
SliderMultiplier:0.7
SliderTickRate:0.5

[Events]
//Background and Video events
0,0,"shiki.jpg"
Video,0,"Shiki.avi"
//Break Periods
2,17952,26598
//Storyboard Layer 0 (Background)
//Storyboard Layer 1 (Fail)
//Storyboard Layer 2 (Pass)
//Storyboard Layer 3 (Foreground)
//Storyboard Sound Samples
//Background Colour Transformations
3,100,0,0,0

[TimingPoints]
610,428.571428571429,4,1,1,50,1,0
1467,-100,4,1,1,30,0,0
2110,-100,4,1,0,40,0,0
3181,-100,4,1,0,30,0,0
3395,-100,4,1,0,40,0,0
3824,-100,4,1,0,50,0,0
4467,-100,4,1,1,20,0,0
4895,-100,4,1,1,50,0,0
5752,-100,4,1,1,60,0,0
6610,-100,4,1,1,40,0,0
6824,-100,4,1,1,50,0,0
7360,-100,4,1,0,60,0,0
8538,-100,4,1,0,50,0,0
9074,-100,4,1,0,46,0,0
10788,-100,4,1,0,60,0,0
11752,-100,4,1,1,30,0,0
12395,-100,4,1,0,60,0,0
14110,-100,4,1,0,80,0,0
14324,-100,4,1,0,80,0,1
14377,-100,4,1,0,80,0,0
17752,-100,4,1,0,40,0,0
27931,-83.3333333333333,4,1,0,50,0,0
41645,-83.3333333333333,4,1,0,60,0,0
41752,-83.3333333333333,4,1,0,60,0,1
41806,-83.3333333333333,4,1,0,60,0,0
53645,-83.3333333333333,4,1,0,70,0,0
53860,-83.3333333333333,4,1,0,80,0,0
54181,-83.3333333333333,4,1,0,90,0,0
54502,-83.3333333333333,4,1,0,80,0,0
54717,-83.3333333333333,4,1,0,60,0,0
55038,-83.3333333333333,4,1,0,70,0,0
55413,-83.3333333333333,4,1,0,90,0,0
55467,-83.3333333333333,4,1,0,90,0,1
55520,-83.3333333333333,4,1,0,90,0,0
55574,-83.3333333333333,4,1,0,70,0,0
56002,-83.3333333333333,4,1,0,60,0,0
69181,-83.3333333333333,4,1,0,60,0,1
69235,-83.3333333333333,4,1,0,60,0,0
81288,-83.3333333333333,4,1,0,30,0,0
81502,-83.3333333333333,4,1,0,60,0,0
81717,-83.3333333333333,4,1,0,30,0,0
81931,-83.3333333333333,4,1,0,60,0,0
82145,-83.3333333333333,4,1,0,30,0,0
82360,-83.3333333333333,4,1,0,60,0,0
82574,-83.3333333333333,4,1,0,30,0,0
82788,-83.3333333333333,4,1,0,60,0,0
82895,-83.3333333333333,4,1,0,60,0,1
84502,-83.3333333333333,4,1,0,60,0,0
84610,-83.3333333333333,4,1,0,60,0,1
86217,-83.3333333333333,4,1,0,60,0,0
86324,-83.3333333333333,4,1,0,60,0,1
87824,-83.3333333333333,4,2,0,0,0,1
88038,-83.3333333333333,4,2,0,0,0,0

[Colours]
Combo1 : 248,211,171
Combo2 : 171,252,203
Combo3 : 175,221,254
Combo4 : 249,254,186
Combo5 : 240,80,80

[HitObjects]
112,112,610,2,0,B|176:64|256:80,1,140
352,256,2324,2,0,B|288:304|208:288,1,140
128,256,3610,1,0
80,176,4038,2,0,B|96:32,3,140
192,80,7038,1,0
272,144,7467,2,0,B|336:96|432:112,1,140,4|0
480,176,8752,1,0
400,240,9181,2,0,B|240:224,1,140
69,132,10895,2,0,B|229:148,1,140
416,96,12610,2,0,B|256:80,1,140
256,192,14324,12,0,17752
80,256,28038,6,0,B|96:160,2,84.0000020027161,4|0|0
192,224,29324,1,0
288,192,29752,2,0,B|384:160,2,84.0000020027161
208,128,31038,1,0
112,144,31467,2,0,B|96:32,1,84.0000020027161
192,32,32324,2,0,B|288:64,1,84.0000020027161
368,96,33181,1,0
464,128,33610,1,0
400,208,34038,2,0,B|384:320,1,84.0000020027161
304,240,34895,6,0,B|208:272|160:368,1,168.000004005432
96,288,36181,1,0
32,208,36610,2,0,B|128:192|224:224,1,168.000004005432
256,144,37895,1,0
336,96,38324,2,0,B|432:112,1,84.0000020027161
368,192,39181,2,0,B|464:208,1,84.0000020027161
480,304,40038,2,0,B|384:288|288:352,1,168.000004005432
112,224,41752,6,0,B|32:160,2,84.0000020027161,4|0|0
220,213,43038,1,0
160,128,43467,2,0,B|80:64,2,84.0000020027161
272,128,44752,1,0
352,64,45181,2,0,B|448:48,1,84.0000020027161
416,144,46038,2,0,B|512:128,1,84.0000020027161
464,224,46895,2,0,B|368:240,2,84.0000020027161
432,320,48181,1,0
336,352,48610,6,0,B|272:304|144:320,1,168.000004005432,4|0
80,336,49895,1,0
16,256,50324,2,0,B|48:160,1,84.0000020027161
80,80,51181,1,0
160,144,51610,1,0
256,96,52038,2,0,B|304:192|432:176,1,168.000004005432
464,256,53324,1,0
368,320,53752,2,0,B|304:256|192:272,1,168.000004005432
112,320,55038,6,0,B|80:224,1,84.0000020027161,0|4
48,144,55895,1,0
144,176,56324,2,0,B|240:128,1,84.0000020027161
316,89,57181,1,0
416,128,57610,1,0
336,208,58038,2,0,B|448:208|496:288,1,168.000004005432
416,352,59324,1,0
304,368,59752,2,0,B|208:352,2,84.0000020027161
288,256,61038,2,0,B|336:160|288:64,1,168.000004005432
192,64,62324,6,0,B|96:96,2,84.0000020027161
176,160,63610,1,0
160,256,64038,2,0,B|64:288,2,84.0000020027161
256,224,65324,1,0
352,272,65752,2,0,B|416:192,1,84.0000020027161
304,160,66610,2,0,B|336:64,1,84.0000020027161
224,64,67467,2,0,B|144:16|32:48,1,168.000004005432
0,128,68752,1,0
80,208,69181,6,0,B|64:304,1,84.0000020027161,4|0
176,272,70038,2,0,B|160:368,1,84.0000020027161
272,336,70895,2,0,B|336:272|448:304,1,168.000004005432
496,224,72181,1,0
416,144,72610,2,0,B|448:32,1,84.0000020027161
320,64,73467,2,0,B|256:112|128:80,2,168.000004005432
352,160,75610,1,0
240,192,76038,6,0,B|144:208,1,84.0000020027161
128,304,76895,2,0,B|240:288,1,84.0000020027161
304,272,77752,1,0
400,256,78181,2,0,B|432:144,2,84.0000020027161
320,176,79467,2,0,B|320:80|416:32,1,168.000004005432
496,80,80752,1,0
432,160,81181,2,0,B|480:240,3,84.0000020027161,4|0|0|0
256,192,82895,12,0,84610
256,192,84824,12,4,86324
256,192,86538,12,0,88038
