osu file format v14

[General]
AudioFilename: audio.mp3
AudioLeadIn: 0
PreviewTime: 76674
Countdown: 0
SampleSet: Soft
StackLeniency: 0.7
Mode: 3
LetterboxInBreaks: 0
SpecialStyle: 0
WidescreenStoryboard: 1

[Editor]
Bookmarks: 105707,106094,107642,109191,111900,112287
DistanceSpacing: 0.8
BeatDivisor: 4
GridSize: 8
TimelineZoom: 2.599999

[Metadata]
Title:CO5M1C R4ILR0AD
TitleUnicode:CO5M1C R4ILR0AD
Artist:kanone
ArtistUnicode:kanone
Creator:Lusty Platypus
Version:4B50LUT3LY N0 5V
Source:BMS
Tags:bms bofu 2016 cosmic railroad
BeatmapID:1153259
BeatmapSetID:544191

[Difficulty]
HPDrainRate:4.2
CircleSize:4
OverallDifficulty:4.2
ApproachRate:5
SliderMultiplier:1.4
SliderTickRate:1

[Events]
//Background and Video events
0,0,"bg.jpg",0,0
//Break Periods
//Storyboard Layer 0 (Background)
//Storyboard Layer 1 (Fail)
//Storyboard Layer 2 (Pass)
//Storyboard Layer 3 (Foreground)
//Storyboard Sound Samples

[TimingPoints]
804,387.096774193548,4,2,0,0,1,0

[HitObjects]
64,192,804,128,0,3658:0:0:0:0:
448,192,2352,128,0,3658:0:0:0:0:
192,192,3707,1,0,0:0:0:0:
448,192,3755,1,0,0:0:0:0:
64,192,3803,1,0,0:0:0:0:
320,192,3852,1,0,0:0:0:0:
192,192,3900,1,0,0:0:0:0:
448,192,3900,1,0,0:0:0:0:
64,192,3900,1,0,0:0:0:0:
448,192,4191,1,0,0:0:0:0:
192,192,4191,1,0,0:0:0:0:
64,192,4191,1,0,0:0:0:0:
448,192,4481,128,0,4674:0:0:0:0:
64,192,4674,1,0,0:0:0:0:
64,192,4771,1,0,0:0:0:0:
64,192,4965,1,0,0:0:0:0:
64,192,6545,1,0,0:0:0:0:
448,192,6610,1,0,0:0:0:0:
320,192,6610,1,0,0:0:0:0:
192,192,6674,1,0,0:0:0:0:
448,192,6739,1,0,0:0:0:0:
320,192,6803,1,0,0:0:0:0:
192,192,6803,1,0,0:0:0:0:
64,192,6803,1,0,0:0:0:0:
448,192,6997,1,0,0:0:0:0:
192,192,6997,1,0,0:0:0:0:
64,192,6997,1,0,0:0:0:0:
448,192,7287,1,0,0:0:0:0:
320,192,7287,1,0,0:0:0:0:
192,192,7287,1,0,0:0:0:0:
64,192,7578,1,0,0:0:0:0:
192,192,7642,1,0,0:0:0:0:
64,192,7707,1,0,0:0:0:0:
192,192,7771,1,0,0:0:0:0:
320,192,7868,1,0,0:0:0:0:
448,192,7965,1,0,0:0:0:0:
64,192,8062,1,0,0:0:0:0:
192,192,8642,1,0,0:0:0:0:
320,192,8836,1,0,0:0:0:0:
448,192,9029,1,0,0:0:0:0:
64,192,9320,1,0,0:0:0:0:
192,192,9416,1,0,0:0:0:0:
320,192,9610,1,0,0:0:0:0:
192,192,9707,1,0,0:0:0:0:
192,192,9900,1,0,0:0:0:0:
320,192,9997,1,0,0:0:0:0:
192,192,10094,1,0,0:0:0:0:
64,192,10094,1,0,0:0:0:0:
448,192,10094,1,0,0:0:0:0:
320,192,10191,1,0,0:0:0:0:
448,192,10287,1,0,0:0:0:0:
192,192,10287,1,0,0:0:0:0:
64,192,10384,1,0,0:0:0:0:
320,192,10481,1,0,0:0:0:0:
448,192,10481,1,0,0:0:0:0:
192,192,10578,1,0,0:0:0:0:
448,192,10674,1,0,0:0:0:0:
64,192,10674,1,0,0:0:0:0:
192,192,10771,1,0,0:0:0:0:
448,192,10868,1,0,0:0:0:0:
320,192,10868,1,0,0:0:0:0:
64,192,10965,1,0,0:0:0:0:
448,192,11062,1,0,0:0:0:0:
192,192,11062,1,0,0:0:0:0:
320,192,11158,1,0,0:0:0:0:
64,192,11255,1,0,0:0:0:0:
448,192,11255,1,0,0:0:0:0:
192,192,11352,1,0,0:0:0:0:
320,192,11449,1,0,0:0:0:0:
448,192,11449,1,0,0:0:0:0:
64,192,11545,1,0,0:0:0:0:
192,192,11642,1,0,0:0:0:0:
448,192,11642,1,0,0:0:0:0:
320,192,11739,1,0,0:0:0:0:
64,192,11836,1,0,0:0:0:0:
448,192,11836,1,0,0:0:0:0:
192,192,11933,1,0,0:0:0:0:
448,192,12029,5,0,0:0:0:0:
320,192,12029,1,0,0:0:0:0:
64,192,12126,1,0,0:0:0:0:
192,192,12223,1,0,0:0:0:0:
320,192,12223,1,0,0:0:0:0:
448,192,12320,1,0,0:0:0:0:
320,192,12416,1,0,0:0:0:0:
64,192,12416,1,0,0:0:0:0:
192,192,12513,1,0,0:0:0:0:
448,192,12610,1,0,0:0:0:0:
320,192,12610,1,0,0:0:0:0:
64,192,12707,1,0,0:0:0:0:
448,192,12803,1,0,0:0:0:0:
192,192,12803,1,0,0:0:0:0:
320,192,12900,1,0,0:0:0:0:
64,192,12997,1,0,0:0:0:0:
192,192,12997,1,0,0:0:0:0:
448,192,13094,1,0,0:0:0:0:
64,192,13191,5,0,0:0:0:0:
192,192,13255,1,0,0:0:0:0:
448,192,13320,1,0,0:0:0:0:
320,192,13384,1,0,0:0:0:0:
192,192,13449,1,0,0:0:0:0:
320,192,13513,1,0,0:0:0:0:
448,192,13578,1,0,0:0:0:0:
64,192,13642,1,0,0:0:0:0:
192,192,13707,1,0,0:0:0:0:
320,192,13771,1,0,0:0:0:0:
448,192,13836,1,0,0:0:0:0:
64,192,13900,1,0,0:0:0:0:
192,192,13965,1,0,0:0:0:0:
320,192,14029,1,0,0:0:0:0:
192,192,14094,1,0,0:0:0:0:
448,192,14158,1,0,0:0:0:0:
320,192,14223,1,0,0:0:0:0:
192,192,14287,1,0,0:0:0:0:
64,192,14352,1,0,0:0:0:0:
320,192,14416,1,0,0:0:0:0:
192,192,14481,1,0,0:0:0:0:
448,192,14545,1,0,0:0:0:0:
64,192,14610,1,0,0:0:0:0:
192,192,14674,1,0,0:0:0:0:
320,192,14739,1,0,0:0:0:0:
448,192,14739,1,0,0:0:0:0:
320,192,15900,1,0,0:0:0:0:
448,192,15965,1,0,0:0:0:0:
320,192,16029,1,0,0:0:0:0:
64,192,16094,1,0,0:0:0:0:
64,192,16191,1,0,0:0:0:0:
192,192,16287,1,0,0:0:0:0:
448,192,16287,1,0,0:0:0:0:
320,192,16287,1,0,0:0:0:0:
192,192,16481,1,0,0:0:0:0:
448,192,16578,1,0,0:0:0:0:
320,192,16674,1,0,0:0:0:0:
64,192,16674,1,0,0:0:0:0:
192,192,16868,1,0,0:0:0:0:
320,192,16965,1,0,0:0:0:0:
64,192,17062,128,0,17110:0:0:0:0:
192,192,17062,1,0,0:0:0:0:
448,192,17062,1,0,0:0:0:0:
64,192,17158,128,0,17207:0:0:0:0:
320,192,17255,128,0,17303:0:0:0:0:
320,192,17352,128,0,17400:0:0:0:0:
448,192,17449,128,0,17642:0:0:0:0:
192,192,17449,1,0,0:0:0:0:
64,192,17449,1,0,0:0:0:0:
192,192,17642,128,0,17836:0:0:0:0:
64,192,17836,1,0,0:0:0:0:
320,192,17836,1,0,0:0:0:0:
448,192,17900,1,0,0:0:0:0:
192,192,17965,1,0,0:0:0:0:
320,192,18029,1,0,0:0:0:0:
64,192,18126,1,0,0:0:0:0:
320,192,18223,1,0,0:0:0:0:
448,192,18320,1,0,0:0:0:0:
192,192,18416,128,0,18610:0:0:0:0:
64,192,18610,1,0,0:0:0:0:
320,192,18707,1,0,0:0:0:0:
192,192,18803,1,0,0:0:0:0:
448,192,18900,1,0,0:0:0:0:
192,192,18997,1,0,0:0:0:0:
64,192,18997,1,0,0:0:0:0:
320,192,18997,128,0,19045:0:0:0:0:
320,192,19094,128,0,19142:0:0:0:0:
448,192,19191,128,0,19239:0:0:0:0:
448,192,19287,128,0,19336:0:0:0:0:
192,192,19384,1,0,0:0:0:0:
64,192,19384,1,0,0:0:0:0:
448,192,19771,1,0,0:0:0:0:
320,192,19771,1,0,0:0:0:0:
320,192,20062,1,0,0:0:0:0:
192,192,20062,1,0,0:0:0:0:
64,192,20352,1,0,0:0:0:0:
320,192,20449,1,0,0:0:0:0:
192,192,20545,1,0,0:0:0:0:
320,192,20739,1,0,0:0:0:0:
448,192,20933,1,0,0:0:0:0:
192,192,20933,1,0,0:0:0:0:
64,192,21126,128,0,21174:0:0:0:0:
64,192,21223,128,0,21271:0:0:0:0:
192,192,21320,1,0,0:0:0:0:
320,192,21320,1,0,0:0:0:0:
448,192,21513,128,0,21562:0:0:0:0:
448,192,21610,128,0,21658:0:0:0:0:
64,192,21707,1,0,0:0:0:0:
320,192,21707,1,0,0:0:0:0:
192,192,21803,128,0,21900:0:0:0:0:
448,192,21900,128,0,21949:0:0:0:0:
448,192,21997,128,0,22045:0:0:0:0:
64,192,22094,1,0,0:0:0:0:
320,192,22094,128,0,22481:0:0:0:0:
64,192,22481,1,0,0:0:0:0:
448,192,22481,1,0,0:0:0:0:
192,192,22481,1,0,0:0:0:0:
320,192,22674,1,0,0:0:0:0:
64,192,22771,1,0,0:0:0:0:
448,192,22868,1,0,0:0:0:0:
192,192,22965,1,0,0:0:0:0:
448,192,23062,1,0,0:0:0:0:
64,192,23158,1,0,0:0:0:0:
448,192,23255,1,0,0:0:0:0:
320,192,23352,1,0,0:0:0:0:
192,192,23449,1,0,0:0:0:0:
320,192,23545,1,0,0:0:0:0:
192,192,23642,1,0,0:0:0:0:
64,192,23739,1,0,0:0:0:0:
448,192,23836,1,0,0:0:0:0:
64,192,24029,1,0,0:0:0:0:
192,192,24126,1,0,0:0:0:0:
320,192,24223,128,0,24416:0:0:0:0:
448,192,24320,128,0,24416:0:0:0:0:
192,192,24416,1,0,0:0:0:0:
64,192,24416,1,0,0:0:0:0:
320,192,24513,1,0,0:0:0:0:
192,192,24610,128,0,24803:0:0:0:0:
64,192,24707,128,0,24803:0:0:0:0:
448,192,24803,1,0,0:0:0:0:
320,192,24803,1,0,0:0:0:0:
64,192,24900,1,0,0:0:0:0:
192,192,24997,128,0,25191:0:0:0:0:
320,192,25094,128,0,25191:0:0:0:0:
192,192,25384,1,0,0:0:0:0:
64,192,25384,1,0,0:0:0:0:
320,192,25449,1,0,0:0:0:0:
448,192,25449,1,0,0:0:0:0:
192,192,25513,1,0,0:0:0:0:
64,192,25513,1,0,0:0:0:0:
320,192,25578,1,0,0:0:0:0:
448,192,25578,1,0,0:0:0:0:
64,192,25674,1,0,0:0:0:0:
192,192,25771,128,0,25965:0:0:0:0:
448,192,25965,1,0,0:0:0:0:
320,192,25965,1,0,0:0:0:0:
64,192,26062,1,0,0:0:0:0:
320,192,26158,128,0,26255:0:0:0:0:
192,192,26255,128,0,26352:0:0:0:0:
64,192,26352,1,0,0:0:0:0:
448,192,26352,1,0,0:0:0:0:
320,192,26449,1,0,0:0:0:0:
64,192,26545,128,0,26739:0:0:0:0:
192,192,26545,128,0,26642:0:0:0:0:
448,192,26642,128,0,26739:0:0:0:0:
64,192,27126,128,0,27610:0:0:0:0:
448,192,27126,128,0,27707:0:0:0:0:
192,192,27320,128,0,27610:0:0:0:0:
320,192,27513,128,0,27707:0:0:0:0:
192,192,27707,128,0,27803:0:0:0:0:
64,192,27707,128,0,27803:0:0:0:0:
320,192,27803,128,0,27997:0:0:0:0:
448,192,27803,128,0,28191:0:0:0:0:
192,192,27900,128,0,27997:0:0:0:0:
64,192,27900,128,0,28384:0:0:0:0:
192,192,28094,128,0,28384:0:0:0:0:
320,192,28094,128,0,28384:0:0:0:0:
448,192,28287,128,0,28384:0:0:0:0:
192,192,28481,128,0,28674:0:0:0:0:
320,192,28481,128,0,28674:0:0:0:0:
448,192,28481,128,0,28674:0:0:0:0:
64,192,28481,128,0,28674:0:0:0:0:
192,192,28771,1,0,0:0:0:0:
320,192,28868,128,0,28965:0:0:0:0:
448,192,28868,128,0,28965:0:0:0:0:
320,192,29062,1,0,0:0:0:0:
192,192,29062,1,0,0:0:0:0:
64,192,29062,1,0,0:0:0:0:
448,192,29255,128,0,29303:0:0:0:0:
448,192,29352,128,0,29400:0:0:0:0:
192,192,29449,1,0,0:0:0:0:
64,192,29545,1,0,0:0:0:0:
320,192,29642,1,0,0:0:0:0:
448,192,29739,1,0,0:0:0:0:
192,192,29836,1,0,0:0:0:0:
64,192,29836,1,0,0:0:0:0:
320,192,30029,128,0,30223:0:0:0:0:
192,192,30223,1,0,0:0:0:0:
64,192,30223,1,0,0:0:0:0:
448,192,30416,1,0,0:0:0:0:
320,192,30610,1,0,0:0:0:0:
192,192,30610,1,0,0:0:0:0:
64,192,30803,1,0,0:0:0:0:
64,192,30997,1,0,0:0:0:0:
192,192,31094,1,0,0:0:0:0:
320,192,31191,1,0,0:0:0:0:
448,192,31287,1,0,0:0:0:0:
192,192,31384,128,0,31433:0:0:0:0:
320,192,31384,128,0,31433:0:0:0:0:
320,192,31481,128,0,31529:0:0:0:0:
192,192,31481,128,0,31529:0:0:0:0:
64,192,31578,128,0,31626:0:0:0:0:
448,192,31578,128,0,31626:0:0:0:0:
448,192,31674,128,0,31723:0:0:0:0:
64,192,31674,128,0,31723:0:0:0:0:
192,192,31771,1,0,0:0:0:0:
320,192,31771,1,0,0:0:0:0:
192,192,32158,1,0,0:0:0:0:
448,192,32158,1,0,0:0:0:0:
320,192,32449,1,0,0:0:0:0:
192,192,32449,1,0,0:0:0:0:
64,192,32642,1,0,0:0:0:0:
448,192,32836,1,0,0:0:0:0:
192,192,32933,1,0,0:0:0:0:
320,192,33126,1,0,0:0:0:0:
192,192,33320,1,0,0:0:0:0:
64,192,33320,1,0,0:0:0:0:
320,192,33513,128,0,33562:0:0:0:0:
320,192,33610,128,0,33658:0:0:0:0:
448,192,33707,1,0,0:0:0:0:
192,192,33707,1,0,0:0:0:0:
64,192,33900,128,0,33949:0:0:0:0:
64,192,33997,128,0,34045:0:0:0:0:
192,192,34094,1,0,0:0:0:0:
320,192,34094,1,0,0:0:0:0:
64,192,34287,1,0,0:0:0:0:
320,192,34352,1,0,0:0:0:0:
192,192,34416,1,0,0:0:0:0:
448,192,34481,1,0,0:0:0:0:
192,192,34674,1,0,0:0:0:0:
320,192,34674,1,0,0:0:0:0:
64,192,34868,1,0,0:0:0:0:
448,192,34868,1,0,0:0:0:0:
192,192,35062,1,0,0:0:0:0:
320,192,35158,1,0,0:0:0:0:
64,192,35255,1,0,0:0:0:0:
192,192,35352,1,0,0:0:0:0:
448,192,35449,1,0,0:0:0:0:
320,192,35513,1,0,0:0:0:0:
192,192,35578,1,0,0:0:0:0:
64,192,35642,1,0,0:0:0:0:
192,192,35739,1,0,0:0:0:0:
448,192,35836,1,0,0:0:0:0:
64,192,35933,1,0,0:0:0:0:
320,192,36029,1,0,0:0:0:0:
192,192,36126,1,0,0:0:0:0:
448,192,36223,1,0,0:0:0:0:
64,192,36320,1,0,0:0:0:0:
320,192,36416,1,0,0:0:0:0:
448,192,36416,1,0,0:0:0:0:
64,192,36610,128,0,36658:0:0:0:0:
64,192,36707,128,0,36755:0:0:0:0:
192,192,36803,1,0,0:0:0:0:
320,192,36803,1,0,0:0:0:0:
448,192,36997,128,0,37045:0:0:0:0:
448,192,37094,128,0,37142:0:0:0:0:
320,192,37191,1,0,0:0:0:0:
192,192,37191,1,0,0:0:0:0:
64,192,37384,128,0,37433:0:0:0:0:
64,192,37481,128,0,37529:0:0:0:0:
192,192,37771,1,0,0:0:0:0:
64,192,37771,1,0,0:0:0:0:
320,192,37820,1,0,0:0:0:0:
448,192,37820,1,0,0:0:0:0:
192,192,37868,1,0,0:0:0:0:
64,192,37868,1,0,0:0:0:0:
320,192,37916,1,0,0:0:0:0:
448,192,37916,1,0,0:0:0:0:
192,192,37965,1,0,0:0:0:0:
64,192,37965,1,0,0:0:0:0:
448,192,38352,1,0,0:0:0:0:
320,192,38352,1,0,0:0:0:0:
64,192,38352,1,0,0:0:0:0:
192,192,38739,1,0,0:0:0:0:
64,192,38739,1,0,0:0:0:0:
448,192,38739,1,0,0:0:0:0:
320,192,38739,128,0,38787:0:0:0:0:
320,192,38836,128,0,38884:0:0:0:0:
192,192,38933,128,0,38981:0:0:0:0:
64,192,38933,128,0,38981:0:0:0:0:
448,192,38933,128,0,38981:0:0:0:0:
64,192,39029,128,0,39078:0:0:0:0:
192,192,39223,128,0,39320:0:0:0:0:
320,192,39320,128,0,39513:0:0:0:0:
448,192,39416,128,0,39513:0:0:0:0:
192,192,39513,128,0,40674:0:0:0:0:
64,192,39513,128,0,40674:0:0:0:0:
320,192,40287,128,0,40674:0:0:0:0:
448,192,40481,128,0,40674:0:0:0:0:
64,192,41062,5,0,0:0:0:0:
192,192,41062,1,0,0:0:0:0:
448,192,41062,1,0,0:0:0:0:
320,192,41449,1,0,0:0:0:0:
192,192,41449,1,0,0:0:0:0:
320,192,42029,1,0,0:0:0:0:
64,192,42029,1,0,0:0:0:0:
192,192,42223,1,0,0:0:0:0:
320,192,42223,1,0,0:0:0:0:
448,192,42223,1,0,0:0:0:0:
320,192,42610,1,0,0:0:0:0:
64,192,42610,1,0,0:0:0:0:
320,192,42803,1,0,0:0:0:0:
192,192,42803,1,0,0:0:0:0:
448,192,42997,1,0,0:0:0:0:
192,192,42997,1,0,0:0:0:0:
64,192,43578,1,0,0:0:0:0:
320,192,43578,1,0,0:0:0:0:
448,192,43771,1,0,0:0:0:0:
192,192,43771,1,0,0:0:0:0:
64,192,43771,1,0,0:0:0:0:
448,192,44158,1,0,0:0:0:0:
320,192,44158,1,0,0:0:0:0:
448,192,44545,1,0,0:0:0:0:
320,192,44545,1,0,0:0:0:0:
64,192,44545,1,0,0:0:0:0:
192,192,45126,1,0,0:0:0:0:
64,192,45126,1,0,0:0:0:0:
448,192,45320,1,0,0:0:0:0:
320,192,45320,1,0,0:0:0:0:
192,192,45320,1,0,0:0:0:0:
448,192,45707,5,0,0:0:0:0:
320,192,45707,1,0,0:0:0:0:
64,192,45707,1,0,0:0:0:0:
192,192,45707,1,0,0:0:0:0:
448,192,45900,5,0,0:0:0:0:
320,192,45965,1,0,0:0:0:0:
192,192,46029,1,0,0:0:0:0:
64,192,46094,1,0,0:0:0:0:
192,192,46191,1,0,0:0:0:0:
448,192,46287,1,0,0:0:0:0:
320,192,46384,1,0,0:0:0:0:
64,192,46481,1,0,0:0:0:0:
320,192,46868,5,0,0:0:0:0:
448,192,46868,1,0,0:0:0:0:
192,192,46965,1,0,0:0:0:0:
64,192,46965,1,0,0:0:0:0:
320,192,47062,1,0,0:0:0:0:
448,192,47062,1,0,0:0:0:0:
64,192,47158,1,0,0:0:0:0:
192,192,47158,1,0,0:0:0:0:
320,192,47255,1,0,0:0:0:0:
448,192,47255,1,0,0:0:0:0:
192,192,47449,1,0,0:0:0:0:
64,192,47449,1,0,0:0:0:0:
320,192,47513,1,0,0:0:0:0:
448,192,47578,1,0,0:0:0:0:
192,192,47642,1,0,0:0:0:0:
64,192,47642,1,0,0:0:0:0:
320,192,47642,1,0,0:0:0:0:
320,192,47739,1,0,0:0:0:0:
192,192,47739,1,0,0:0:0:0:
64,192,47739,1,0,0:0:0:0:
192,192,47933,1,0,0:0:0:0:
320,192,47933,1,0,0:0:0:0:
448,192,47933,1,0,0:0:0:0:
192,192,48126,1,0,0:0:0:0:
64,192,48126,1,0,0:0:0:0:
320,192,48223,1,0,0:0:0:0:
448,192,48223,1,0,0:0:0:0:
320,192,48416,1,0,0:0:0:0:
64,192,48416,1,0,0:0:0:0:
192,192,48416,1,0,0:0:0:0:
448,192,48610,1,0,0:0:0:0:
320,192,48610,1,0,0:0:0:0:
320,192,48707,1,0,0:0:0:0:
448,192,48707,1,0,0:0:0:0:
192,192,48900,1,0,0:0:0:0:
320,192,48900,1,0,0:0:0:0:
64,192,48997,1,0,0:0:0:0:
448,192,48997,1,0,0:0:0:0:
192,192,49062,1,0,0:0:0:0:
320,192,49126,1,0,0:0:0:0:
448,192,49191,1,0,0:0:0:0:
192,192,49191,1,0,0:0:0:0:
64,192,49191,1,0,0:0:0:0:
448,192,49384,1,0,0:0:0:0:
192,192,49384,1,0,0:0:0:0:
64,192,49384,1,0,0:0:0:0:
448,192,49481,5,0,0:0:0:0:
64,192,49481,1,0,0:0:0:0:
448,192,49674,1,0,0:0:0:0:
64,192,49674,1,0,0:0:0:0:
448,192,49868,1,0,0:0:0:0:
64,192,49868,1,0,0:0:0:0:
64,192,50062,1,0,0:0:0:0:
448,192,50062,1,0,0:0:0:0:
448,192,50255,1,0,0:0:0:0:
64,192,50255,1,0,0:0:0:0:
192,192,50352,1,0,0:0:0:0:
320,192,50400,1,0,0:0:0:0:
448,192,50449,1,0,0:0:0:0:
64,192,50497,1,0,0:0:0:0:
192,192,50545,1,0,0:0:0:0:
448,192,50642,1,0,0:0:0:0:
320,192,50691,1,0,0:0:0:0:
192,192,50739,1,0,0:0:0:0:
64,192,50787,1,0,0:0:0:0:
448,192,50836,1,0,0:0:0:0:
320,192,50884,1,0,0:0:0:0:
192,192,50933,1,0,0:0:0:0:
64,192,50981,1,0,0:0:0:0:
448,192,51029,1,0,0:0:0:0:
320,192,51078,1,0,0:0:0:0:
192,192,51126,1,0,0:0:0:0:
64,192,51126,1,0,0:0:0:0:
192,192,51255,1,0,0:0:0:0:
64,192,51255,1,0,0:0:0:0:
192,192,51384,1,0,0:0:0:0:
64,192,51384,1,0,0:0:0:0:
320,192,51513,1,0,0:0:0:0:
448,192,51513,1,0,0:0:0:0:
448,192,51642,1,0,0:0:0:0:
320,192,51642,1,0,0:0:0:0:
448,192,51771,1,0,0:0:0:0:
320,192,51771,1,0,0:0:0:0:
64,192,52094,1,0,0:0:0:0:
192,192,52094,1,0,0:0:0:0:
320,192,52142,1,0,0:0:0:0:
448,192,52142,1,0,0:0:0:0:
192,192,52191,1,0,0:0:0:0:
64,192,52191,1,0,0:0:0:0:
320,192,52239,1,0,0:0:0:0:
448,192,52239,1,0,0:0:0:0:
192,192,52287,1,0,0:0:0:0:
64,192,52287,1,0,0:0:0:0:
192,192,52578,1,0,0:0:0:0:
64,192,52578,1,0,0:0:0:0:
192,192,52868,1,0,0:0:0:0:
64,192,52868,1,0,0:0:0:0:
64,192,53449,1,0,0:0:0:0:
448,192,53449,1,0,0:0:0:0:
320,192,53642,1,0,0:0:0:0:
192,192,53836,1,0,0:0:0:0:
448,192,54029,1,0,0:0:0:0:
192,192,54223,1,0,0:0:0:0:
64,192,54223,1,0,0:0:0:0:
448,192,54416,1,0,0:0:0:0:
192,192,54610,1,0,0:0:0:0:
64,192,54803,1,0,0:0:0:0:
320,192,54997,1,0,0:0:0:0:
448,192,54997,1,0,0:0:0:0:
192,192,55191,1,0,0:0:0:0:
448,192,55384,1,0,0:0:0:0:
320,192,55578,1,0,0:0:0:0:
192,192,55771,1,0,0:0:0:0:
448,192,55771,1,0,0:0:0:0:
64,192,55965,1,0,0:0:0:0:
320,192,56158,1,0,0:0:0:0:
192,192,56352,1,0,0:0:0:0:
448,192,56545,1,0,0:0:0:0:
64,192,56545,1,0,0:0:0:0:
320,192,56739,1,0,0:0:0:0:
192,192,56933,1,0,0:0:0:0:
448,192,57126,1,0,0:0:0:0:
64,192,57320,1,0,0:0:0:0:
192,192,57320,1,0,0:0:0:0:
320,192,57513,1,0,0:0:0:0:
64,192,57707,1,0,0:0:0:0:
448,192,57900,1,0,0:0:0:0:
320,192,58094,1,0,0:0:0:0:
192,192,58094,1,0,0:0:0:0:
64,192,58287,1,0,0:0:0:0:
448,192,58481,1,0,0:0:0:0:
320,192,58674,1,0,0:0:0:0:
192,192,58868,1,0,0:0:0:0:
448,192,58868,1,0,0:0:0:0:
64,192,59062,1,0,0:0:0:0:
448,192,59255,128,0,59642:0:0:0:0:
192,192,59642,1,0,0:0:0:0:
64,192,59642,1,0,0:0:0:0:
320,192,59836,1,0,0:0:0:0:
448,192,60029,1,0,0:0:0:0:
64,192,60223,1,0,0:0:0:0:
448,192,60416,1,0,0:0:0:0:
320,192,60416,1,0,0:0:0:0:
192,192,60610,1,0,0:0:0:0:
64,192,60803,1,0,0:0:0:0:
448,192,60997,1,0,0:0:0:0:
192,192,61191,1,0,0:0:0:0:
320,192,61191,1,0,0:0:0:0:
64,192,61384,1,0,0:0:0:0:
448,192,61578,1,0,0:0:0:0:
192,192,61771,1,0,0:0:0:0:
320,192,61965,1,0,0:0:0:0:
64,192,61965,1,0,0:0:0:0:
448,192,62158,1,0,0:0:0:0:
64,192,62352,1,0,0:0:0:0:
320,192,62545,1,0,0:0:0:0:
192,192,62739,1,0,0:0:0:0:
64,192,62739,1,0,0:0:0:0:
448,192,62933,1,0,0:0:0:0:
320,192,63126,1,0,0:0:0:0:
192,192,63320,1,0,0:0:0:0:
448,192,63513,1,0,0:0:0:0:
64,192,63513,1,0,0:0:0:0:
320,192,63707,1,0,0:0:0:0:
192,192,63900,1,0,0:0:0:0:
64,192,64094,1,0,0:0:0:0:
448,192,64287,1,0,0:0:0:0:
448,192,64384,1,0,0:0:0:0:
192,192,64481,1,0,0:0:0:0:
320,192,64481,1,0,0:0:0:0:
64,192,64481,1,0,0:0:0:0:
192,192,65836,5,0,0:0:0:0:
320,192,65836,1,0,0:0:0:0:
192,192,66223,1,0,0:0:0:0:
320,192,66223,1,0,0:0:0:0:
320,192,66610,1,0,0:0:0:0:
192,192,66610,1,0,0:0:0:0:
192,192,66997,1,0,0:0:0:0:
320,192,66997,1,0,0:0:0:0:
320,192,67384,1,0,0:0:0:0:
192,192,67384,1,0,0:0:0:0:
192,192,67771,1,0,0:0:0:0:
320,192,67771,1,0,0:0:0:0:
320,192,68158,1,0,0:0:0:0:
192,192,68158,1,0,0:0:0:0:
192,192,68545,1,0,0:0:0:0:
320,192,68545,1,0,0:0:0:0:
320,192,68933,1,0,0:0:0:0:
192,192,68933,1,0,0:0:0:0:
192,192,69320,1,0,0:0:0:0:
320,192,69320,1,0,0:0:0:0:
320,192,69707,1,0,0:0:0:0:
192,192,69707,1,0,0:0:0:0:
192,192,70094,1,0,0:0:0:0:
320,192,70094,1,0,0:0:0:0:
320,192,70481,1,0,0:0:0:0:
192,192,70481,1,0,0:0:0:0:
192,192,70868,1,0,0:0:0:0:
320,192,70868,1,0,0:0:0:0:
192,192,71255,1,0,0:0:0:0:
320,192,71255,1,0,0:0:0:0:
448,192,72029,1,0,0:0:0:0:
320,192,72029,1,0,0:0:0:0:
192,192,72029,1,0,0:0:0:0:
64,192,72029,1,0,0:0:0:0:
448,192,72223,1,0,0:0:0:0:
320,192,72223,1,0,0:0:0:0:
192,192,72223,1,0,0:0:0:0:
64,192,72223,1,0,0:0:0:0:
64,192,72416,1,0,0:0:0:0:
192,192,72416,1,0,0:0:0:0:
320,192,72416,1,0,0:0:0:0:
448,192,72416,1,0,0:0:0:0:
448,192,72610,1,0,0:0:0:0:
320,192,72610,1,0,0:0:0:0:
192,192,72610,1,0,0:0:0:0:
64,192,72610,1,0,0:0:0:0:
64,192,72803,1,0,0:0:0:0:
192,192,72803,1,0,0:0:0:0:
320,192,72803,1,0,0:0:0:0:
448,192,72803,1,0,0:0:0:0:
448,192,72997,1,0,0:0:0:0:
320,192,72997,1,0,0:0:0:0:
192,192,72997,1,0,0:0:0:0:
64,192,72997,1,0,0:0:0:0:
64,192,73191,1,0,0:0:0:0:
320,192,73191,1,0,0:0:0:0:
192,192,73191,1,0,0:0:0:0:
448,192,73191,1,0,0:0:0:0:
448,192,73384,1,0,0:0:0:0:
320,192,73384,1,0,0:0:0:0:
192,192,73384,1,0,0:0:0:0:
64,192,73384,1,0,0:0:0:0:
64,192,73578,1,0,0:0:0:0:
192,192,73578,1,0,0:0:0:0:
448,192,73578,1,0,0:0:0:0:
320,192,73578,1,0,0:0:0:0:
448,192,73771,1,0,0:0:0:0:
320,192,73771,1,0,0:0:0:0:
192,192,73771,1,0,0:0:0:0:
64,192,73771,1,0,0:0:0:0:
64,192,73965,1,0,0:0:0:0:
192,192,73965,1,0,0:0:0:0:
320,192,73965,1,0,0:0:0:0:
448,192,73965,1,0,0:0:0:0:
448,192,74158,1,0,0:0:0:0:
320,192,74158,1,0,0:0:0:0:
192,192,74158,1,0,0:0:0:0:
64,192,74158,1,0,0:0:0:0:
64,192,74352,1,0,0:0:0:0:
192,192,74352,1,0,0:0:0:0:
320,192,74352,1,0,0:0:0:0:
448,192,74352,1,0,0:0:0:0:
448,192,74545,1,0,0:0:0:0:
320,192,74545,1,0,0:0:0:0:
192,192,74545,1,0,0:0:0:0:
64,192,74545,1,0,0:0:0:0:
64,192,74739,1,0,0:0:0:0:
320,192,74739,1,0,0:0:0:0:
448,192,74739,1,0,0:0:0:0:
192,192,74739,1,0,0:0:0:0:
448,192,74933,1,0,0:0:0:0:
192,192,74933,1,0,0:0:0:0:
64,192,74933,1,0,0:0:0:0:
320,192,74933,1,0,0:0:0:0:
64,192,75126,1,0,0:0:0:0:
64,192,75223,1,0,0:0:0:0:
448,192,75513,1,0,0:0:0:0:
320,192,75513,1,0,0:0:0:0:
320,192,75610,1,0,0:0:0:0:
448,192,75610,1,0,0:0:0:0:
64,192,75900,1,0,0:0:0:0:
192,192,75949,1,0,0:0:0:0:
320,192,75997,1,0,0:0:0:0:
448,192,76045,1,0,0:0:0:0:
64,192,76094,1,0,0:0:0:0:
192,192,76142,1,0,0:0:0:0:
320,192,76191,1,0,0:0:0:0:
448,192,76239,1,0,0:0:0:0:
64,192,76287,1,0,0:0:0:0:
192,192,76336,1,0,0:0:0:0:
320,192,76384,1,0,0:0:0:0:
448,192,76433,1,0,0:0:0:0:
64,192,76481,1,0,0:0:0:0:
192,192,76529,1,0,0:0:0:0:
320,192,76578,1,0,0:0:0:0:
448,192,76626,1,0,0:0:0:0:
448,192,78223,1,0,0:0:0:0:
320,192,78223,1,0,0:0:0:0:
64,192,78223,1,0,0:0:0:0:
192,192,78223,1,0,0:0:0:0:
192,192,78320,1,0,0:0:0:0:
320,192,78416,1,0,0:0:0:0:
448,192,78513,1,0,0:0:0:0:
192,192,78610,1,0,0:0:0:0:
64,192,78610,1,0,0:0:0:0:
320,192,78707,1,0,0:0:0:0:
64,192,78803,1,0,0:0:0:0:
448,192,78900,128,0,79094:0:0:0:0:
192,192,78900,1,0,0:0:0:0:
64,192,78997,1,0,0:0:0:0:
320,192,78997,1,0,0:0:0:0:
192,192,79094,1,0,0:0:0:0:
64,192,79191,1,0,0:0:0:0:
320,192,79287,1,0,0:0:0:0:
192,192,79384,1,0,0:0:0:0:
64,192,79384,1,0,0:0:0:0:
320,192,79481,1,0,0:0:0:0:
448,192,79578,1,0,0:0:0:0:
64,192,79674,128,0,79868:0:0:0:0:
320,192,79674,1,0,0:0:0:0:
192,192,79771,1,0,0:0:0:0:
448,192,79771,1,0,0:0:0:0:
320,192,79868,1,0,0:0:0:0:
192,192,79965,1,0,0:0:0:0:
64,192,80062,1,0,0:0:0:0:
320,192,80158,1,0,0:0:0:0:
448,192,80158,1,0,0:0:0:0:
192,192,80255,1,0,0:0:0:0:
448,192,80352,1,0,0:0:0:0:
320,192,80449,1,0,0:0:0:0:
192,192,80545,1,0,0:0:0:0:
64,192,80545,1,0,0:0:0:0:
448,192,80642,1,0,0:0:0:0:
320,192,80739,1,0,0:0:0:0:
64,192,80836,1,0,0:0:0:0:
320,192,80933,1,0,0:0:0:0:
448,192,80933,1,0,0:0:0:0:
192,192,81029,1,0,0:0:0:0:
64,192,81126,1,0,0:0:0:0:
320,192,81223,1,0,0:0:0:0:
192,192,81320,1,0,0:0:0:0:
448,192,81320,1,0,0:0:0:0:
64,192,81416,1,0,0:0:0:0:
320,192,81513,1,0,0:0:0:0:
192,192,81610,1,0,0:0:0:0:
64,192,81707,1,0,0:0:0:0:
448,192,81707,1,0,0:0:0:0:
320,192,81803,1,0,0:0:0:0:
64,192,81900,1,0,0:0:0:0:
320,192,81997,128,0,82191:0:0:0:0:
192,192,81997,1,0,0:0:0:0:
448,192,82094,1,0,0:0:0:0:
64,192,82094,1,0,0:0:0:0:
192,192,82191,1,0,0:0:0:0:
448,192,82287,1,0,0:0:0:0:
320,192,82384,1,0,0:0:0:0:
192,192,82481,1,0,0:0:0:0:
64,192,82481,1,0,0:0:0:0:
448,192,82578,1,0,0:0:0:0:
320,192,82674,1,0,0:0:0:0:
64,192,82771,1,0,0:0:0:0:
320,192,82868,1,0,0:0:0:0:
448,192,82868,1,0,0:0:0:0:
192,192,82965,1,0,0:0:0:0:
320,192,83062,1,0,0:0:0:0:
64,192,83158,128,0,83352:0:0:0:0:
448,192,83158,1,0,0:0:0:0:
192,192,83255,1,0,0:0:0:0:
320,192,83255,1,0,0:0:0:0:
448,192,83352,1,0,0:0:0:0:
320,192,83449,1,0,0:0:0:0:
64,192,83545,1,0,0:0:0:0:
192,192,83642,1,0,0:0:0:0:
448,192,83642,1,0,0:0:0:0:
320,192,83739,1,0,0:0:0:0:
64,192,83836,1,0,0:0:0:0:
192,192,83933,1,0,0:0:0:0:
448,192,84029,1,0,0:0:0:0:
64,192,84029,1,0,0:0:0:0:
320,192,84094,1,0,0:0:0:0:
192,192,84158,1,0,0:0:0:0:
320,192,84223,1,0,0:0:0:0:
192,192,84287,1,0,0:0:0:0:
64,192,84352,1,0,0:0:0:0:
448,192,84416,1,0,0:0:0:0:
320,192,84416,1,0,0:0:0:0:
64,192,84513,1,0,0:0:0:0:
192,192,84610,1,0,0:0:0:0:
64,192,84707,1,0,0:0:0:0:
320,192,84803,1,0,0:0:0:0:
448,192,84803,1,0,0:0:0:0:
192,192,84900,1,0,0:0:0:0:
448,192,84997,1,0,0:0:0:0:
64,192,85094,128,0,85287:0:0:0:0:
320,192,85094,1,0,0:0:0:0:
192,192,85191,1,0,0:0:0:0:
448,192,85191,1,0,0:0:0:0:
320,192,85287,1,0,0:0:0:0:
448,192,85384,1,0,0:0:0:0:
192,192,85481,1,0,0:0:0:0:
320,192,85578,1,0,0:0:0:0:
448,192,85578,1,0,0:0:0:0:
192,192,85674,1,0,0:0:0:0:
64,192,85771,1,0,0:0:0:0:
448,192,85868,128,0,86062:0:0:0:0:
192,192,85868,1,0,0:0:0:0:
64,192,85965,1,0,0:0:0:0:
320,192,85965,1,0,0:0:0:0:
192,192,86062,1,0,0:0:0:0:
320,192,86158,1,0,0:0:0:0:
448,192,86255,1,0,0:0:0:0:
192,192,86352,1,0,0:0:0:0:
64,192,86352,1,0,0:0:0:0:
320,192,86449,1,0,0:0:0:0:
64,192,86545,1,0,0:0:0:0:
192,192,86642,1,0,0:0:0:0:
448,192,86739,1,0,0:0:0:0:
320,192,86739,1,0,0:0:0:0:
64,192,86836,1,0,0:0:0:0:
192,192,86933,1,0,0:0:0:0:
448,192,87029,1,0,0:0:0:0:
64,192,87126,1,0,0:0:0:0:
320,192,87126,1,0,0:0:0:0:
192,192,87223,1,0,0:0:0:0:
448,192,87320,1,0,0:0:0:0:
320,192,87320,1,0,0:0:0:0:
64,192,87384,1,0,0:0:0:0:
192,192,87384,1,0,0:0:0:0:
448,192,87449,1,0,0:0:0:0:
320,192,87449,1,0,0:0:0:0:
192,192,87513,1,0,0:0:0:0:
64,192,87513,1,0,0:0:0:0:
320,192,87578,1,0,0:0:0:0:
64,192,87642,1,0,0:0:0:0:
448,192,87707,1,0,0:0:0:0:
320,192,87771,1,0,0:0:0:0:
64,192,87836,1,0,0:0:0:0:
192,192,87900,1,0,0:0:0:0:
320,192,87965,1,0,0:0:0:0:
448,192,88029,1,0,0:0:0:0:
64,192,88094,1,0,0:0:0:0:
320,192,88094,1,0,0:0:0:0:
448,192,88191,128,0,88384:0:0:0:0:
192,192,88191,1,0,0:0:0:0:
320,192,88287,1,0,0:0:0:0:
192,192,88384,1,0,0:0:0:0:
64,192,88481,1,0,0:0:0:0:
320,192,88578,1,0,0:0:0:0:
192,192,88578,1,0,0:0:0:0:
448,192,88674,1,0,0:0:0:0:
192,192,88771,1,0,0:0:0:0:
64,192,88868,1,0,0:0:0:0:
448,192,88868,1,0,0:0:0:0:
320,192,88868,1,0,0:0:0:0:
192,192,88965,1,0,0:0:0:0:
320,192,89062,1,0,0:0:0:0:
448,192,89062,1,0,0:0:0:0:
64,192,89158,1,0,0:0:0:0:
448,192,89255,1,0,0:0:0:0:
320,192,89255,1,0,0:0:0:0:
192,192,89352,1,0,0:0:0:0:
64,192,89352,1,0,0:0:0:0:
320,192,89449,1,0,0:0:0:0:
448,192,89449,1,0,0:0:0:0:
192,192,89449,1,0,0:0:0:0:
64,192,89545,1,0,0:0:0:0:
320,192,89642,1,0,0:0:0:0:
448,192,89642,1,0,0:0:0:0:
192,192,89707,1,0,0:0:0:0:
64,192,89707,1,0,0:0:0:0:
320,192,89771,1,0,0:0:0:0:
448,192,89771,1,0,0:0:0:0:
192,192,89836,1,0,0:0:0:0:
64,192,89836,1,0,0:0:0:0:
192,192,89965,1,0,0:0:0:0:
320,192,89965,1,0,0:0:0:0:
64,192,90094,1,0,0:0:0:0:
448,192,90094,1,0,0:0:0:0:
320,192,90223,1,0,0:0:0:0:
192,192,90223,1,0,0:0:0:0:
448,192,90352,1,0,0:0:0:0:
64,192,90416,1,0,0:0:0:0:
192,192,90416,1,0,0:0:0:0:
320,192,90465,1,0,0:0:0:0:
448,192,90465,1,0,0:0:0:0:
192,192,90513,1,0,0:0:0:0:
64,192,90513,1,0,0:0:0:0:
448,192,90562,1,0,0:0:0:0:
320,192,90562,1,0,0:0:0:0:
192,192,90610,1,0,0:0:0:0:
64,192,90610,1,0,0:0:0:0:
320,192,90707,1,0,0:0:0:0:
192,192,90803,1,0,0:0:0:0:
448,192,90900,1,0,0:0:0:0:
64,192,90997,1,0,0:0:0:0:
192,192,90997,1,0,0:0:0:0:
320,192,91094,1,0,0:0:0:0:
64,192,91191,1,0,0:0:0:0:
192,192,91287,1,0,0:0:0:0:
448,192,91287,128,0,91481:0:0:0:0:
64,192,91384,1,0,0:0:0:0:
320,192,91384,1,0,0:0:0:0:
192,192,91481,1,0,0:0:0:0:
64,192,91578,1,0,0:0:0:0:
320,192,91674,1,0,0:0:0:0:
192,192,91771,1,0,0:0:0:0:
64,192,91771,1,0,0:0:0:0:
320,192,91868,1,0,0:0:0:0:
448,192,91965,1,0,0:0:0:0:
64,192,92062,128,0,92255:0:0:0:0:
320,192,92062,1,0,0:0:0:0:
448,192,92158,1,0,0:0:0:0:
192,192,92158,1,0,0:0:0:0:
320,192,92255,1,0,0:0:0:0:
192,192,92352,1,0,0:0:0:0:
64,192,92449,1,0,0:0:0:0:
320,192,92545,1,0,0:0:0:0:
448,192,92545,1,0,0:0:0:0:
192,192,92642,1,0,0:0:0:0:
448,192,92739,1,0,0:0:0:0:
320,192,92836,1,0,0:0:0:0:
64,192,92933,1,0,0:0:0:0:
192,192,92933,1,0,0:0:0:0:
448,192,93029,1,0,0:0:0:0:
320,192,93126,1,0,0:0:0:0:
64,192,93223,1,0,0:0:0:0:
320,192,93320,1,0,0:0:0:0:
448,192,93320,1,0,0:0:0:0:
192,192,93416,1,0,0:0:0:0:
64,192,93513,1,0,0:0:0:0:
320,192,93610,1,0,0:0:0:0:
448,192,93707,1,0,0:0:0:0:
192,192,93707,1,0,0:0:0:0:
64,192,93803,1,0,0:0:0:0:
320,192,93900,1,0,0:0:0:0:
192,192,93997,1,0,0:0:0:0:
64,192,94094,1,0,0:0:0:0:
448,192,94094,1,0,0:0:0:0:
320,192,94191,1,0,0:0:0:0:
64,192,94287,1,0,0:0:0:0:
320,192,94384,128,0,94578:0:0:0:0:
192,192,94384,1,0,0:0:0:0:
448,192,94481,1,0,0:0:0:0:
64,192,94481,1,0,0:0:0:0:
192,192,94578,1,0,0:0:0:0:
448,192,94674,1,0,0:0:0:0:
320,192,94771,1,0,0:0:0:0:
192,192,94868,1,0,0:0:0:0:
64,192,94868,1,0,0:0:0:0:
448,192,94965,1,0,0:0:0:0:
320,192,95062,1,0,0:0:0:0:
64,192,95158,1,0,0:0:0:0:
320,192,95255,1,0,0:0:0:0:
448,192,95255,1,0,0:0:0:0:
192,192,95352,1,0,0:0:0:0:
320,192,95449,1,0,0:0:0:0:
448,192,95545,1,0,0:0:0:0:
64,192,95545,128,0,95739:0:0:0:0:
320,192,95642,1,0,0:0:0:0:
192,192,95642,1,0,0:0:0:0:
448,192,95739,1,0,0:0:0:0:
320,192,95836,1,0,0:0:0:0:
64,192,95933,1,0,0:0:0:0:
192,192,96029,1,0,0:0:0:0:
448,192,96029,1,0,0:0:0:0:
320,192,96126,1,0,0:0:0:0:
64,192,96223,1,0,0:0:0:0:
320,192,96320,1,0,0:0:0:0:
64,192,96416,1,0,0:0:0:0:
448,192,96416,1,0,0:0:0:0:
192,192,96481,1,0,0:0:0:0:
320,192,96545,1,0,0:0:0:0:
192,192,96610,1,0,0:0:0:0:
320,192,96674,1,0,0:0:0:0:
448,192,96739,1,0,0:0:0:0:
64,192,96803,1,0,0:0:0:0:
192,192,96803,1,0,0:0:0:0:
320,192,96900,1,0,0:0:0:0:
192,192,96997,1,0,0:0:0:0:
64,192,97094,1,0,0:0:0:0:
448,192,97191,1,0,0:0:0:0:
320,192,97191,1,0,0:0:0:0:
192,192,97287,1,0,0:0:0:0:
448,192,97384,1,0,0:0:0:0:
64,192,97481,128,0,97674:0:0:0:0:
320,192,97481,1,0,0:0:0:0:
192,192,97578,1,0,0:0:0:0:
448,192,97578,1,0,0:0:0:0:
320,192,97674,1,0,0:0:0:0:
448,192,97771,1,0,0:0:0:0:
192,192,97868,1,0,0:0:0:0:
320,192,97965,1,0,0:0:0:0:
448,192,97965,1,0,0:0:0:0:
192,192,98062,1,0,0:0:0:0:
64,192,98158,1,0,0:0:0:0:
320,192,98255,1,0,0:0:0:0:
448,192,98255,128,0,98449:0:0:0:0:
64,192,98352,1,0,0:0:0:0:
192,192,98352,1,0,0:0:0:0:
320,192,98449,1,0,0:0:0:0:
192,192,98545,1,0,0:0:0:0:
448,192,98642,1,0,0:0:0:0:
64,192,98739,1,0,0:0:0:0:
192,192,98739,1,0,0:0:0:0:
320,192,98836,1,0,0:0:0:0:
64,192,98933,1,0,0:0:0:0:
192,192,99029,1,0,0:0:0:0:
448,192,99126,1,0,0:0:0:0:
320,192,99126,1,0,0:0:0:0:
64,192,99223,1,0,0:0:0:0:
192,192,99320,1,0,0:0:0:0:
448,192,99416,1,0,0:0:0:0:
64,192,99513,1,0,0:0:0:0:
320,192,99513,1,0,0:0:0:0:
192,192,99610,1,0,0:0:0:0:
320,192,99707,1,0,0:0:0:0:
448,192,99707,1,0,0:0:0:0:
64,192,99771,1,0,0:0:0:0:
192,192,99771,1,0,0:0:0:0:
448,192,99836,1,0,0:0:0:0:
320,192,99836,1,0,0:0:0:0:
64,192,99900,1,0,0:0:0:0:
192,192,99900,1,0,0:0:0:0:
320,192,99965,1,0,0:0:0:0:
64,192,100029,1,0,0:0:0:0:
448,192,100094,1,0,0:0:0:0:
320,192,100158,1,0,0:0:0:0:
64,192,100223,1,0,0:0:0:0:
192,192,100287,1,0,0:0:0:0:
320,192,100352,1,0,0:0:0:0:
448,192,100416,1,0,0:0:0:0:
320,192,100481,1,0,0:0:0:0:
64,192,100481,1,0,0:0:0:0:
448,192,100578,128,0,100771:0:0:0:0:
192,192,100578,1,0,0:0:0:0:
320,192,100674,1,0,0:0:0:0:
192,192,100771,1,0,0:0:0:0:
64,192,100868,1,0,0:0:0:0:
192,192,101062,1,0,0:0:0:0:
448,192,101062,1,0,0:0:0:0:
320,192,101191,1,0,0:0:0:0:
64,192,101191,1,0,0:0:0:0:
320,192,101320,1,0,0:0:0:0:
448,192,101320,1,0,0:0:0:0:
192,192,101449,1,0,0:0:0:0:
64,192,101449,1,0,0:0:0:0:
320,192,101545,1,0,0:0:0:0:
448,192,101642,1,0,0:0:0:0:
192,192,101642,1,0,0:0:0:0:
320,192,101739,1,0,0:0:0:0:
64,192,101739,1,0,0:0:0:0:
320,192,101836,1,0,0:0:0:0:
192,192,101836,1,0,0:0:0:0:
448,192,101836,1,0,0:0:0:0:
64,192,101933,1,0,0:0:0:0:
448,192,102029,1,0,0:0:0:0:
320,192,102029,1,0,0:0:0:0:
64,192,102094,1,0,0:0:0:0:
192,192,102094,1,0,0:0:0:0:
448,192,102158,1,0,0:0:0:0:
320,192,102158,1,0,0:0:0:0:
64,192,102223,1,0,0:0:0:0:
192,192,102223,1,0,0:0:0:0:
192,192,102352,1,0,0:0:0:0:
448,192,102352,1,0,0:0:0:0:
448,192,102481,1,0,0:0:0:0:
192,192,102481,1,0,0:0:0:0:
192,192,102610,1,0,0:0:0:0:
448,192,102610,1,0,0:0:0:0:
320,192,102739,1,0,0:0:0:0:
192,192,102803,1,0,0:0:0:0:
64,192,102803,1,0,0:0:0:0:
192,192,102900,1,0,0:0:0:0:
64,192,102900,1,0,0:0:0:0:
192,192,102997,1,0,0:0:0:0:
64,192,102997,1,0,0:0:0:0:
320,192,103094,1,0,0:0:0:0:
448,192,103191,1,0,0:0:0:0:
64,192,103287,1,0,0:0:0:0:
192,192,103384,1,0,0:0:0:0:
320,192,103384,1,0,0:0:0:0:
448,192,103481,1,0,0:0:0:0:
192,192,103578,1,0,0:0:0:0:
320,192,103674,1,0,0:0:0:0:
192,192,103771,1,0,0:0:0:0:
64,192,103771,1,0,0:0:0:0:
448,192,103868,1,0,0:0:0:0:
320,192,103965,1,0,0:0:0:0:
64,192,104062,1,0,0:0:0:0:
448,192,104158,1,0,0:0:0:0:
192,192,104158,1,0,0:0:0:0:
320,192,104255,1,0,0:0:0:0:
448,192,104352,1,0,0:0:0:0:
64,192,104449,1,0,0:0:0:0:
320,192,104545,1,0,0:0:0:0:
448,192,104545,1,0,0:0:0:0:
192,192,104642,1,0,0:0:0:0:
64,192,104739,1,0,0:0:0:0:
320,192,104836,1,0,0:0:0:0:
448,192,104933,1,0,0:0:0:0:
192,192,104933,1,0,0:0:0:0:
64,192,105029,1,0,0:0:0:0:
320,192,105126,1,0,0:0:0:0:
192,192,105223,1,0,0:0:0:0:
448,192,105320,1,0,0:0:0:0:
64,192,105320,1,0,0:0:0:0:
320,192,105416,1,0,0:0:0:0:
192,192,105513,1,0,0:0:0:0:
320,192,105610,1,0,0:0:0:0:
64,192,105707,1,0,0:0:0:0:
448,192,105707,1,0,0:0:0:0:
192,192,105771,1,0,0:0:0:0:
320,192,105836,1,0,0:0:0:0:
192,192,105900,1,0,0:0:0:0:
320,192,105965,1,0,0:0:0:0:
192,192,106029,1,0,0:0:0:0:
64,192,106094,1,0,0:0:0:0:
448,192,106094,1,0,0:0:0:0:
192,192,106191,1,0,0:0:0:0:
320,192,106287,1,0,0:0:0:0:
448,192,106384,1,0,0:0:0:0:
320,192,106481,1,0,0:0:0:0:
192,192,106481,1,0,0:0:0:0:
64,192,106578,1,0,0:0:0:0:
448,192,106674,1,0,0:0:0:0:
320,192,106771,1,0,0:0:0:0:
192,192,106868,1,0,0:0:0:0:
64,192,106868,1,0,0:0:0:0:
448,192,106965,1,0,0:0:0:0:
192,192,107062,1,0,0:0:0:0:
320,192,107158,1,0,0:0:0:0:
448,192,107255,1,0,0:0:0:0:
192,192,107255,1,0,0:0:0:0:
64,192,107352,1,0,0:0:0:0:
320,192,107449,1,0,0:0:0:0:
448,192,107545,1,0,0:0:0:0:
64,192,107642,128,0,107739:0:0:0:0:
320,192,107642,1,0,0:0:0:0:
192,192,107836,128,0,107933:0:0:0:0:
448,192,108029,128,0,108126:0:0:0:0:
64,192,108029,1,0,0:0:0:0:
192,192,108223,128,0,108320:0:0:0:0:
320,192,108416,128,0,108513:0:0:0:0:
64,192,108416,1,0,0:0:0:0:
448,192,108513,128,0,108610:0:0:0:0:
64,192,108610,128,0,108707:0:0:0:0:
192,192,108707,128,0,108803:0:0:0:0:
320,192,108803,128,0,108900:0:0:0:0:
448,192,108803,1,0,0:0:0:0:
64,192,108997,128,0,109094:0:0:0:0:
448,192,109191,1,0,0:0:0:0:
320,192,109191,1,0,0:0:0:0:
192,192,109287,1,0,0:0:0:0:
64,192,109384,1,0,0:0:0:0:
320,192,109481,1,0,0:0:0:0:
192,192,109578,1,0,0:0:0:0:
448,192,109578,1,0,0:0:0:0:
64,192,109674,1,0,0:0:0:0:
320,192,109771,1,0,0:0:0:0:
448,192,109868,1,0,0:0:0:0:
192,192,109965,1,0,0:0:0:0:
64,192,109965,1,0,0:0:0:0:
320,192,110062,1,0,0:0:0:0:
448,192,110158,1,0,0:0:0:0:
64,192,110255,1,0,0:0:0:0:
320,192,110352,1,0,0:0:0:0:
448,192,110352,1,0,0:0:0:0:
192,192,110449,1,0,0:0:0:0:
64,192,110545,1,0,0:0:0:0:
448,192,110642,1,0,0:0:0:0:
64,192,110739,1,0,0:0:0:0:
320,192,110739,1,0,0:0:0:0:
192,192,110836,1,0,0:0:0:0:
320,192,110933,1,0,0:0:0:0:
448,192,111029,1,0,0:0:0:0:
192,192,111126,1,0,0:0:0:0:
64,192,111126,1,0,0:0:0:0:
320,192,111223,1,0,0:0:0:0:
448,192,111320,1,0,0:0:0:0:
64,192,111416,1,0,0:0:0:0:
320,192,111513,1,0,0:0:0:0:
192,192,111513,1,0,0:0:0:0:
448,192,111610,1,0,0:0:0:0:
64,192,111707,1,0,0:0:0:0:
448,192,111803,1,0,0:0:0:0:
192,192,111900,1,0,0:0:0:0:
320,192,111900,1,0,0:0:0:0:
64,192,111965,1,0,0:0:0:0:
448,192,112029,1,0,0:0:0:0:
64,192,112094,1,0,0:0:0:0:
448,192,112158,1,0,0:0:0:0:
64,192,112223,1,0,0:0:0:0:
192,192,112287,1,0,0:0:0:0:
320,192,112287,1,0,0:0:0:0:
448,192,112287,128,0,112481:0:0:0:0:
64,192,112481,128,0,112578:0:0:0:0:
320,192,112578,128,0,112771:0:0:0:0:
448,192,112674,1,0,0:0:0:0:
192,192,112771,1,0,0:0:0:0:
64,192,112868,1,0,0:0:0:0:
448,192,112965,1,0,0:0:0:0:
192,192,113062,128,0,113255:0:0:0:0:
64,192,113062,1,0,0:0:0:0:
320,192,113255,1,0,0:0:0:0:
448,192,113352,1,0,0:0:0:0:
64,192,113449,1,0,0:0:0:0:
192,192,113449,1,0,0:0:0:0:
320,192,113545,1,0,0:0:0:0:
192,192,113642,1,0,0:0:0:0:
64,192,113739,5,0,0:0:0:0:
320,192,113739,1,0,0:0:0:0:
448,192,113739,1,0,0:0:0:0:
192,192,114029,1,0,0:0:0:0:
64,192,114029,1,0,0:0:0:0:
448,192,114029,1,0,0:0:0:0:
320,192,114223,1,0,0:0:0:0:
64,192,114223,1,0,0:0:0:0:
192,192,114223,1,0,0:0:0:0:
192,192,114416,1,0,0:0:0:0:
320,192,114416,1,0,0:0:0:0:
448,192,114416,1,0,0:0:0:0:
192,192,114610,1,0,0:0:0:0:
64,192,114610,1,0,0:0:0:0:
448,192,114739,1,0,0:0:0:0:
192,192,114739,1,0,0:0:0:0:
320,192,114868,1,0,0:0:0:0:
64,192,114868,1,0,0:0:0:0:
192,192,114997,1,0,0:0:0:0:
320,192,114997,1,0,0:0:0:0:
448,192,115126,1,0,0:0:0:0:
320,192,115126,1,0,0:0:0:0:
320,192,115255,1,0,0:0:0:0:
64,192,115255,1,0,0:0:0:0:
192,192,115384,1,0,0:0:0:0:
448,192,115481,1,0,0:0:0:0:
320,192,115578,1,0,0:0:0:0:
192,192,115674,1,0,0:0:0:0:
64,192,115771,1,0,0:0:0:0:
448,192,115771,1,0,0:0:0:0:
320,192,115868,1,0,0:0:0:0:
64,192,115965,1,0,0:0:0:0:
192,192,116062,1,0,0:0:0:0:
448,192,116158,1,0,0:0:0:0:
320,192,116158,1,0,0:0:0:0:
64,192,116255,1,0,0:0:0:0:
320,192,116352,1,0,0:0:0:0:
192,192,116449,1,0,0:0:0:0:
448,192,116545,1,0,0:0:0:0:
64,192,116545,1,0,0:0:0:0:
320,192,116642,1,0,0:0:0:0:
64,192,116739,1,0,0:0:0:0:
448,192,116836,1,0,0:0:0:0:
320,192,116933,1,0,0:0:0:0:
192,192,116933,1,0,0:0:0:0:
64,192,117029,1,0,0:0:0:0:
448,192,117126,1,0,0:0:0:0:
320,192,117223,1,0,0:0:0:0:
192,192,117320,1,0,0:0:0:0:
64,192,117320,1,0,0:0:0:0:
448,192,117416,1,0,0:0:0:0:
64,192,117513,1,0,0:0:0:0:
320,192,117610,1,0,0:0:0:0:
448,192,117707,1,0,0:0:0:0:
192,192,117707,1,0,0:0:0:0:
320,192,117803,1,0,0:0:0:0:
64,192,117900,1,0,0:0:0:0:
320,192,117997,1,0,0:0:0:0:
64,192,118094,1,0,0:0:0:0:
448,192,118094,1,0,0:0:0:0:
320,192,118158,1,0,0:0:0:0:
192,192,118223,1,0,0:0:0:0:
320,192,118287,1,0,0:0:0:0:
192,192,118352,1,0,0:0:0:0:
320,192,118416,1,0,0:0:0:0:
448,192,118481,1,0,0:0:0:0:
64,192,118481,1,0,0:0:0:0:
192,192,118578,1,0,0:0:0:0:
448,192,118674,1,0,0:0:0:0:
64,192,118771,1,0,0:0:0:0:
320,192,118868,1,0,0:0:0:0:
192,192,118868,1,0,0:0:0:0:
448,192,118965,1,0,0:0:0:0:
64,192,119062,1,0,0:0:0:0:
320,192,119158,1,0,0:0:0:0:
192,192,119255,1,0,0:0:0:0:
64,192,119255,1,0,0:0:0:0:
448,192,119352,1,0,0:0:0:0:
192,192,119449,1,0,0:0:0:0:
64,192,119545,1,0,0:0:0:0:
320,192,119642,1,0,0:0:0:0:
448,192,119642,1,0,0:0:0:0:
192,192,119739,1,0,0:0:0:0:
64,192,119836,1,0,0:0:0:0:
448,192,119933,1,0,0:0:0:0:
64,192,120029,1,0,0:0:0:0:
320,192,120029,1,0,0:0:0:0:
192,192,120029,1,0,0:0:0:0:
448,192,120223,1,0,0:0:0:0:
192,192,120223,1,0,0:0:0:0:
320,192,120416,1,0,0:0:0:0:
192,192,120416,1,0,0:0:0:0:
64,192,120416,1,0,0:0:0:0:
448,192,120610,1,0,0:0:0:0:
320,192,120610,1,0,0:0:0:0:
192,192,120803,1,0,0:0:0:0:
320,192,120803,1,0,0:0:0:0:
448,192,120803,1,0,0:0:0:0:
64,192,120900,1,0,0:0:0:0:
320,192,120900,1,0,0:0:0:0:
448,192,120997,1,0,0:0:0:0:
64,192,120997,1,0,0:0:0:0:
192,192,121094,1,0,0:0:0:0:
448,192,121094,1,0,0:0:0:0:
320,192,121191,1,0,0:0:0:0:
192,192,121191,1,0,0:0:0:0:
64,192,121191,1,0,0:0:0:0:
192,192,121384,1,0,0:0:0:0:
64,192,121384,1,0,0:0:0:0:
320,192,121449,1,0,0:0:0:0:
448,192,121449,1,0,0:0:0:0:
192,192,121513,1,0,0:0:0:0:
64,192,121513,1,0,0:0:0:0:
448,192,121578,1,0,0:0:0:0:
320,192,121578,1,0,0:0:0:0:
192,192,121642,1,0,0:0:0:0:
320,192,121707,1,0,0:0:0:0:
448,192,121771,1,0,0:0:0:0:
64,192,121836,1,0,0:0:0:0:
448,192,121900,1,0,0:0:0:0:
320,192,121965,1,0,0:0:0:0:
192,192,122029,1,0,0:0:0:0:
64,192,122094,1,0,0:0:0:0:
448,192,122158,1,0,0:0:0:0:
192,192,122158,1,0,0:0:0:0:
320,192,122255,1,0,0:0:0:0:
192,192,122352,1,0,0:0:0:0:
64,192,122352,1,0,0:0:0:0:
448,192,122449,1,0,0:0:0:0:
64,192,122545,1,0,0:0:0:0:
320,192,122642,1,0,0:0:0:0:
192,192,122642,1,0,0:0:0:0:
448,192,122739,1,0,0:0:0:0:
64,192,122836,1,0,0:0:0:0:
448,192,122933,1,0,0:0:0:0:
192,192,122933,1,0,0:0:0:0:
320,192,123029,1,0,0:0:0:0:
192,192,123126,1,0,0:0:0:0:
64,192,123126,1,0,0:0:0:0:
320,192,123223,1,0,0:0:0:0:
448,192,123320,1,0,0:0:0:0:
192,192,123320,1,0,0:0:0:0:
64,192,123416,1,0,0:0:0:0:
320,192,123416,1,0,0:0:0:0:
192,192,123513,1,0,0:0:0:0:
448,192,123610,1,0,0:0:0:0:
320,192,123707,1,0,0:0:0:0:
64,192,123707,1,0,0:0:0:0:
192,192,123803,1,0,0:0:0:0:
448,192,123900,1,0,0:0:0:0:
64,192,123900,1,0,0:0:0:0:
320,192,123997,1,0,0:0:0:0:
192,192,124094,1,0,0:0:0:0:
64,192,124094,1,0,0:0:0:0:
448,192,124191,1,0,0:0:0:0:
320,192,124191,1,0,0:0:0:0:
192,192,124287,1,0,0:0:0:0:
64,192,124287,1,0,0:0:0:0:
320,192,124352,1,0,0:0:0:0:
448,192,124416,1,0,0:0:0:0:
192,192,124481,1,0,0:0:0:0:
320,192,124578,1,0,0:0:0:0:
192,192,124674,1,0,0:0:0:0:
64,192,124674,1,0,0:0:0:0:
64,192,124868,1,0,0:0:0:0:
320,192,124965,1,0,0:0:0:0:
192,192,125158,1,0,0:0:0:0:
448,192,125255,1,0,0:0:0:0:
320,192,125255,1,0,0:0:0:0:
192,192,125320,1,0,0:0:0:0:
64,192,125320,1,0,0:0:0:0:
320,192,125384,1,0,0:0:0:0:
448,192,125384,1,0,0:0:0:0:
192,192,125449,1,0,0:0:0:0:
64,192,125449,1,0,0:0:0:0:
320,192,125642,1,0,0:0:0:0:
192,192,125642,1,0,0:0:0:0:
64,192,125739,1,0,0:0:0:0:
448,192,125836,1,0,0:0:0:0:
192,192,125836,1,0,0:0:0:0:
320,192,125933,1,0,0:0:0:0:
192,192,126029,1,0,0:0:0:0:
64,192,126029,1,0,0:0:0:0:
448,192,126126,1,0,0:0:0:0:
320,192,126126,1,0,0:0:0:0:
192,192,126223,1,0,0:0:0:0:
64,192,126320,1,0,0:0:0:0:
320,192,126320,1,0,0:0:0:0:
192,192,126416,1,0,0:0:0:0:
448,192,126416,1,0,0:0:0:0:
64,192,126513,1,0,0:0:0:0:
192,192,126610,5,0,0:0:0:0:
320,192,126610,1,0,0:0:0:0:
448,192,126707,1,0,0:0:0:0:
64,192,126707,1,0,0:0:0:0:
192,192,126803,1,0,0:0:0:0:
320,192,126803,1,0,0:0:0:0:
64,192,126900,1,0,0:0:0:0:
448,192,126997,1,0,0:0:0:0:
320,192,126997,1,0,0:0:0:0:
64,192,127062,1,0,0:0:0:0:
192,192,127062,1,0,0:0:0:0:
448,192,127126,1,0,0:0:0:0:
320,192,127126,1,0,0:0:0:0:
192,192,127191,1,0,0:0:0:0:
64,192,127191,1,0,0:0:0:0:
448,192,127255,1,0,0:0:0:0:
320,192,127255,1,0,0:0:0:0:
64,192,127320,1,0,0:0:0:0:
192,192,127320,1,0,0:0:0:0:
320,192,127384,1,0,0:0:0:0:
448,192,127384,1,0,0:0:0:0:
192,192,127513,1,0,0:0:0:0:
320,192,127642,1,0,0:0:0:0:
64,192,127771,5,0,0:0:0:0:
192,192,127771,1,0,0:0:0:0:
448,192,127771,1,0,0:0:0:0:
320,192,127868,1,0,0:0:0:0:
192,192,127965,1,0,0:0:0:0:
448,192,128062,1,0,0:0:0:0:
320,192,128158,1,0,0:0:0:0:
192,192,128255,1,0,0:0:0:0:
64,192,128352,1,0,0:0:0:0:
448,192,128449,128,0,128642:0:0:0:0:
192,192,128739,1,0,0:0:0:0:
64,192,128836,1,0,0:0:0:0:
320,192,128933,1,0,0:0:0:0:
448,192,129029,1,0,0:0:0:0:
192,192,129126,1,0,0:0:0:0:
64,192,129223,128,0,129416:0:0:0:0:
192,192,129513,1,0,0:0:0:0:
320,192,129610,1,0,0:0:0:0:
448,192,129707,1,0,0:0:0:0:
64,192,129803,1,0,0:0:0:0:
320,192,129900,1,0,0:0:0:0:
192,192,129997,1,0,0:0:0:0:
64,192,130094,1,0,0:0:0:0:
448,192,130191,1,0,0:0:0:0:
192,192,130287,1,0,0:0:0:0:
320,192,130384,1,0,0:0:0:0:
448,192,130481,1,0,0:0:0:0:
64,192,130578,1,0,0:0:0:0:
192,192,130674,1,0,0:0:0:0:
320,192,130771,1,0,0:0:0:0:
448,192,130868,1,0,0:0:0:0:
192,192,130965,1,0,0:0:0:0:
320,192,131062,1,0,0:0:0:0:
64,192,131158,1,0,0:0:0:0:
192,192,131255,1,0,0:0:0:0:
448,192,131352,1,0,0:0:0:0:
320,192,131449,1,0,0:0:0:0:
64,192,131545,128,0,131739:0:0:0:0:
192,192,131836,1,0,0:0:0:0:
448,192,131933,1,0,0:0:0:0:
64,192,132029,1,0,0:0:0:0:
320,192,132126,1,0,0:0:0:0:
192,192,132223,1,0,0:0:0:0:
448,192,132320,128,0,132513:0:0:0:0:
64,192,132416,128,0,132803:0:0:0:0:
192,192,132803,128,0,133965:0:0:0:0:
448,192,132803,128,0,132997:0:0:0:0:
320,192,132997,128,0,133191:0:0:0:0:
448,192,133094,128,0,133191:0:0:0:0:
64,192,133191,128,0,133965:0:0:0:0:
