osu file format v12

[General]
AudioFilename: houkago stride kano.mp3
AudioLeadIn: 1000
PreviewTime: 86036
Countdown: 0
SampleSet: None
StackLeniency: 0.7
Mode: 0
LetterboxInBreaks: 0

[Editor]
Bookmarks: 1234,9767,26834,52434,69500,86567,110034,127100,144167,167634,184700,222300
DistanceSpacing: 1
BeatDivisor: 4
GridSize: 4

[Metadata]
Title:Houkago Stride
TitleUnicode:放課後ストライド
Artist:kano
ArtistUnicode:鹿乃
Creator:Clementine
Version:yoshiwafu
Source:
Tags:vocaloid last note. binjip cilvery caren_sk amamiya yuko yoshilove
BeatmapID:243649
BeatmapSetID:79878

[Difficulty]
HPDrainRate:8
CircleSize:5
OverallDifficulty:8
ApproachRate:9
SliderMultiplier:1.8
SliderTickRate:1

[Events]
//Background and Video events
0,0,"bg.jpg",0,0
//Break Periods
2,48367,51834
//Storyboard Layer 0 (Background)
//Storyboard Layer 1 (Fail)
//Storyboard Layer 2 (Pass)
//Storyboard Layer 3 (Foreground)
//Storyboard Sound Samples
//Background Colour Transformations
3,100,0,0,0

[TimingPoints]
1234,266.666666666667,4,2,1,70,1,0
9767,-100,4,2,1,70,0,1
26834,-100,4,2,1,70,0,0
69500,-133.333333333333,4,2,1,70,0,0
78034,-100,4,2,1,70,0,0
86567,-80,4,2,1,70,0,1
110034,-100,4,2,1,70,0,0
127100,-133.333333333333,4,2,1,70,0,0
135634,-100,4,2,1,70,0,0
144167,-80,4,2,1,70,0,1
167634,-80,4,2,1,70,0,0
184700,-80,4,2,1,70,0,1
201767,-80,4,2,1,70,0,0

[Colours]
Combo1 : 237,85,63
Combo2 : 0,133,242
Combo3 : 136,224,39

[HitObjects]
160,120,1234,1,0,0:0:0:0:
160,120,3100,2,0,P|200:196|304:208,1,180,0|2,0:0|0:0,0:0:0:0:
352,120,5234,2,0,P|312:196|208:208,1,180,0|2,0:0|0:0,0:0:0:0:
124,108,7367,5,0,0:0:0:0:
124,108,7634,2,0,P|164:156|280:164,1,180,0|2,0:0|0:0,0:0:0:0:
428,72,8167,2,0,P|464:140|416:264,1,180,0|2,0:0|0:0,0:0:0:0:
272,296,8700,2,0,P|212:312|180:308,2,90,0|0|2,0:0|0:0|0:0,0:0:0:0:
256,116,9234,5,0,0:0:0:0:
256,116,9300,1,0,0:0:0:0:
256,116,9367,1,0,0:0:0:0:
256,116,9434,1,0,0:0:0:0:
256,116,9500,1,0,0:0:0:0:
124,240,9767,6,0,P|96:284|40:312,1,90
388,240,10034,2,0,P|416:284|472:312,1,90,2|0,0:0|0:0,0:0:0:0:
144,120,10300,1,0,0:0:0:0:
256,60,10434,1,0,0:0:0:0:
368,120,10567,1,2,0:0:0:0:
256,176,10700,1,0,0:0:0:0:
256,176,10834,1,0,0:0:0:0:
256,176,10967,6,0,P|216:240|184:248,1,90,0|2,0:0|0:0,0:0:0:0:
104,96,11367,1,0,0:0:0:0:
256,176,11500,1,0,0:0:0:0:
404,264,11634,1,2,0:0:0:0:
436,88,11900,6,0,P|388:64|344:72,1,90
76,88,12167,2,0,P|124:64|168:72,1,90,2|0,0:0|0:0,0:0:0:0:
352,156,12434,1,0,0:0:0:0:
404,248,12567,1,0,0:0:0:0:
160,156,12700,1,2,0:0:0:0:
108,248,12834,1,0,0:0:0:0:
108,248,12967,1,0,0:0:0:0:
108,248,13100,6,0,P|88:200|108:152,1,90,0|2,0:0|0:0,0:0:0:0:
336,40,13500,1,0,0:0:0:0:
424,296,13767,1,2,0:0:0:0:
424,296,13834,1,0,0:0:0:0:
424,296,13900,1,0,0:0:0:0:
332,288,14034,6,0,P|292:264|272:208,1,90
180,96,14300,2,0,P|220:120|240:176,1,90,2|0,0:0|0:0,0:0:0:0:
376,168,14567,2,0,P|420:144|440:96,1,90
136,216,14834,2,0,P|92:240|72:288,1,90,2|0,0:0|0:0,0:0:0:0:
256,192,15100,1,0,0:0:0:0:
256,192,15234,6,0,L|256:288,1,90,0|2,0:0|0:0,0:0:0:0:
360,52,15634,1,0,0:0:0:0:
360,52,15700,1,0,0:0:0:0:
360,52,15767,1,0,0:0:0:0:
152,52,15900,1,2,0:0:0:0:
152,52,15967,1,0,0:0:0:0:
152,52,16034,1,0,0:0:0:0:
256,140,16167,5,0,0:0:0:0:
372,204,16300,1,0,0:0:0:0:
324,332,16434,1,2,0:0:0:0:
188,332,16567,1,0,0:0:0:0:
140,204,16700,2,0,L|92:112,1,90
372,180,16967,2,0,L|420:272,1,90,2|0,0:0|0:0,0:0:0:0:
256,140,17234,1,0,0:0:0:0:
256,140,17367,6,0,L|256:40,1,90,0|2,0:0|0:0,0:0:0:0:
60,236,17767,1,0,0:0:0:0:
320,168,18034,2,0,L|276:192,1,45,2|0,0:0|0:0,0:0:0:0:
336,236,18167,2,0,L|284:236,1,45
316,304,18300,6,0,P|256:316|156:244,1,180,0|2,0:0|0:0,0:0:0:0:
208,128,18700,1,0,0:0:0:0:
328,64,18834,1,0,0:0:0:0:
328,64,18900,1,0,0:0:0:0:
328,64,18967,1,0,0:0:0:0:
408,224,19100,2,0,L|360:140,1,90,2|0,0:0|0:0,0:0:0:0:
244,80,19367,5,0,0:0:0:0:
112,88,19500,1,0,0:0:0:0:
76,220,19634,1,2,0:0:0:0:
184,304,19767,1,0,0:0:0:0:
336,112,19900,6,0,L|420:68,1,90
336,272,20167,2,0,L|420:316,1,90,2|0,0:0|0:0,0:0:0:0:
184,192,20434,1,0,0:0:0:0:
328,192,20567,1,0,0:0:0:0:
132,192,20700,1,2,0:0:0:0:
380,192,20834,1,0,0:0:0:0:
80,192,20967,2,0,P|40:168|32:112,1,90
432,192,21234,2,0,P|472:216|480:272,1,90,2|0,0:0|0:0,0:0:0:0:
256,100,21500,1,0,0:0:0:0:
256,100,21634,6,0,L|256:0,1,90,0|2,0:0|0:0,0:0:0:0:
256,280,22034,1,0,0:0:0:0:
256,44,22300,5,2,0:0:0:0:
256,88,22367,1,0,0:0:0:0:
256,132,22434,1,0,0:0:0:0:
256,176,22500,1,0,0:0:0:0:
256,220,22567,6,0,P|224:260|176:268,1,90
120,152,22834,2,0,P|92:208|56:224,1,90,2|0,0:0|0:0,0:0:0:0:
392,152,23100,2,0,P|420:208|456:224,1,90
256,220,23367,2,0,P|288:260|336:268,1,90,2|0,0:0|0:0,0:0:0:0:
256,328,23634,1,0,0:0:0:0:
256,328,23767,6,0,L|256:216,1,90,0|2,0:0|0:0,0:0:0:0:
104,52,24167,2,0,P|88:96|32:136,1,90
408,52,24434,2,0,P|424:96|480:136,1,90,2|0,0:0|0:0,0:0:0:0:
392,244,24700,5,0,0:0:0:0:
256,264,24834,1,0,0:0:0:0:
120,244,24967,1,2,0:0:0:0:
188,128,25100,1,0,0:0:0:0:
324,128,25234,2,0,P|368:112|408:56,1,90
188,256,25500,2,0,P|144:272|104:328,1,90,2|0,0:0|0:0,0:0:0:0:
256,72,25767,1,0,0:0:0:0:
256,72,25900,6,0,L|256:168,1,90,0|2,0:0|0:0,0:0:0:0:
440,76,26300,1,0,0:0:0:0:
204,188,26567,5,2,0:0:0:0:
224,248,26634,1,0,0:0:0:0:
288,248,26700,1,0,0:0:0:0:
308,188,26767,1,0,0:0:0:0:
256,152,26834,6,0,L|256:48,2,90,0|0|2,0:0|0:0|0:0,0:0:0:0:
168,256,27234,2,0,P|124:296|72:308,1,90
344,256,27500,2,0,P|388:296|440:308,2,90,0|2|0,0:0|0:0|0:0,0:0:0:0:
276,148,27900,5,0,0:0:0:0:
176,68,28034,1,0,0:0:0:0:
152,192,28167,1,2,0:0:0:0:
236,96,28300,5,0,0:0:0:0:
116,136,28434,1,0,0:0:0:0:
216,212,28567,1,0,0:0:0:0:
340,188,28700,6,0,P|292:232|240:236,1,90,2|0,0:0|0:0,0:0:0:0:
144,248,28967,1,0,0:0:0:0:
68,148,29100,1,0,0:0:0:0:
168,68,29234,1,2,0:0:0:0:
168,68,29300,1,0,0:0:0:0:
168,68,29367,1,0,0:0:0:0:
264,148,29500,5,0,0:0:0:0:
340,48,29634,1,0,0:0:0:0:
428,136,29767,1,2,0:0:0:0:
368,248,29900,1,0,0:0:0:0:
248,204,30034,6,0,P|200:188|152:200,1,90
328,124,30300,2,0,P|280:108|232:120,1,90,2|0,0:0|0:0,0:0:0:0:
412,48,30567,1,0,0:0:0:0:
380,180,30700,1,0,0:0:0:0:
500,116,30834,1,2,0:0:0:0:
468,248,30967,1,0,0:0:0:0:
348,312,31100,5,0,0:0:0:0:
216,284,31234,2,0,L|340:312,1,90,0|2,0:0|0:0,0:0:0:0:
276,172,31500,5,0,0:0:0:0:
276,172,31634,2,0,L|164:208,1,90
60,236,31900,1,2,0:0:0:0:
96,104,32034,1,0,0:0:0:0:
96,104,32167,2,0,L|196:124,1,90
320,140,32434,5,2,0:0:0:0:
452,160,32567,1,0,0:0:0:0:
452,160,32700,2,0,P|440:228|416:268,1,90
296,248,32967,2,0,P|260:292|216:316,1,90,2|0,0:0|0:0,0:0:0:0:
124,40,33234,6,0,P|124:120|40:120,1,180,4|2,0:0|0:0,0:0:0:0:
388,344,33634,6,0,P|388:264|472:264,1,180,4|2,0:0|0:0,0:0:0:0:
41,262,34034,6,0,P|124:264|124:344,1,180,4|2,0:0|0:0,0:0:0:0:
470,121,34434,6,0,P|388:120|388:40,1,180,4|2,0:0|0:0,0:0:0:0:
80,308,34834,5,0,0:0:0:0:
432,76,35100,1,2,0:0:0:0:
164,104,35367,5,0,0:0:0:0:
164,238,35500,1,0,0:0:0:0:
299,238,35634,1,2,0:0:0:0:
299,103,35767,1,0,0:0:0:0:
203,198,35900,1,0,0:0:0:0:
298,293,36034,1,0,0:0:0:0:
393,197,36167,1,2,0:0:0:0:
299,103,36300,1,0,0:0:0:0:
299,103,36434,6,0,L|220:44,1,90
144,156,36700,2,0,L|176:64,1,90,2|0,0:0|0:0,0:0:0:0:
40,44,36967,2,0,L|136:36,1,90
312,32,37234,2,0,P|300:76|256:132,1,90,2|0,0:0|0:0,0:0:0:0:
156,248,37500,5,0,0:0:0:0:
156,248,37567,1,0,0:0:0:0:
156,248,37634,1,0,0:0:0:0:
284,288,37767,1,2,0:0:0:0:
392,208,37900,1,0,0:0:0:0:
348,80,38034,2,0,P|300:64|248:84,1,90
164,304,38300,2,0,P|212:320|264:300,1,90,2|0,0:0|0:0,0:0:0:0:
420,156,38567,6,0,P|432:116|416:64,1,90
308,212,38834,6,0,P|320:172|304:120,1,90,2|0,0:0|0:0,0:0:0:0:
196,268,39100,6,0,P|208:228|192:176,1,90
84,324,39367,6,0,P|96:284|80:232,1,90,2|0,0:0|0:0,0:0:0:0:
124,108,39634,6,0,P|100:68|60:40,2,90,0|0|2,0:0|0:0|0:0,0:0:0:0:
256,144,40034,1,0,0:0:0:0:
344,144,40167,2,0,L|448:144,1,90,0|2,0:0|0:0,0:0:0:0:
184,220,40567,1,0,0:0:0:0:
292,224,40700,2,0,L|424:224,1,90,0|2,0:0|0:0,0:0:0:0:
108,304,41100,1,0,0:0:0:0:
236,304,41234,2,0,L|336:304,1,90,0|2,0:0|0:0,0:0:0:0:
416,284,41500,2,0,L|320:284,1,90,0|2,0:0|0:0,0:0:0:0:
212,72,41767,6,0,P|160:48|36:72,1,180,4|2,0:0|0:0,0:0:0:0:
300,148,42167,6,0,P|352:124|476:148,1,180,4|2,0:0|0:0,0:0:0:0:
212,228,42567,6,0,P|160:204|36:228,1,180,4|2,0:0|0:0,0:0:0:0:
300,304,42967,6,0,P|352:280|476:304,1,180,4|2,0:0|0:0,0:0:0:0:
428,104,43367,5,0,0:0:0:0:
84,280,43634,1,2,0:0:0:0:
256,192,43900,12,0,48167,0:0:0:0:
100,136,52434,5,0,0:0:0:0:
224,84,52567,1,0,0:0:0:0:
216,220,52700,1,2,0:0:0:0:
340,164,52834,1,0,0:0:0:0:
332,300,52967,1,0,0:0:0:0:
332,300,53034,1,0,0:0:0:0:
332,300,53100,1,0,0:0:0:0:
196,316,53234,2,0,L|272:264,1,90,2|0,0:0|0:0,0:0:0:0:
380,188,53500,5,0,0:0:0:0:
300,76,53634,1,0,0:0:0:0:
236,196,53767,1,2,0:0:0:0:
352,124,53900,5,0,0:0:0:0:
216,128,54034,1,0,0:0:0:0:
288,244,54167,1,0,0:0:0:0:
260,112,54300,5,2,0:0:0:0:
260,112,54367,1,0,0:0:0:0:
260,112,54434,1,0,0:0:0:0:
260,112,54500,1,0,0:0:0:0:
260,112,54567,6,0,P|208:148|144:160,1,90
68,84,54834,2,0,P|92:148|88:180,1,90,2|0,0:0|0:0,0:0:0:0:
172,276,55100,2,0,P|120:260|68:272,2,90,0|0|2,0:0|0:0|0:0,0:0:0:0:
256,172,55500,5,0,0:0:0:0:
256,172,55567,1,0,0:0:0:0:
256,172,55634,1,0,0:0:0:0:
256,172,55901,5,2,0:0:0:0:
256,172,55967,1,0,0:0:0:0:
256,172,56167,5,0,0:0:0:0:
408,76,56434,5,2,0:0:0:0:
416,164,56567,2,0,P|376:104|376:72,1,90
240,72,56834,1,0,0:0:0:0:
156,176,56967,1,2,0:0:0:0:
240,280,57100,2,0,P|296:308|336:304,2,90
124,208,57500,1,2,0:0:0:0:
76,80,57634,5,0,0:0:0:0:
76,80,57767,2,0,P|100:132|144:168,1,90
228,236,58034,1,2,0:0:0:0:
364,244,58167,1,0,0:0:0:0:
476,168,58300,2,0,P|452:112|408:76,1,90
300,72,58567,2,0,P|256:44|204:40,1,90,2|0,0:0|0:0,0:0:0:0:
116,124,58834,5,0,0:0:0:0:
128,260,58967,1,0,0:0:0:0:
228,352,59100,1,2,0:0:0:0:
148,116,59234,5,0,0:0:0:0:
194,244,59367,1,0,0:0:0:0:
315,307,59500,1,0,0:0:0:0:
176,96,59634,5,2,0:0:0:0:
254,207,59767,1,0,0:0:0:0:
386,237,59900,1,0,0:0:0:0:
188,64,60034,5,0,0:0:0:0:
292,151,60167,1,2,0:0:0:0:
427,145,60300,1,0,0:0:0:0:
344,40,60434,6,0,P|296:60|228:164,1,180,0|2,0:0|0:0,0:0:0:0:
96,120,60967,5,0,0:0:0:0:
140,248,61100,1,0,0:0:0:0:
272,284,61234,1,2,0:0:0:0:
272,284,61300,1,0,0:0:0:0:
272,284,61367,1,0,0:0:0:0:
388,220,61500,1,0,0:0:0:0:
348,88,61634,1,0,0:0:0:0:
236,164,61767,2,0,P|292:204|324:200,1,90,2|0,0:0|0:0,0:0:0:0:
428,132,62034,5,0,0:0:0:0:
316,60,62167,1,0,0:0:0:0:
200,128,62300,2,0,P|164:160|112:164,1,90,2|0,0:0|0:0,0:0:0:0:
124,300,62567,1,0,0:0:0:0:
248,248,62700,1,0,0:0:0:0:
360,324,62834,1,2,0:0:0:0:
432,208,62967,1,0,0:0:0:0:
380,84,63100,5,0,0:0:0:0:
380,84,63167,1,0,0:0:0:0:
380,84,63234,1,0,0:0:0:0:
252,128,63367,1,2,0:0:0:0:
252,128,63434,1,0,0:0:0:0:
252,128,63500,1,0,0:0:0:0:
124,84,63634,5,0,0:0:0:0:
84,212,63767,1,0,0:0:0:0:
188,296,63900,1,2,0:0:0:0:
328,284,64034,1,0,0:0:0:0:
380,160,64167,6,0,P|408:120|464:96,1,90
280,176,64434,6,0,P|308:136|364:112,1,90,2|0,0:0|0:0,0:0:0:0:
180,188,64700,6,0,P|208:148|264:124,1,90
76,196,64967,6,0,P|104:156|160:132,1,90,2|0,0:0|0:0,0:0:0:0:
312,84,65234,5,0,0:0:0:0:
216,192,65634,5,0,0:0:0:0:
256,212,65767,1,0,0:0:0:0:
296,192,65900,1,2,0:0:0:0:
175,192,66167,5,0,0:0:0:0:
256,232,66300,1,0,0:0:0:0:
337,192,66433,1,2,0:0:0:0:
134,192,66700,5,0,0:0:0:0:
256,252,66833,1,0,0:0:0:0:
377,192,66966,1,2,0:0:0:0:
256,131,67100,2,0,L|256:40,1,90,0|2,0:0|0:0,0:0:0:0:
56,228,67367,6,0,P|84:284|208:316,1,180,4|2,0:0|0:0,0:0:0:0:
456,156,67767,2,0,P|428:100|304:68,1,180,4|2,0:0|0:0,0:0:0:0:
53,171,68167,2,0,P|65:233|175:297,1,180,4|2,0:0|0:0,0:0:0:0:
458,212,68567,2,0,P|446:150|336:86,1,180,4|2,0:0|0:0,0:0:0:0:
68,112,68967,2,0,P|112:176|216:200,1,180,0|2,0:0|0:0,0:0:0:0:
388,192,69500,5,0,0:0:0:0:
300,140,69900,1,0,0:0:0:0:
200,164,70300,1,0,0:0:0:0:
188,264,70700,2,0,P|264:300|356:228,1,202.500007724762,0|2,0:0|0:0,0:0:0:0:
352,237,71367,1,0,0:0:0:0:
396,184,71634,5,0,0:0:0:0:
336,104,72034,1,0,0:0:0:0:
236,84,72434,1,0,0:0:0:0:
152,144,72834,2,0,P|128:192|220:308,1,202.500007724762,0|2,0:0|0:0,0:0:0:0:
200,305,73500,1,0,0:0:0:0:
268,292,73767,6,0,B|312:252|312:252|360:296|408:272|428:224,2,202.500007724762
172,252,74967,1,0,0:0:0:0:
132,160,75367,2,0,P|172:96|240:84,1,135.000005149842,0|2,0:0|0:0,0:0:0:0:
292,88,75900,6,0,P|360:128|368:268,2,202.500007724762
224,88,76967,2,0,P|188:96|156:128,1,67.5000025749208,0|2,0:0|0:0,0:0:0:0:
132,172,77367,1,0,0:0:0:0:
132,172,77500,1,2,0:0:0:0:
152,236,77767,1,2,0:0:0:0:
224,288,78034,6,0,P|296:288|344:256,1,90
272,200,78300,2,0,P|328:184|352:156,1,90,2|0,0:0|0:0,0:0:0:0:
300,84,78567,1,0,0:0:0:0:
220,44,78700,1,0,0:0:0:0:
136,76,78834,1,2,0:0:0:0:
96,156,78967,1,0,0:0:0:0:
136,236,79100,6,0,P|168:304|164:328,1,90
232,252,79367,2,0,P|300:272|316:292,1,90,2|0,0:0|0:0,0:0:0:0:
400,288,79634,1,0,0:0:0:0:
456,216,79767,1,0,0:0:0:0:
428,132,79900,1,2,0:0:0:0:
348,92,80034,1,0,0:0:0:0:
264,124,80167,6,0,P|188:156|72:160,1,180,0|2,0:0|0:0,0:0:0:0:
216,220,80567,2,0,P|140:228|48:152,1,180
76,84,80967,1,2,0:0:0:0:
152,36,81100,1,0,0:0:0:0:
240,52,81234,5,0,0:0:0:0:
240,52,81300,1,0,0:0:0:0:
240,52,81367,1,0,0:0:0:0:
340,140,81500,2,0,P|388:156|448:156,1,90,2|0,0:0|0:0,0:0:0:0:
260,228,81767,1,0,0:0:0:0:
260,228,81834,1,0,0:0:0:0:
260,228,81900,1,0,0:0:0:0:
136,280,82034,2,0,P|88:296|40:292,1,90,2|0,0:0|0:0,0:0:0:0:
40,160,82300,6,0,P|84:112|204:124,1,180,0|2,0:0|0:0,0:0:0:0:
472,160,82700,2,0,P|428:112|308:124,1,180
240,160,83100,1,2,0:0:0:0:
208,244,83234,1,0,0:0:0:0:
260,316,83367,6,0,P|304:340|352:332,2,90,0|0|2,0:0|0:0|0:0,0:0:0:0:
180,276,83767,1,0,0:0:0:0:
124,204,83900,2,0,P|88:160|80:120,1,90
168,116,84167,2,0,P|184:72|224:44,1,90,2|0,0:0|0:0,0:0:0:0:
304,68,84434,6,0,B|376:172|376:172|412:220|440:192|412:164|376:212|376:212|304:316,2,360,0|2|0,0:0|0:0|0:0,0:0:0:0:
164,76,86567,6,0,L|100:180,1,112.5
348,76,86834,2,0,L|412:180,1,112.5,2|0,0:0|0:0,0:0:0:0:
256,328,87100,2,0,L|256:212,2,112.5,0|0|2,0:0|0:0|0:0,0:0:0:0:
76,192,87500,5,0,0:0:0:0:
436,192,87767,1,2,0:0:0:0:
76,192,88034,1,2,0:0:0:0:
436,192,88300,1,2,0:0:0:0:
376,96,88434,5,0,0:0:0:0:
328,68,88500,1,0,0:0:0:0:
272,68,88567,1,0,0:0:0:0:
232,108,88634,1,0,0:0:0:0:
220,164,88700,6,0,P|192:220|120:248,1,112.5
48,108,88967,2,0,P|104:104|140:148,2,112.5,2|0|0,0:0|0:0|0:0,0:0:0:0:
52,220,89367,1,0,0:0:0:0:
144,284,89500,1,2,0:0:0:0:
256,296,89634,6,0,P|312:260|336:212,1,112.5
228,184,89900,2,0,P|284:136|292:92,1,112.5,2|0,0:0|0:0,0:0:0:0:
184,72,90167,2,0,P|120:92|76:136,1,112.5,2|0,0:0|0:0,0:0:0:0:
172,196,90434,2,0,P|124:232|96:284,1,112.5,2|0,0:0|0:0,0:0:0:0:
196,332,90700,1,0,0:0:0:0:
308,316,90834,6,0,P|368:248|364:120,1,225,0|2,0:0|0:0,0:0:0:0:
400,284,91234,6,0,P|417:195|350:86,1,225,0|2,0:0|0:0,0:0:0:0:
464,212,91634,6,0,P|435:126|322:65,1,225,0|2,0:0|0:0,0:0:0:0:
208,72,92034,1,0,0:0:0:0:
128,152,92167,1,2,0:0:0:0:
236,184,92300,1,0,0:0:0:0:
160,268,92434,2,0,P|216:296|268:288,1,112.5
312,188,92700,2,0,P|372:216|400:256,1,112.5,2|0,0:0|0:0,0:0:0:0:
276,132,92967,6,0,P|190:101|73:153,1,225,0|2,0:0|0:0,0:0:0:0:
212,58,93367,6,0,P|123:75|47:178,1,225,0|2,0:0|0:0,0:0:0:0:
123,26,93767,6,0,P|54:85|39:212,1,225,0|2,0:0|0:0,0:0:0:0:
240,304,94300,5,2,0:0:0:0:
240,304,94567,2,0,P|304:280|332:240,1,112.5
372,84,94834,1,2,0:0:0:0:
292,56,94900,1,0,0:0:0:0:
212,84,94967,1,0,0:0:0:0:
136,236,95100,6,0,P|100:300|52:324,1,112.5
376,236,95367,2,0,P|412:300|460:324,1,112.5,2|0,0:0|0:0,0:0:0:0:
440,148,95634,1,0,0:0:0:0:
344,92,95767,1,0,0:0:0:0:
240,136,95900,1,2,0:0:0:0:
148,72,96034,5,0,0:0:0:0:
364,312,96300,1,2,0:0:0:0:
120,44,96567,1,2,0:0:0:0:
392,340,96834,1,2,0:0:0:0:
416,232,96967,5,0,0:0:0:0:
400,176,97034,1,0,0:0:0:0:
352,144,97100,1,0,0:0:0:0:
296,156,97167,1,0,0:0:0:0:
264,204,97234,6,0,P|216:252|156:260,1,112.5
80,200,97500,1,2,0:0:0:0:
140,104,97634,1,0,0:0:0:0:
252,88,97767,2,0,P|308:100|368:160,2,112.5,0|0|2,0:0|0:0|0:0,0:0:0:0:
140,216,98167,6,0,P|108:264|44:288,1,112.5
172,296,98434,2,0,P|116:320|52:308,1,112.5,2|0,0:0|0:0,0:0:0:0:
372,216,98700,2,0,P|404:264|468:288,1,112.5,2|0,0:0|0:0,0:0:0:0:
340,296,98967,2,0,P|396:320|460:308,1,112.5,2|0,0:0|0:0,0:0:0:0:
256,192,99234,1,0,0:0:0:0:
256,192,99367,6,0,P|204:128|288:40,1,225,0|2,0:0|0:0,0:0:0:0:
358,75,99767,6,0,P|242:110|256:192,1,225,0|2,0:0|0:0,0:0:0:0:
256,192,100167,6,0,P|285:114|403:142,1,225,0|2,0:0|0:0,0:0:0:0:
452,244,100567,5,0,0:0:0:0:
360,308,100700,1,2,0:0:0:0:
256,264,100834,1,0,0:0:0:0:
152,308,100967,1,0,0:0:0:0:
60,244,101100,1,0,0:0:0:0:
92,136,101234,5,2,0:0:0:0:
124,88,101300,1,0,0:0:0:0:
180,76,101367,1,0,0:0:0:0:
232,96,101434,1,0,0:0:0:0:
260,144,101500,6,0,P|304:184|448:132,1,225,0|2,0:0|0:0,0:0:0:0:
332,124,101900,6,0,P|348:188|488:256,1,225,0|2,0:0|0:0,0:0:0:0:
420,160,102300,6,0,P|348:176|288:308,1,225,0|2,0:0|0:0,0:0:0:0:
176,320,102700,6,0,P|100:340|56:336,2,112.5,0|2|0,0:0|0:0|0:0,0:0:0:0:
248,236,103100,1,0,0:0:0:0:
152,172,103234,1,0,0:0:0:0:
228,88,103367,2,0,P|276:64|340:68,1,112.5,2|0,0:0|0:0,0:0:0:0:
444,88,103634,5,0,0:0:0:0:
380,244,103767,1,0,0:0:0:0:
220,188,103900,1,2,0:0:0:0:
284,32,104034,1,0,0:0:0:0:
454,191,104167,5,0,0:0:0:0:
321,294,104300,1,0,0:0:0:0:
210,166,104433,1,2,0:0:0:0:
344,63,104567,1,0,0:0:0:0:
412,286,104700,5,0,0:0:0:0:
245,309,104833,1,0,0:0:0:0:
213,142,104966,1,2,0:0:0:0:
380,120,105100,1,0,0:0:0:0:
327,348,105234,5,0,0:0:0:0:
171,284,105367,1,0,0:0:0:0:
228,124,105500,1,2,0:0:0:0:
384,188,105634,1,0,0:0:0:0:
312,276,105767,6,0,P|240:300|0:216,2,337.5,0|0|2,0:0|0:0|0:0,0:0:0:0:
88,252,106834,2,0,P|272:268|432:80,1,450,0|2,0:0|0:0,0:0:0:0:
380,60,107500,5,0,0:0:0:0:
324,52,107634,5,0,0:0:0:0:
272,76,107767,5,0,0:0:0:0:
244,124,107900,5,4,0:0:0:0:
244,124,108300,1,4,0:0:0:0:
244,124,108700,1,4,0:0:0:0:
244,124,108967,1,4,0:0:0:0:
344,84,110034,5,0,0:0:0:0:
424,192,110167,1,0,0:0:0:0:
340,300,110300,1,2,0:0:0:0:
204,296,110434,1,0,0:0:0:0:
160,168,110567,2,0,P|184:116|232:92,1,90
344,84,110834,2,0,P|384:40|428:32,1,90,2|0,0:0|0:0,0:0:0:0:
480,148,111100,5,0,0:0:0:0:
480,148,111167,1,0,0:0:0:0:
480,148,111234,1,0,0:0:0:0:
416,268,111367,1,2,0:0:0:0:
416,268,111434,1,0,0:0:0:0:
416,268,111500,1,0,0:0:0:0:
280,288,111634,5,0,0:0:0:0:
236,280,111700,1,0,0:0:0:0:
200,256,111767,1,0,0:0:0:0:
180,216,111834,1,0,0:0:0:0:
184,172,111900,2,0,P|196:132|232:96,1,90,2|0,0:0|0:0,0:0:0:0:
320,84,112167,6,0,L|416:68,2,90,0|0|2,0:0|0:0|0:0,0:0:0:0:
212,168,112567,2,0,L|123:182,1,90
56,300,112834,1,0,0:0:0:0:
184,340,112967,1,2,0:0:0:0:
300,268,113100,1,0,0:0:0:0:
308,132,113234,6,0,P|328:92|368:72,1,90
352,208,113500,2,0,P|416:184|460:200,1,90,2|0,0:0|0:0,0:0:0:0:
356,300,113767,2,0,P|412:312|440:332,2,90,0|0|2,0:0|0:0|0:0,0:0:0:0:
312,300,114100,1,0,0:0:0:0:
268,284,114167,1,0,0:0:0:0:
236,252,114234,1,0,0:0:0:0:
220,212,114300,6,0,P|192:176|148:160,1,90
412,84,114700,1,0,0:0:0:0:
412,84,114834,2,0,L|432:188,1,90,2|0,0:0|0:0,0:0:0:0:
164,216,115234,2,0,L|68:244,2,90,0|2|0,0:0|0:0|0:0,0:0:0:0:
420,296,115767,1,0,0:0:0:0:
420,296,115900,2,0,L|388:200,1,90,2|0,0:0|0:0,0:0:0:0:
264,168,116167,2,0,L|232:72,1,90,2|0,0:0|0:0,0:0:0:0:
104,116,116434,5,0,0:0:0:0:
140,244,116567,1,0,0:0:0:0:
244,156,116700,1,2,0:0:0:0:
112,184,116834,5,0,0:0:0:0:
148,312,116967,1,0,0:0:0:0:
252,224,117100,1,2,0:0:0:0:
352,316,117234,5,0,0:0:0:0:
316,188,117367,1,0,0:0:0:0:
212,276,117500,1,2,0:0:0:0:
344,248,117634,5,0,0:0:0:0:
308,120,117767,1,0,0:0:0:0:
204,208,117900,1,2,0:0:0:0:
336,184,118034,6,0,P|404:152|424:56,1,180,0|2,0:0|0:0,0:0:0:0:
168,84,118567,5,0,0:0:0:0:
88,192,118700,1,0,0:0:0:0:
172,300,118833,1,2,0:0:0:0:
308,296,118967,1,0,0:0:0:0:
352,168,119100,2,0,P|328:116|280:92,1,90
168,84,119367,2,0,P|128:40|84:32,1,90,2|0,0:0|0:0,0:0:0:0:
32,148,119633,5,0,0:0:0:0:
32,148,119700,1,0,0:0:0:0:
32,148,119767,1,0,0:0:0:0:
96,268,119900,1,2,0:0:0:0:
96,268,119967,1,0,0:0:0:0:
96,268,120033,1,0,0:0:0:0:
232,288,120167,5,0,0:0:0:0:
276,280,120233,1,0,0:0:0:0:
312,256,120300,1,0,0:0:0:0:
332,216,120367,1,0,0:0:0:0:
328,172,120433,2,0,P|316:132|280:96,1,90,2|0,0:0|0:0,0:0:0:0:
192,84,120700,6,0,L|96:68,2,90,0|0|2,0:0|0:0|0:0,0:0:0:0:
300,168,121100,2,0,L|388:182,1,90
456,300,121367,1,0,0:0:0:0:
328,340,121500,1,2,0:0:0:0:
212,268,121633,1,0,0:0:0:0:
204,132,121767,6,0,P|184:92|144:72,1,90
160,208,122033,2,0,P|96:184|52:200,1,90,2|0,0:0|0:0,0:0:0:0:
156,300,122300,2,0,P|100:312|72:332,2,90,0|0|2,0:0|0:0|0:0,0:0:0:0:
200,300,122633,1,0,0:0:0:0:
244,284,122700,1,0,0:0:0:0:
276,252,122767,1,0,0:0:0:0:
292,212,122833,6,0,P|320:176|364:160,1,90
100,84,123233,1,0,0:0:0:0:
100,84,123367,2,0,L|80:188,1,90,2|0,0:0|0:0,0:0:0:0:
348,216,123767,2,0,L|444:244,2,90,0|2|0,0:0|0:0|0:0,0:0:0:0:
92,296,124300,1,0,0:0:0:0:
92,296,124433,2,0,L|124:200,1,90,2|0,0:0|0:0,0:0:0:0:
248,168,124700,2,0,L|280:72,1,90,2|0,0:0|0:0,0:0:0:0:
408,116,124967,5,0,0:0:0:0:
372,244,125100,1,0,0:0:0:0:
268,156,125233,1,2,0:0:0:0:
400,184,125367,5,0,0:0:0:0:
364,312,125500,1,0,0:0:0:0:
260,224,125633,1,2,0:0:0:0:
160,316,125767,5,0,0:0:0:0:
196,188,125900,1,0,0:0:0:0:
300,276,126033,1,2,0:0:0:0:
168,248,126167,5,0,0:0:0:0:
204,120,126300,1,0,0:0:0:0:
308,208,126433,1,2,0:0:0:0:
176,184,126567,6,0,P|108:152|88:56,1,180,0|2,0:0|0:0,0:0:0:0:
292,72,127100,5,0,0:0:0:0:
392,96,127500,1,0,0:0:0:0:
420,192,127900,1,0,0:0:0:0:
368,280,128300,2,0,P|292:308|204:236,1,202.500007724762,0|2,0:0|0:0,0:0:0:0:
204,238,128967,1,0,0:0:0:0:
188,172,129234,6,0,P|152:108|32:76,2,202.500007724762
128,256,130434,2,0,P|164:304|296:272,1,202.500007724762,0|2,0:0|0:0,0:0:0:0:
328,224,131100,1,0,0:0:0:0:
328,224,131234,1,0,0:0:0:0:
328,224,131367,6,0,P|344:140|456:64,1,202.500007724762
332,48,132167,1,0,0:0:0:0:
232,56,132567,1,0,0:0:0:0:
152,120,132967,2,0,P|132:176|160:256,1,135.000005149842,0|2,0:0|0:0,0:0:0:0:
212,276,133500,6,0,B|252:240|252:240|312:256|360:220|356:140,2,202.500007724762
156,240,134567,2,0,P|128:196|128:164,1,67.5000025749208,0|2,0:0|0:0,0:0:0:0:
128,116,134967,1,0,0:0:0:0:
128,116,135100,1,2,0:0:0:0:
168,60,135367,1,2,0:0:0:0:
288,288,135634,6,0,P|216:288|168:256,1,90
240,200,135900,2,0,P|184:184|160:156,1,90,2|0,0:0|0:0,0:0:0:0:
212,84,136167,1,0,0:0:0:0:
292,44,136300,1,0,0:0:0:0:
376,76,136434,1,2,0:0:0:0:
416,156,136567,1,0,0:0:0:0:
376,236,136700,6,0,P|344:304|348:328,1,90
280,252,136967,2,0,P|212:272|196:292,1,90,2|0,0:0|0:0,0:0:0:0:
112,288,137234,1,0,0:0:0:0:
56,216,137367,1,0,0:0:0:0:
84,132,137500,1,2,0:0:0:0:
164,92,137634,1,0,0:0:0:0:
248,124,137767,6,0,P|324:156|440:160,1,180,0|2,0:0|0:0,0:0:0:0:
296,220,138167,2,0,P|372:228|464:152,1,180,0|2,0:0|0:0,0:0:0:0:
436,84,138567,1,0,0:0:0:0:
360,36,138700,1,0,0:0:0:0:
272,52,138834,5,0,0:0:0:0:
272,52,138900,1,0,0:0:0:0:
272,52,138967,1,0,0:0:0:0:
172,140,139100,2,0,P|124:156|64:156,1,90,2|0,0:0|0:0,0:0:0:0:
252,228,139367,1,0,0:0:0:0:
252,228,139434,1,0,0:0:0:0:
252,228,139500,1,0,0:0:0:0:
376,280,139634,2,0,P|424:296|472:292,1,90,2|0,0:0|0:0,0:0:0:0:
472,160,139900,6,0,P|428:112|308:124,1,180,0|2,0:0|0:0,0:0:0:0:
40,160,140300,2,0,P|84:112|204:124,1,180,0|2,0:0|0:0,0:0:0:0:
272,160,140700,1,0,0:0:0:0:
304,244,140834,1,0,0:0:0:0:
252,316,140967,6,0,P|208:340|160:332,2,90,0|0|2,0:0|0:0|0:0,0:0:0:0:
332,276,141367,1,0,0:0:0:0:
388,204,141500,2,0,P|424:160|432:120,1,90
344,116,141767,2,0,P|328:72|288:44,1,90,2|0,0:0|0:0,0:0:0:0:
208,68,142034,6,0,P|88:144|320:124,1,720
212,204,143367,1,2,0:0:0:0:
212,204,143634,1,2,0:0:0:0:
212,204,143900,1,2,0:0:0:0:
416,112,144167,6,0,P|444:180|428:236,2,112.5,0|0|2,0:0|0:0|0:0,0:0:0:0:
320,52,144567,1,0,0:0:0:0:
212,80,144700,1,0,0:0:0:0:
172,184,144834,2,0,P|180:248|224:296,1,112.5
120,84,145100,6,0,P|76:44|20:24,1,112.5,0|0,0:0|0:0,0:0:0:0:
392,300,145366,6,0,P|436:340|492:360,1,112.5,2|0,0:0|0:0,0:0:0:0:
120,300,145633,6,0,P|76:340|20:360,1,112.5,2|0,0:0|0:0,0:0:0:0:
392,84,145900,6,0,P|436:44|492:24,1,112.5,2|0,0:0|0:0,0:0:0:0:
256,216,146167,5,0,0:0:0:0:
256,216,146300,1,0,0:0:0:0:
256,216,146434,1,0,0:0:0:0:
256,216,146567,2,0,L|256:336,1,112.5,2|0,0:0|0:0,0:0:0:0:
256,168,146834,2,0,L|256:40,2,112.5,0|0|2,0:0|0:0|0:0,0:0:0:0:
88,192,147234,5,0,0:0:0:0:
424,192,147500,1,2,0:0:0:0:
88,192,147767,1,2,0:0:0:0:
424,192,148034,1,2,0:0:0:0:
168,108,148300,5,0,0:0:0:0:
168,108,148434,2,0,L|80:32,1,112.5,2|0,0:0|0:0,0:0:0:0:
212,216,148700,1,0,0:0:0:0:
212,216,148834,2,0,L|124:140,1,112.5,2|0,0:0|0:0,0:0:0:0:
260,324,149100,1,0,0:0:0:0:
260,324,149234,2,0,P|160:232|364:112,1,450,2|2,0:0|0:0,0:0:0:0:
416,200,149900,5,0,0:0:0:0:
372,304,150034,1,0,0:0:0:0:
260,324,150167,1,0,0:0:0:0:
164,268,150300,1,2,0:0:0:0:
140,164,150434,1,0,0:0:0:0:
224,88,150567,6,0,L|312:12,1,112.5,2|0,0:0|0:0,0:0:0:0:
180,200,150833,1,0,0:0:0:0:
180,200,150967,2,0,L|268:124,1,112.5,2|0,0:0|0:0,0:0:0:0:
132,308,151233,1,0,0:0:0:0:
132,308,151367,2,0,B|200:276|200:276|228:304|304:300|344:248|340:188|304:132|256:120|256:120|296:72|344:76,1,450,2|2,0:0|0:0,0:0:0:0:
438,91,152033,5,0,0:0:0:0:
470,200,152167,1,0,0:0:0:0:
395,286,152300,1,0,0:0:0:0:
285,303,152433,1,2,0:0:0:0:
201,237,152567,1,0,0:0:0:0:
136,148,152700,6,0,P|100:84|52:60,1,112.5
376,148,152967,2,0,P|412:84|460:60,1,112.5,2|0,0:0|0:0,0:0:0:0:
440,236,153234,1,0,0:0:0:0:
344,292,153367,1,0,0:0:0:0:
240,248,153500,1,2,0:0:0:0:
148,312,153634,5,0,0:0:0:0:
364,72,153900,1,2,0:0:0:0:
120,340,154167,1,2,0:0:0:0:
392,44,154434,1,2,0:0:0:0:
416,152,154567,5,0,0:0:0:0:
400,208,154634,1,0,0:0:0:0:
352,240,154700,1,0,0:0:0:0:
296,228,154767,1,0,0:0:0:0:
264,180,154834,6,0,P|216:132|156:124,1,112.5
80,184,155100,1,2,0:0:0:0:
140,280,155234,1,0,0:0:0:0:
252,296,155367,2,0,P|308:284|368:224,2,112.5,0|0|2,0:0|0:0|0:0,0:0:0:0:
140,168,155767,6,0,P|108:120|44:96,1,112.5
172,88,156034,2,0,P|116:64|52:76,1,112.5,2|0,0:0|0:0,0:0:0:0:
372,168,156300,2,0,P|404:120|468:96,1,112.5,2|0,0:0|0:0,0:0:0:0:
340,88,156567,2,0,P|396:64|460:76,1,112.5,2|0,0:0|0:0,0:0:0:0:
256,192,156834,1,0,0:0:0:0:
256,192,156967,6,0,P|204:256|288:344,1,225,0|2,0:0|0:0,0:0:0:0:
358,309,157367,6,0,P|242:274|256:192,1,225,0|2,0:0|0:0,0:0:0:0:
256,192,157767,6,0,P|285:270|403:242,1,225,0|2,0:0|0:0,0:0:0:0:
452,140,158167,5,0,0:0:0:0:
360,76,158300,1,2,0:0:0:0:
256,120,158434,1,0,0:0:0:0:
152,76,158567,1,0,0:0:0:0:
60,140,158700,1,0,0:0:0:0:
92,248,158834,5,2,0:0:0:0:
124,296,158900,1,0,0:0:0:0:
180,308,158967,1,0,0:0:0:0:
232,288,159034,1,0,0:0:0:0:
260,240,159100,6,0,P|304:200|448:252,1,225,0|2,0:0|0:0,0:0:0:0:
332,260,159500,6,0,P|348:196|488:128,1,225,0|2,0:0|0:0,0:0:0:0:
420,224,159900,6,0,P|348:208|288:76,1,225,0|2,0:0|0:0,0:0:0:0:
176,64,160300,6,0,P|100:44|56:48,2,112.5,0|2|0,0:0|0:0|0:0,0:0:0:0:
248,148,160700,1,0,0:0:0:0:
152,212,160834,1,0,0:0:0:0:
228,296,160967,2,0,P|276:320|340:316,1,112.5,2|0,0:0|0:0,0:0:0:0:
444,296,161234,5,0,0:0:0:0:
380,140,161367,1,0,0:0:0:0:
220,196,161500,1,2,0:0:0:0:
284,352,161634,1,0,0:0:0:0:
454,193,161767,5,0,0:0:0:0:
321,90,161900,1,0,0:0:0:0:
210,218,162033,1,2,0:0:0:0:
344,321,162167,1,0,0:0:0:0:
412,98,162300,5,0,0:0:0:0:
245,75,162433,1,0,0:0:0:0:
213,242,162566,1,2,0:0:0:0:
380,264,162700,1,0,0:0:0:0:
327,36,162834,5,0,0:0:0:0:
171,100,162967,1,0,0:0:0:0:
228,260,163100,1,2,0:0:0:0:
384,196,163234,1,0,0:0:0:0:
312,108,163367,6,0,P|240:84|0:168,2,337.5,0|0|2,0:0|0:0|0:0,0:0:0:0:
88,132,164434,2,0,P|272:116|432:304,1,450,0|2,0:0|0:0,0:0:0:0:
380,324,165100,5,0,0:0:0:0:
324,332,165234,5,0,0:0:0:0:
272,308,165367,5,0,0:0:0:0:
244,260,165500,5,4,0:0:0:0:
244,260,165900,1,4,0:0:0:0:
244,260,166300,1,4,0:0:0:0:
244,260,166567,1,4,0:0:0:0:
256,192,167634,12,0,168967,0:0:0:0:
256,144,169234,5,0,0:0:0:0:
256,240,169500,1,2,0:0:0:0:
256,192,169767,12,0,171100,0:0:0:0:
256,136,171367,5,0,0:0:0:0:
256,248,171633,1,2,0:0:0:0:
256,192,171900,12,0,173233,0:0:0:0:
256,128,173500,5,0,0:0:0:0:
256,256,173766,1,2,0:0:0:0:
256,192,174034,12,0,175367,0:0:0:0:
256,120,175634,5,0,0:0:0:0:
256,268,175900,1,2,0:0:0:0:
256,192,176167,12,0,177500,0:0:0:0:
256,112,177767,5,0,0:0:0:0:
256,272,178033,1,2,0:0:0:0:
256,192,178300,12,0,179633,0:0:0:0:
256,104,179900,5,0,0:0:0:0:
256,280,180166,1,2,0:0:0:0:
256,192,180434,12,0,181767,0:0:0:0:
256,96,182034,5,0,0:0:0:0:
256,288,182300,1,2,0:0:0:0:
36,192,182567,5,0,0:0:0:0:
36,192,182634,1,0,0:0:0:0:
36,192,182700,1,0,0:0:0:0:
36,192,182767,1,0,0:0:0:0:
36,192,182834,1,0,0:0:0:0:
40,192,182900,1,0,0:0:0:0:
44,192,182967,1,0,0:0:0:0:
48,192,183034,1,0,0:0:0:0:
52,192,183100,1,0,0:0:0:0:
56,192,183167,1,0,0:0:0:0:
60,192,183234,1,0,0:0:0:0:
64,192,183300,1,0,0:0:0:0:
68,192,183367,1,0,0:0:0:0:
80,192,183434,1,0,0:0:0:0:
92,192,183501,1,0,0:0:0:0:
104,192,183568,1,0,0:0:0:0:
116,192,183634,1,0,0:0:0:0:
132,192,183701,1,0,0:0:0:0:
148,192,183768,1,0,0:0:0:0:
164,192,183834,1,0,0:0:0:0:
180,192,183901,1,0,0:0:0:0:
204,192,183968,1,0,0:0:0:0:
228,192,184034,1,0,0:0:0:0:
252,192,184101,1,0,0:0:0:0:
276,192,184168,1,0,0:0:0:0:
304,192,184234,1,0,0:0:0:0:
332,192,184301,1,0,0:0:0:0:
360,192,184368,1,0,0:0:0:0:
388,192,184434,1,0,0:0:0:0:
420,192,184500,1,0,0:0:0:0:
452,192,184567,1,0,0:0:0:0:
484,192,184634,1,0,0:0:0:0:
468,160,184700,6,0,P|428:108|360:92,1,112.5
216,76,184967,2,0,P|252:132|300:144,1,112.5,2|0,0:0|0:0,0:0:0:0:
468,224,185234,2,0,P|428:276|360:292,1,112.5
216,308,185501,2,0,P|252:252|300:240,1,112.5,2|0,0:0|0:0,0:0:0:0:
384,172,185767,5,0,0:0:0:0:
300,100,185900,1,0,0:0:0:0:
188,92,186034,1,2,0:0:0:0:
120,180,186167,1,0,0:0:0:0:
176,276,186300,2,0,P|228:296|288:288,1,112.5
264,180,186567,2,0,P|320:192|376:168,1,112.5,2|0,0:0|0:0,0:0:0:0:
348,64,186834,5,0,0:0:0:0:
240,88,186967,1,0,0:0:0:0:
188,188,187100,2,0,P|136:216|64:216,2,112.5,2|0|0,0:0|0:0|0:0,0:0:0:0:
248,284,187500,1,0,0:0:0:0:
360,300,187634,1,2,0:0:0:0:
436,216,187767,6,0,L|464:104,1,112.5
312,184,188034,6,0,L|340:72,1,112.5,2|0,0:0|0:0,0:0:0:0:
192,156,188300,6,0,L|220:44,2,112.5,2|0|2,0:0|0:0|0:0,0:0:0:0:
164,264,188700,1,0,0:0:0:0:
80,188,188834,1,0,0:0:0:0:
184,56,188967,6,0,P|264:68|356:196,1,225,0|2,0:0|0:0,0:0:0:0:
216,272,189367,6,0,P|232:208|376:136,1,225,0|2,0:0|0:0,0:0:0:0:
452,280,189767,6,0,P|364:264|308:120,1,225,0|2,0:0|0:0,0:0:0:0:
380,68,190167,5,0,0:0:0:0:
448,156,190300,1,2,0:0:0:0:
408,260,190434,1,0,0:0:0:0:
300,284,190567,1,0,0:0:0:0:
208,220,190700,2,0,P|164:168|156:112,2,112.5,0|2|0,0:0|0:0|0:0,0:0:0:0:
312,176,191100,6,0,P|372:160|484:40,1,225,0|2,0:0|0:0,0:0:0:0:
200,208,191500,6,0,P|140:224|28:344,1,225,0|2,0:0|0:0,0:0:0:0:
314,191,191900,6,0,P|376:191|515:104,1,225,0|2,0:0|0:0,0:0:0:0:
420,40,192300,5,0,0:0:0:0:
312,76,192434,1,2,0:0:0:0:
248,168,192567,1,0,0:0:0:0:
144,212,192700,1,0,0:0:0:0:
44,156,192834,1,0,0:0:0:0:
84,52,192967,5,2,0:0:0:0:
140,36,193034,1,0,0:0:0:0:
192,56,193100,1,0,0:0:0:0:
264,144,193234,6,0,P|312:184|376:192,1,112.5
300,288,193500,2,0,P|364:256|376:208,1,112.5,2|0,0:0|0:0,0:0:0:0:
480,260,193767,1,0,0:0:0:0:
440,156,193900,1,0,0:0:0:0:
348,88,194034,1,2,0:0:0:0:
236,76,194167,5,0,0:0:0:0:
276,308,194434,1,2,0:0:0:0:
229,36,194700,1,2,0:0:0:0:
282,347,194967,1,2,0:0:0:0:
372,276,195100,5,0,0:0:0:0:
404,228,195167,1,0,0:0:0:0:
376,180,195234,1,0,0:0:0:0:
320,180,195300,1,0,0:0:0:0:
296,232,195367,6,0,P|244:264|176:248,1,112.5
96,200,195634,1,2,0:0:0:0:
104,88,195767,1,0,0:0:0:0:
212,52,195900,1,0,0:0:0:0:
212,52,195967,1,0,0:0:0:0:
212,52,196034,1,0,0:0:0:0:
320,76,196167,1,2,0:0:0:0:
352,184,196300,6,0,P|320:256|184:292,3,225,0|2|2|2,0:0|0:0|0:0|0:0,0:0:0:0:
72,100,197367,5,0,0:0:0:0:
156,176,197500,2,0,P|192:132|92:36,1,225,0|2,0:0|0:0,0:0:0:0:
176,184,197900,6,0,P|229:163|190:30,1,225,0|2,0:0|0:0,0:0:0:0:
188,200,198300,6,0,P|244:209|277:74,1,225,0|2,0:0|0:0,0:0:0:0:
172,100,198700,5,0,0:0:0:0:
92,180,198834,1,2,0:0:0:0:
128,288,198967,1,0,0:0:0:0:
240,304,199100,1,0,0:0:0:0:
336,244,199234,2,0,P|368:204|380:140,2,112.5,0|2|0,0:0|0:0|0:0,0:0:0:0:
252,168,199634,6,0,P|216:212|316:308,1,225,0|2,0:0|0:0,0:0:0:0:
232,160,200034,6,0,P|178:180|217:313,1,225,0|2,0:0|0:0,0:0:0:0:
220,144,200434,6,0,P|163:134|130:269,1,225,0|2,0:0|0:0,0:0:0:0:
228,316,200834,5,0,0:0:0:0:
336,284,200967,1,2,0:0:0:0:
388,184,201100,1,0,0:0:0:0:
328,88,201234,2,0,P|280:48|224:40,2,112.5,0|0|2,0:0|0:0|0:0,0:0:0:0:
77,78,201767,5,0,0:0:0:0:
77,190,201900,1,0,0:0:0:0:
190,190,202034,1,2,0:0:0:0:
190,77,202167,1,0,0:0:0:0:
61,120,202300,5,0,0:0:0:0:
90,228,202433,1,0,0:0:0:0:
199,199,202567,1,2,0:0:0:0:
170,89,202700,1,0,0:0:0:0:
57,164,202834,5,0,0:0:0:0:
113,261,202967,1,0,0:0:0:0:
211,205,203101,1,2,0:0:0:0:
154,107,203234,1,0,0:0:0:0:
64,208,203367,5,0,0:0:0:0:
144,288,203500,1,0,0:0:0:0:
224,208,203634,1,2,0:0:0:0:
144,128,203767,1,0,0:0:0:0:
129,238,203900,6,0,P|193:258|261:242,1,112.5
457,210,204167,2,0,P|393:190|325:206,1,112.5,2|0,0:0|0:0,0:0:0:0:
168,119,204434,2,0,P|199:178|258:215,1,112.5
420,332,204701,2,0,P|388:272|329:235,1,112.5,2|0,0:0|0:0,0:0:0:0:
288,96,204967,6,0,P|300:172|188:296,2,225,0|2|0,0:0|0:0|0:0,0:0:0:0:
184,56,205634,1,0,0:0:0:0:
92,120,205767,1,2,0:0:0:0:
108,232,205900,1,0,0:0:0:0:
220,256,206034,5,0,0:0:0:0:
332,268,206167,1,0,0:0:0:0:
232,220,206300,5,2,0:0:0:0:
343,202,206433,1,0,0:0:0:0:
232,184,206567,5,0,0:0:0:0:
334,137,206700,1,0,0:0:0:0:
220,148,206834,5,2,0:0:0:0:
306,76,206967,1,0,0:0:0:0:
200,116,207100,6,0,P|124:148|80:144,1,112.5
152,244,207367,2,0,P|88:208|64:156,1,112.5,2|0,0:0|0:0,0:0:0:0:
96,64,207634,1,0,0:0:0:0:
204,28,207767,1,0,0:0:0:0:
308,72,207900,1,2,0:0:0:0:
356,176,208034,1,0,0:0:0:0:
284,264,208167,5,0,0:0:0:0:
284,264,208300,1,0,0:0:0:0:
96,136,208434,1,2,0:0:0:0:
96,136,208567,1,0,0:0:0:0:
304,52,208700,1,0,0:0:0:0:
304,52,208834,1,0,0:0:0:0:
476,196,208967,1,2,0:0:0:0:
476,196,209100,1,0,0:0:0:0:
476,196,209234,6,0,P|412:260|104:168,1,450,0|0,0:0|0:0,0:0:0:0:
148,68,209900,1,0,0:0:0:0:
256,40,210034,1,2,0:0:0:0:
348,104,210167,1,0,0:0:0:0:
372,212,210300,6,0,P|348:280|204:336,1,225,0|2,0:0|0:0,0:0:0:0:
276,240,210700,2,0,P|236:292|84:328,1,225,0|2,0:0|0:0,0:0:0:0:
176,260,211100,2,0,P|136:292|68:304,1,112.5,0|2,0:0|0:0,0:0:0:0:
88,192,211367,5,0,0:0:0:0:
132,88,211500,1,0,0:0:0:0:
240,48,211634,1,2,0:0:0:0:
344,88,211767,1,2,0:0:0:0:
396,188,211900,1,0,0:0:0:0:
356,296,212034,1,0,0:0:0:0:
244,296,212167,1,2,0:0:0:0:
260,184,212300,1,2,0:0:0:0:
372,212,212434,6,0,P|348:280|204:336,1,225,0|2,0:0|0:0,0:0:0:0:
276,240,212834,2,0,P|236:292|84:328,1,225,0|2,0:0|0:0,0:0:0:0:
176,260,213234,2,0,P|136:292|68:304,1,112.5,0|2,0:0|0:0,0:0:0:0:
88,192,213500,5,0,0:0:0:0:
132,88,213633,1,0,0:0:0:0:
240,48,213767,1,2,0:0:0:0:
344,88,213900,1,2,0:0:0:0:
396,188,214033,1,0,0:0:0:0:
356,296,214167,1,0,0:0:0:0:
244,296,214300,1,2,0:0:0:0:
260,184,214433,1,2,0:0:0:0:
372,212,214567,6,0,P|348:280|204:336,1,225,0|2,0:0|0:0,0:0:0:0:
276,240,214967,2,0,P|236:292|84:328,1,225,0|2,0:0|0:0,0:0:0:0:
176,260,215367,2,0,P|136:292|68:304,1,112.5,0|2,0:0|0:0,0:0:0:0:
96,192,215634,1,0,0:0:0:0:
136,88,215767,2,0,P|192:56|256:68,2,112.5,0|2|0,0:0|0:0|0:0,0:0:0:0:
256,192,216167,12,0,222300,0:0:0:0:
