osu file format v12

[General]
AudioFilename: houkago stride kano.mp3
AudioLeadIn: 1000
PreviewTime: 86036
Countdown: 0
SampleSet: Soft
StackLeniency: 0.7
Mode: 0
LetterboxInBreaks: 1

[Editor]
Bookmarks: 1234,9767,26834,52434,69500,86567,110034,127100,144167,167634,184700,222300
DistanceSpacing: 1.2
BeatDivisor: 4
GridSize: 4

[Metadata]
Title:Houkago Stride
TitleUnicode:放課後ストライド
Artist:kano
ArtistUnicode:鹿乃
Creator:Clementine
Version:monemone AR10
Source:
Tags:vocaloid last note. binjip cilvery caren_sk amamiya yuko yoshilove
BeatmapID:226745
BeatmapSetID:79878

[Difficulty]
HPDrainRate:6
CircleSize:4
OverallDifficulty:8
ApproachRate:10
SliderMultiplier:1.8
SliderTickRate:1

[Events]
//Background and Video events
0,0,"bg.jpg",0,0
//Break Periods
2,46234,51984
//Storyboard Layer 0 (Background)
//Storyboard Layer 1 (Fail)
//Storyboard Layer 2 (Pass)
//Storyboard Layer 3 (Foreground)
//Storyboard Sound Samples
//Background Colour Transformations
3,100,0,0,0

[TimingPoints]
1234,266.666666666667,4,2,1,80,1,0
9767,-100,4,2,1,80,0,1
26834,-100,4,2,1,80,0,0
86567,-80,4,2,1,80,0,1
103634,-100,4,2,1,80,0,1
110034,-100,4,2,1,80,0,0
144167,-80,4,2,1,80,0,1
167634,-80,4,2,1,80,0,0
182700,-80,4,2,1,30,0,0
182900,-80,4,2,1,40,0,0
183100,-80,4,2,1,50,0,0
183300,-80,4,2,1,60,0,0
183500,-80,4,2,1,65,0,0
183700,-80,4,2,1,70,0,0
183900,-80,4,2,1,75,0,0
184100,-80,4,2,1,80,0,0
184700,-80,4,2,1,80,0,1
201767,-80,4,2,1,80,0,0

[Colours]
Combo1 : 122,173,231
Combo2 : 86,220,153
Combo3 : 213,136,232
Combo4 : 197,226,80

[HitObjects]
145,105,1234,5,2,0:0:0:0:
145,105,1500,2,0,P|102:99|76:60,2,90
251,82,1900,2,0,B|292:59|344:62|389:90|401:133,1,180
413,240,2300,2,0,P|381:273|337:284,1,90
161,315,2567,2,0,P|176:272|211:243,1,90
101,233,2834,1,0,0:0:0:0:
110,125,2967,1,0,0:0:0:0:
213,93,3100,1,2,0:0:0:0:
350,260,3367,5,2,0:0:0:0:
350,260,3634,2,0,L|258:253,1,90
162,297,3900,2,0,B|83:318|83:318|59:305|50:249|58:214|71:178|115:158,1,270
224,92,4434,1,0,0:0:0:0:
264,76,4500,1,0,0:0:0:0:
308,88,4567,1,0,0:0:0:0:
436,152,4700,1,0,0:0:0:0:
388,288,4834,2,0,P|308:336|220:332,1,180
223,333,5234,1,2,0:0:0:0:
81,128,5500,5,2,0:0:0:0:
81,128,5767,1,0,0:0:0:0:
71,235,5900,1,0,0:0:0:0:
134,323,6034,2,0,B|174:368|265:374|334:360|380:287,1,270
433,206,6567,1,0,0:0:0:0:
433,206,6634,1,0,0:0:0:0:
433,206,6700,1,0,0:0:0:0:
408,100,6834,1,0,0:0:0:0:
304,68,6967,1,0,0:0:0:0:
224,140,7100,2,0,P|220:184|192:220,1,90
140,316,7367,1,2,0:0:0:0:
52,68,7634,6,0,B|90:102|110:137|101:193|78:230,1,180,2|0,0:0|0:0,0:0:0:0:
460,68,8167,2,0,B|422:102|402:137|411:193|434:230,1,180,2|0,0:0|0:0,0:0:0:0:
256,56,8700,1,2,0:0:0:0:
256,176,8967,1,2,0:0:0:0:
342,313,9234,1,0,0:0:0:0:
302,332,9300,1,0,0:0:0:0:
257,338,9367,1,0,0:0:0:0:
211,333,9434,1,0,0:0:0:0:
171,313,9500,1,2,0:0:0:0:
404,65,9767,6,0,P|356:53|314:67,1,90,2|0,0:0|0:0,0:0:0:0:
458,179,10034,2,0,B|454:234|430:281|397:317|364:324,1,180,2|0,0:0|0:0,0:0:0:0:
281,256,10434,1,0,0:0:0:0:
281,256,10567,1,0,0:0:0:0:
194,320,10700,2,0,P|147:320|125:284,1,90,2|0,0:0|0:0,0:0:0:0:
41,218,10967,1,0,0:0:0:0:
137,170,11100,1,0,0:0:0:0:
199,81,11234,1,0,0:0:0:0:
299,118,11367,2,0,P|335:151|380:158,1,90
374,158,11634,1,0,0:0:0:0:
448,298,11767,6,0,B|416:337|374:359|325:350|284:333,1,180,2|0,0:0|0:0,0:0:0:0:
195,273,12167,1,0,0:0:0:0:
157,171,12300,1,0,0:0:0:0:
232,96,12434,1,0,0:0:0:0:
324,152,12567,1,0,0:0:0:0:
316,260,12700,1,0,0:0:0:0:
145,73,12834,6,0,B|93:95|93:95|125:123|143:161|129:210,1,180,2|0,0:0|0:0,0:0:0:0:
100,310,13234,1,2,0:0:0:0:
238,348,13367,1,0,0:0:0:0:
380,330,13500,1,2,0:0:0:0:
460,209,13634,1,0,0:0:0:0:
420,70,13767,1,2,0:0:0:0:
281,33,13900,1,0,0:0:0:0:
66,100,14034,6,0,L|156:111,1,90,2|0,0:0|0:0,0:0:0:0:
114,210,14300,1,2,0:0:0:0:
156,309,14434,1,0,0:0:0:0:
263,319,14567,2,0,L|351:299,1,90
263,319,14834,1,0,0:0:0:0:
443,318,14967,6,0,B|478:269|478:269|476:218|458:192|421:165,1,180,2|0,0:0|0:0,0:0:0:0:
365,75,15367,1,0,0:0:0:0:
365,75,15500,1,0,0:0:0:0:
147,75,15634,1,0,0:0:0:0:
147,75,15767,1,0,0:0:0:0:
96,284,15900,1,0,0:0:0:0:
307,334,16034,6,0,B|352:349|352:349|400:345,2,90,2|0|0,0:0|0:0|0:0,0:0:0:0:
308,225,16434,1,0,0:0:0:0:
402,173,16567,1,0,0:0:0:0:
402,65,16700,2,0,L|308:65,1,90
312,65,16967,1,0,0:0:0:0:
93,74,17100,6,0,B|74:121|74:121|71:174,1,90,2|0,0:0|0:0,0:0:0:0:
118,258,17367,1,0,0:0:0:0:
185,342,17500,1,2,0:0:0:0:
225,241,17634,1,0,0:0:0:0:
299,319,17767,1,2,0:0:0:0:
327,215,17900,1,0,0:0:0:0:
407,288,18034,1,2,0:0:0:0:
432,263,18100,1,0,0:0:0:0:
452,233,18167,1,0,0:0:0:0:
465,199,18234,1,0,0:0:0:0:
468,163,18300,6,0,P|482:121|473:75,1,90,2|0,0:0|0:0,0:0:0:0:
38,76,18567,2,0,P|30:121|44:163,1,90,2|0,0:0|0:0,0:0:0:0:
58,279,18834,1,0,0:0:0:0:
58,279,18967,1,0,0:0:0:0:
162,330,19100,1,0,0:0:0:0:
427,311,19234,6,0,B|396:346|356:355|298:346|268:301,1,180,2|0,0:0|0:0,0:0:0:0:
160,259,19634,1,0,0:0:0:0:
89,165,19767,1,0,0:0:0:0:
156,69,19900,1,0,0:0:0:0:
268,103,20034,1,0,0:0:0:0:
270,220,20167,1,0,0:0:0:0:
390,66,20300,6,0,P|433:73|454:121,2,90,2|0|0,0:0|0:0|0:0,0:0:0:0:
272,66,20700,1,0,0:0:0:0:
172,128,20834,1,0,0:0:0:0:
285,155,20967,1,0,0:0:0:0:
185,216,21100,1,0,0:0:0:0:
80,270,21234,1,0,0:0:0:0:
67,73,21367,6,0,P|154:39|242:52,1,180,2|0,0:0|0:0,0:0:0:0:
353,71,21767,1,2,0:0:0:0:
377,289,21900,1,0,0:0:0:0:
159,313,22034,1,2,0:0:0:0:
135,95,22167,1,0,0:0:0:0:
353,71,22300,1,2,0:0:0:0:
385,86,22367,1,0,0:0:0:0:
414,107,22434,1,0,0:0:0:0:
438,133,22500,1,0,0:0:0:0:
453,165,22567,6,0,P|471:211|469:255,1,90,2|0,0:0|0:0,0:0:0:0:
311,338,22834,2,0,P|286:301|284:252,1,90,2|0,0:0|0:0,0:0:0:0:
113,316,23100,1,0,0:0:0:0:
57,202,23234,1,0,0:0:0:0:
83,79,23367,1,0,0:0:0:0:
222,301,23500,6,0,P|173:223|180:138,1,180,2|0,0:0|0:0,0:0:0:0:
355,96,23900,2,0,P|391:125|403:170,1,90
472,271,24167,1,0,0:0:0:0:
369,344,24300,1,0,0:0:0:0:
285,249,24434,1,0,0:0:0:0:
169,200,24567,6,0,B|109:169|109:169|104:120|130:75|166:70,1,180,2|0,0:0|0:0,0:0:0:0:
280,73,24967,2,0,L|379:73,1,90
280,73,25234,1,0,0:0:0:0:
352,175,25367,1,0,0:0:0:0:
307,292,25500,1,0,0:0:0:0:
74,261,25634,6,0,P|133:332|232:350,1,180,2|0,0:0|0:0,0:0:0:0:
337,317,26034,1,2,0:0:0:0:
416,219,26167,1,0,0:0:0:0:
389,96,26300,2,0,L|463:41,2,90,2|0|2,0:0|0:0|0:0,0:0:0:0:
362,90,26634,1,0,0:0:0:0:
335,84,26700,1,0,0:0:0:0:
308,78,26767,1,0,0:0:0:0:
281,72,26834,6,0,P|240:53|196:57,1,90
100,80,27100,1,2,0:0:0:0:
58,170,27234,1,0,0:0:0:0:
82,265,27367,2,0,P|137:340|222:347,1,180,0|2,0:0|0:0,0:0:0:0:
316,330,27767,1,0,0:0:0:0:
408,294,27900,1,0,0:0:0:0:
435,198,28034,1,0,0:0:0:0:
337,212,28167,2,0,P|306:246|262:248,1,90,2|0,0:0|0:0,0:0:0:0:
169,218,28434,1,0,0:0:0:0:
204,97,28567,1,0,0:0:0:0:
321,53,28700,1,2,0:0:0:0:
446,71,28834,1,0,0:0:0:0:
446,71,28967,6,0,P|467:114|464:159,1,90
409,327,29234,2,0,P|376:294|374:248,1,90,2|0,0:0|0:0,0:0:0:0:
281,290,29500,1,0,0:0:0:0:
186,321,29634,1,0,0:0:0:0:
100,271,29767,1,2,0:0:0:0:
98,172,29900,2,0,P|64:142|54:96,2,90
187,82,30300,1,2,0:0:0:0:
313,72,30434,1,0,0:0:0:0:
429,118,30567,1,0,0:0:0:0:
429,118,30700,1,0,0:0:0:0:
442,280,30834,1,2,0:0:0:0:
442,280,30967,1,2,0:0:0:0:
442,280,31100,6,0,P|410:314|369:324,1,90
243,340,31367,1,2,0:0:0:0:
121,307,31500,2,0,L|75:229,1,90
201,220,31767,1,0,0:0:0:0:
201,220,31900,1,2,0:0:0:0:
391,77,32034,2,0,L|437:155,1,90
311,164,32301,1,0,0:0:0:0:
311,164,32434,1,2,0:0:0:0:
207,92,32567,1,0,0:0:0:0:
85,59,32700,2,0,P|64:105|70:145,1,90
140,308,32967,2,0,P|163:265|159:223,1,90,2|0,0:0|0:0,0:0:0:0:
374,289,33234,5,8,0:0:0:0:
434,210,33367,1,0,0:0:0:0:
432,111,33500,1,0,0:0:0:0:
278,49,33634,5,8,0:0:0:0:
232,136,33767,1,0,0:0:0:0:
248,233,33900,1,0,0:0:0:0:
108,323,34034,5,8,0:0:0:0:
69,232,34167,1,0,0:0:0:0:
97,137,34300,1,0,0:0:0:0:
276,136,34434,5,8,0:0:0:0:
372,88,34567,1,0,0:0:0:0:
416,188,34700,1,0,0:0:0:0:
316,232,34834,1,2,0:0:0:0:
316,232,35100,1,2,0:0:0:0:
70,70,35367,6,0,L|160:58,1,90
216,139,35634,1,2,0:0:0:0:
290,74,35767,1,0,0:0:0:0:
387,60,35900,2,0,B|449:76|449:76|432:119|422:155|425:193,1,180,0|2,0:0|0:0,0:0:0:0:
125,324,36300,2,0,B|63:308|63:308|80:265|90:229|87:191,1,180
178,235,36700,1,2,0:0:0:0:
260,290,36834,1,0,0:0:0:0:
358,282,36967,2,0,L|453:315,1,90
446,212,37234,2,0,L|360:182,1,90,2|0,0:0|0:0,0:0:0:0:
200,88,37500,5,0,0:0:0:0:
296,60,37634,1,0,0:0:0:0:
396,64,37767,2,0,P|440:72|468:108,1,90,2|0,0:0|0:0,0:0:0:0:
356,224,38034,1,0,0:0:0:0:
392,316,38167,1,0,0:0:0:0:
300,348,38300,1,2,0:0:0:0:
200,336,38434,2,0,P|112:312|88:232,1,180
88,124,38834,1,2,0:0:0:0:
180,68,38967,1,0,0:0:0:0:
212,208,39100,1,0,0:0:0:0:
316,184,39234,1,0,0:0:0:0:
300,328,39367,1,2,0:0:0:0:
408,328,39500,1,2,0:0:0:0:
408,328,39634,6,0,P|444:300|464:260,2,90,0|0|2,0:0|0:0|0:0,0:0:0:0:
384,192,40034,1,0,0:0:0:0:
408,56,40167,2,0,P|444:84|464:124,2,90,0|0|2,0:0|0:0|0:0,0:0:0:0:
308,192,40567,1,0,0:0:0:0:
104,328,40700,2,0,P|68:300|48:260,1,90
148,192,40967,1,2,0:0:0:0:
104,56,41100,2,0,P|68:84|48:124,1,90
220,192,41367,1,0,0:0:0:0:
228,320,41500,1,2,0:0:0:0:
356,316,41634,1,0,0:0:0:0:
424,132,41767,6,0,L|460:216,1,90,8|0,0:0|0:0,0:0:0:0:
444,304,42034,1,0,0:0:0:0:
296,240,42167,6,0,L|260:157,1,90,8|0,0:0|0:0,0:0:0:0:
280,68,42434,1,0,0:0:0:0:
96,136,42567,6,0,L|131:218,1,90,8|0,0:0|0:0,0:0:0:0:
104,304,42834,1,0,0:0:0:0:
228,328,42967,1,8,0:0:0:0:
256,204,43100,1,0,0:0:0:0:
380,232,43234,1,0,0:0:0:0:
404,108,43367,1,2,0:0:0:0:
404,108,43634,1,2,0:0:0:0:
256,192,43900,12,0,46034,0:0:0:0:
168,236,52434,5,0,0:0:0:0:
168,236,52567,1,0,0:0:0:0:
168,236,52700,2,0,P|124:240|84:220,1,90,2|0,0:0|0:0,0:0:0:0:
64,112,52967,1,0,0:0:0:0:
188,96,53100,1,0,0:0:0:0:
304,152,53234,1,2,0:0:0:0:
440,48,53367,2,0,B|492:96|492:96|496:152|472:200|452:216,1,180
444,308,53767,1,2,0:0:0:0:
300,312,53900,1,0,0:0:0:0:
328,136,54034,5,0,0:0:0:0:
208,56,54167,1,0,0:0:0:0:
208,56,54234,1,0,0:0:0:0:
208,56,54300,1,2,0:0:0:0:
84,132,54434,1,0,0:0:0:0:
104,276,54567,6,0,P|128:316|168:328,1,90
228,240,54834,1,2,0:0:0:0:
324,288,54967,1,0,0:0:0:0:
428,264,55100,2,0,L|484:192,2,90,0|0|2,0:0|0:0|0:0,0:0:0:0:
384,164,55500,2,0,B|376:136|388:108|388:108|332:112|288:96|256:80,1,180
84,196,55900,5,2,0:0:0:0:
184,272,56034,1,0,0:0:0:0:
428,188,56167,1,0,0:0:0:0:
328,112,56301,1,0,0:0:0:0:
120,72,56434,5,2,0:0:0:0:
256,192,56567,5,2,0:0:0:0:
392,312,56700,6,0,P|432:292|460:256,2,90,0|0|2,0:0|0:0|0:0,0:0:0:0:
256,336,57100,1,0,0:0:0:0:
120,312,57234,2,0,P|80:292|52:256,2,90,0|0|2,0:0|0:0|0:0,0:0:0:0:
256,336,57634,1,0,0:0:0:0:
364,220,57767,6,0,P|408:204|440:172,1,90
396,36,58034,2,0,P|352:44|316:72,1,90,2|0,0:0|0:0,0:0:0:0:
192,52,58300,1,0,0:0:0:0:
76,108,58434,1,0,0:0:0:0:
56,168,58500,1,0,0:0:0:0:
60,232,58567,1,2,0:0:0:0:
140,332,58700,1,0,0:0:0:0:
408,328,58834,6,0,L|448:248,2,90,8|0|0,0:0|0:0|0:0,0:0:0:0:
304,76,59234,6,0,L|352:160,2,90,8|0|0,0:0|0:0|0:0,0:0:0:0:
104,328,59634,6,0,L|64:248,2,90,8|0|0,0:0|0:0|0:0,0:0:0:0:
256,328,60034,5,8,0:0:0:0:
200,200,60167,1,0,0:0:0:0:
140,72,60300,1,0,0:0:0:0:
48,184,60434,1,2,0:0:0:0:
48,184,60700,1,2,0:0:0:0:
392,332,60967,6,0,P|444:256|452:168,1,180,0|2,0:0|0:0,0:0:0:0:
312,208,61367,1,0,0:0:0:0:
172,232,61500,2,0,P|176:184|196:148,2,90,0|0|2,0:0|0:0|0:0,0:0:0:0:
56,116,61900,2,0,B|72:64|72:64|112:36|168:28|200:52,1,180
300,56,62300,1,2,0:0:0:0:
380,128,62434,1,0,0:0:0:0:
428,224,62567,2,0,P|428:272|408:320,1,90
236,344,62834,2,0,P|224:300|236:256,1,90,2|0,0:0|0:0,0:0:0:0:
56,240,63100,5,0,0:0:0:0:
120,72,63234,1,0,0:0:0:0:
88,156,63367,2,0,P|136:152|176:132,1,90,2|0,0:0|0:0,0:0:0:0:
264,72,63634,1,0,0:0:0:0:
360,120,63767,1,0,0:0:0:0:
428,204,63900,1,2,0:0:0:0:
432,312,64034,2,0,P|348:348|260:336,1,180
100,320,64434,5,2,0:0:0:0:
176,220,64567,1,0,0:0:0:0:
412,64,64700,1,0,0:0:0:0:
336,164,64833,1,0,0:0:0:0:
200,48,64967,5,2,0:0:0:0:
256,192,65100,5,2,0:0:0:0:
312,336,65234,6,0,P|268:344|224:328,2,90,0|0|2,0:0|0:0|0:0,0:0:0:0:
396,192,65634,1,0,0:0:0:0:
312,48,65767,2,0,P|268:40|224:56,2,90,0|0|2,0:0|0:0|0:0,0:0:0:0:
468,192,66167,1,0,0:0:0:0:
456,340,66300,6,0,L|372:300,1,90
456,44,66567,2,0,L|372:84,1,90,2|0,0:0|0:0,0:0:0:0:
265,144,66834,5,0,0:0:0:0:
112,280,66967,1,0,0:0:0:0:
156,80,67100,1,2,0:0:0:0:
264,256,67234,1,0,0:0:0:0:
384,164,67367,6,0,L|416:80,2,90,8|0|0,0:0|0:0|0:0,0:0:0:0:
232,64,67767,5,8,0:0:0:0:
256,192,67900,1,0,0:0:0:0:
280,320,68034,1,0,0:0:0:0:
128,220,68167,6,0,L|96:304,2,90,8|0|0,0:0|0:0|0:0,0:0:0:0:
280,320,68567,5,8,0:0:0:0:
256,192,68700,1,0,0:0:0:0:
232,64,68834,1,0,0:0:0:0:
112,108,68967,1,2,0:0:0:0:
112,108,69234,1,2,0:0:0:0:
420,300,69500,6,0,P|336:336|248:336,1,180,0|0,0:0|0:0,0:0:0:0:
248,336,69900,1,2,0:0:0:0:
84,144,70167,5,0,0:0:0:0:
184,68,70300,1,0,0:0:0:0:
308,52,70434,1,0,0:0:0:0:
428,84,70567,1,0,0:0:0:0:
428,84,70700,2,0,P|460:120|468:160,1,90,2|0,0:0|0:0,0:0:0:0:
372,312,70967,2,0,P|344:276|336:232,1,90,0|2,0:0|0:0,0:0:0:0:
56,252,71367,5,0,0:0:0:0:
136,324,71500,1,0,0:0:0:0:
244,332,71634,2,0,P|336:336|408:292,1,180,0|0,0:0|0:0,0:0:0:0:
408,291,72034,1,2,0:0:0:0:
148,116,72300,5,0,0:0:0:0:
240,56,72434,1,0,0:0:0:0:
344,84,72567,2,0,L|428:44,2,90,0|0|2,0:0|0:0|0:0,0:0:0:0:
424,156,72967,1,0,0:0:0:0:
356,240,73100,2,0,L|448:272,2,90,0|2|0,0:0|0:0|0:0,0:0:0:0:
340,348,73500,1,0,0:0:0:0:
340,348,73634,1,2,0:0:0:0:
152,336,73767,6,0,B|92:320|92:320|48:284|44:236|56:208,1,180,0|0,0:0|0:0,0:0:0:0:
53,215,74167,1,2,0:0:0:0:
248,64,74434,5,0,0:0:0:0:
356,80,74567,1,0,0:0:0:0:
452,124,74700,2,0,L|452:216,1,90,0|0,0:0|0:0,0:0:0:0:
352,288,74967,2,0,L|352:196,2,90,2|0|0,0:0|0:0|0:0,0:0:0:0:
248,320,75367,1,2,0:0:0:0:
144,288,75500,1,0,0:0:0:0:
92,192,75634,2,0,P|84:144|100:104,1,90
416,96,75900,6,0,P|340:48|256:68,1,180,0|0,0:0|0:0,0:0:0:0:
256,67,76300,1,2,0:0:0:0:
96,288,76567,1,0,0:0:0:0:
96,288,76700,2,0,P|172:336|256:316,1,180
356,280,77100,1,2,0:0:0:0:
460,252,77234,1,0,0:0:0:0:
472,144,77367,1,0,0:0:0:0:
472,36,77500,1,2,0:0:0:0:
380,92,77634,1,0,0:0:0:0:
124,168,77767,5,2,0:0:0:0:
112,144,77834,1,0,0:0:0:0:
100,120,77900,1,2,0:0:0:0:
88,96,77967,1,0,0:0:0:0:
76,72,78034,6,0,P|160:36|248:52,1,180,0|2,0:0|0:0,0:0:0:0:
436,312,78434,2,0,P|352:348|264:332,1,180,0|0,0:0|0:0,0:0:0:0:
144,304,78834,5,2,0:0:0:0:
92,212,78967,1,0,0:0:0:0:
104,104,79100,1,0,0:0:0:0:
368,80,79234,5,0,0:0:0:0:
420,172,79367,1,2,0:0:0:0:
408,280,79500,1,0,0:0:0:0:
312,332,79634,6,0,L|272:252,1,90,0|0,0:0|0:0,0:0:0:0:
200,52,79900,2,0,L|240:132,1,90,2|2,0:0|0:0,0:0:0:0:
88,296,80167,6,0,P|128:316|172:316,1,90,0|0,0:0|0:0,0:0:0:0:
256,216,80434,1,2,0:0:0:0:
424,296,80567,2,0,P|384:316|340:316,1,90,0|0,0:0|0:0,0:0:0:0:
256,216,80834,1,0,0:0:0:0:
384,236,80967,5,2,0:0:0:0:
128,236,81100,1,0,0:0:0:0:
116,132,81234,1,0,0:0:0:0:
200,64,81367,1,0,0:0:0:0:
308,64,81501,1,2,0:0:0:0:
396,132,81634,1,0,0:0:0:0:
392,240,81767,2,0,P|384:284|356:320,1,90,0|0,0:0|0:0,0:0:0:0:
120,240,82034,2,0,P|128:284|156:320,1,90,2|2,0:0|0:0,0:0:0:0:
448,300,82300,6,0,P|468:256|468:216,1,90,0|0,0:0|0:0,0:0:0:0:
468,124,82567,1,2,0:0:0:0:
272,80,82700,6,0,P|252:120|252:164,1,90,0|0,0:0|0:0,0:0:0:0:
248,256,82967,1,0,0:0:0:0:
80,320,83100,5,2,0:0:0:0:
52,236,83234,1,0,0:0:0:0:
52,148,83367,6,0,P|96:68|180:44,1,180,0|2,0:0|0:0,0:0:0:0:
268,52,83767,1,0,0:0:0:0:
364,100,83900,1,0,0:0:0:0:
428,208,84034,1,0,0:0:0:0:
352,332,84167,1,2,0:0:0:0:
192,360,84300,1,2,0:0:0:0:
44,288,84434,6,2,B|48:200|136:168|260:204|248:300|176:372|80:332|124:268,2,360
104,80,86167,5,0,0:0:0:0:
116,104,86300,1,2,0:0:0:0:
128,128,86434,1,0,0:0:0:0:
136,148,86567,6,0,P|192:136|248:140,1,112.5
336,68,86834,1,2,0:0:0:0:
400,160,86967,1,2,0:0:0:0:
400,272,87100,2,0,B|384:336|384:336|336:356|272:352|232:320,1,225,0|2,0:0|0:0,0:0:0:0:
152,60,87500,6,0,L|96:160,1,112.5
360,324,87767,2,0,L|416:224,1,112.5,0|2,0:0|0:0,0:0:0:0:
152,108,88034,2,0,L|96:208,1,112.5
360,276,88300,2,0,L|416:176,2,112.5,0|2|0,0:0|0:0|0:0,0:0:0:0:
220,320,88700,5,0,0:0:0:0:
112,288,88834,1,0,0:0:0:0:
220,320,88967,1,2,0:0:0:0:
296,236,89100,1,2,0:0:0:0:
260,128,89234,1,0,0:0:0:0:
352,64,89367,1,0,0:0:0:0:
456,108,89500,1,2,0:0:0:0:
456,220,89634,6,0,P|456:276|424:324,1,112.5
56,164,89900,2,0,P|56:108|88:60,1,112.5,0|2,0:0|0:0,0:0:0:0:
412,220,90167,2,0,P|412:276|380:324,1,112.5
100,164,90434,2,0,P|100:108|132:60,2,112.5,0|2|0,0:0|0:0|0:0,0:0:0:0:
152,312,90834,6,0,P|260:344|368:320,1,225,0|2,0:0|0:0,0:0:0:0:
360,72,91234,2,0,P|252:40|144:64,1,225,2|0,0:0|0:0,0:0:0:0:
152,312,91634,2,0,P|260:344|368:320,2,225,2|0|2,0:0|0:0|0:0,0:0:0:0:
64,240,92300,1,0,0:0:0:0:
44,128,92434,1,0,0:0:0:0:
120,48,92567,1,0,0:0:0:0:
232,36,92700,1,2,0:0:0:0:
344,48,92834,1,0,0:0:0:0:
448,84,92967,6,0,P|488:192|464:296,1,225,0|2,0:0|0:0,0:0:0:0:
64,300,93367,2,0,P|24:192|48:88,1,225,2|0,0:0|0:0,0:0:0:0:
448,84,93767,2,0,P|488:192|464:296,2,225,2|0|2,0:0|0:0|0:0,0:0:0:0:
368,164,94434,1,0,0:0:0:0:
360,276,94567,1,0,0:0:0:0:
324,320,94634,1,0,0:0:0:0:
276,344,94700,1,0,0:0:0:0:
116,216,94834,1,2,0:0:0:0:
124,160,94900,1,0,0:0:0:0:
148,108,94967,1,0,0:0:0:0:
188,68,95034,1,0,0:0:0:0:
240,44,95100,6,0,P|296:36|352:44,1,112.5
272,340,95367,2,0,P|216:348|160:340,1,112.5,2|2,0:0|0:0,0:0:0:0:
60,292,95634,1,0,0:0:0:0:
48,180,95767,1,0,0:0:0:0:
120,92,95900,1,2,0:0:0:0:
216,36,96034,6,0,P|272:32|328:48,1,112.5
296,348,96300,2,0,P|240:352|184:336,1,112.5,0|2,0:0|0:0,0:0:0:0:
280,44,96567,2,0,P|335:50|387:77,1,112.5
232,340,96834,2,0,P|176:333|124:306,2,112.5,0|2|0,0:0|0:0|0:0,0:0:0:0:
384,296,97234,5,0,0:0:0:0:
332,196,97367,1,0,0:0:0:0:
440,164,97500,2,2,P|424:108|384:72,1,112.5
272,60,97767,1,0,0:0:0:0:
160,80,97900,1,0,0:0:0:0:
80,160,98034,1,2,0:0:0:0:
96,272,98167,6,0,P|128:320|180:344,1,112.5
416,112,98434,2,0,P|384:64|332:40,1,112.5,0|2,0:0|0:0,0:0:0:0:
136,324,98700,2,0,P|186:352|243:350,1,112.5
376,60,98967,2,0,P|325:31|268:33,2,112.5,0|2|0,0:0|0:0|0:0,0:0:0:0:
456,204,99367,6,0,P|432:256|388:288,1,112.5
352,180,99634,1,2,0:0:0:0:
352,180,99767,2,0,P|328:232|284:264,1,112.5,2|0,0:0|0:0,0:0:0:0:
248,156,100034,1,0,0:0:0:0:
248,156,100167,2,0,P|224:208|180:240,2,112.5,2|0|0,0:0|0:0|0:0,0:0:0:0:
228,44,100567,5,0,0:0:0:0:
116,36,100700,1,2,0:0:0:0:
60,132,100834,1,0,0:0:0:0:
80,244,100967,2,0,P|108:292|160:308,1,112.5
159,308,101167,1,0,0:0:0:0:
159,308,101234,1,2,0:0:0:0:
272,324,101367,1,0,0:0:0:0:
380,296,101500,6,0,P|432:272|460:224,1,112.5
348,200,101767,1,2,0:0:0:0:
348,200,101900,2,0,P|400:176|428:128,1,112.5,2|0,0:0|0:0,0:0:0:0:
316,112,102167,1,0,0:0:0:0:
316,112,102300,2,0,P|368:88|396:40,2,112.5,2|0|0,0:0|0:0|0:0,0:0:0:0:
224,48,102700,5,0,0:0:0:0:
124,100,102834,1,2,0:0:0:0:
96,208,102967,1,0,0:0:0:0:
96,208,103100,2,0,L|168:300,1,112.5
416,176,103367,2,0,L|344:84,1,112.5,2|0,0:0|0:0,0:0:0:0:
412,320,103634,6,0,L|320:320,1,90,2|0,0:0|0:0,0:0:0:0:
100,64,103900,2,0,L|192:64,1,90,2|0,0:0|0:0,0:0:0:0:
424,256,104167,2,0,L|332:256,1,90,2|0,0:0|0:0,0:0:0:0:
88,128,104434,2,0,L|180:128,1,90,2|0,0:0|0:0,0:0:0:0:
432,192,104700,2,0,L|340:192,1,90,2|0,0:0|0:0,0:0:0:0:
80,192,104967,2,0,L|172:192,1,90,2|0,0:0|0:0,0:0:0:0:
440,128,105234,2,0,L|348:128,1,90,2|0,0:0|0:0,0:0:0:0:
72,256,105500,2,0,L|164:256,1,90,2|0,0:0|0:0,0:0:0:0:
288,128,105767,5,2,0:0:0:0:
224,256,105900,1,0,0:0:0:0:
318,157,106034,1,2,0:0:0:0:
193,226,106167,1,0,0:0:0:0:
327,200,106300,1,2,0:0:0:0:
184,183,106433,1,0,0:0:0:0:
309,239,106567,1,2,0:0:0:0:
202,144,106700,1,0,0:0:0:0:
276,304,106834,6,0,P|316:324|360:320,1,90,2|0,0:0|0:0,0:0:0:0:
236,80,107100,2,0,P|196:60|152:64,1,90,2|0,0:0|0:0,0:0:0:0:
276,304,107367,5,8,0:0:0:0:
236,80,107500,1,8,0:0:0:0:
359,320,107634,1,8,0:0:0:0:
152,63,107767,1,8,0:0:0:0:
56,144,107900,5,8,0:0:0:0:
96,264,108034,1,0,0:0:0:0:
200,336,108167,1,0,0:0:0:0:
456,144,108300,5,8,0:0:0:0:
416,264,108434,1,0,0:0:0:0:
312,336,108567,1,0,0:0:0:0:
184,192,108700,5,8,0:0:0:0:
328,192,108834,1,0,0:0:0:0:
256,56,108967,1,8,0:0:0:0:
232,296,110034,5,0,0:0:0:0:
196,216,110167,1,0,0:0:0:0:
204,128,110300,2,0,P|224:88|264:64,1,90
456,160,110567,2,0,P|440:248|372:304,1,180,2|0,0:0|0:0,0:0:0:0:
56,224,110967,2,0,P|72:136|140:80,1,180,2|2,0:0|0:0,0:0:0:0:
224,52,111367,1,0,0:0:0:0:
312,44,111500,1,0,0:0:0:0:
400,60,111634,2,0,P|432:92|440:136,1,90,2|0,0:0|0:0,0:0:0:0:
112,324,111900,2,0,P|80:292|72:248,1,90,0|2,0:0|0:0,0:0:0:0:
80,68,112167,5,0,0:0:0:0:
168,180,112300,1,0,0:0:0:0:
280,88,112434,2,0,L|356:140,1,90
432,216,112700,1,2,0:0:0:0:
364,300,112834,1,0,0:0:0:0:
256,316,112967,1,0,0:0:0:0:
256,316,113100,2,0,B|212:360|212:360|148:360|108:320|112:280,1,180,2|2,0:0|0:0,0:0:0:0:
100,200,113500,5,0,0:0:0:0:
200,124,113634,1,2,0:0:0:0:
412,184,113767,1,0,0:0:0:0:
312,260,113901,1,0,0:0:0:0:
188,264,114034,5,2,0:0:0:0:
188,264,114100,1,0,0:0:0:0:
188,264,114167,1,2,0:0:0:0:
188,264,114234,1,0,0:0:0:0:
188,264,114300,2,0,L|316:128,1,180,0|2,0:0|0:0,0:0:0:0:
184,76,114700,2,0,P|140:80|92:60,2,90
292,60,115100,1,2,0:0:0:0:
392,104,115234,1,0,0:0:0:0:
416,240,115367,6,0,P|392:280|352:304,1,90
96,240,115634,2,0,P|120:280|160:304,1,90,2|0,0:0|0:0,0:0:0:0:
256,340,115900,1,0,0:0:0:0:
256,248,116034,1,0,0:0:0:0:
256,160,116167,1,2,0:0:0:0:
256,72,116300,1,0,0:0:0:0:
168,60,116434,5,8,0:0:0:0:
120,136,116567,1,0,0:0:0:0:
76,212,116700,1,0,0:0:0:0:
144,340,116834,5,8,0:0:0:0:
188,264,116967,1,0,0:0:0:0:
236,188,117100,1,0,0:0:0:0:
376,156,117234,5,8,0:0:0:0:
328,232,117367,1,0,0:0:0:0:
284,308,117500,1,0,0:0:0:0:
428,292,117634,6,0,L|472:212,2,90,8|0|0,0:0|0:0|0:0,0:0:0:0:
428,292,118034,1,2,0:0:0:0:
428,292,118300,1,2,0:0:0:0:
112,320,118567,6,0,B|64:304|64:304|84:264|92:216|56:176,1,180
40,92,118967,1,0,0:0:0:0:
120,52,119100,2,0,P|164:60|200:88,2,90,2|0|0,0:0|0:0|0:0,0:0:0:0:
156,228,119500,2,2,P|220:292|308:296,1,180
252,204,119900,1,0,0:0:0:0:
340,196,120034,1,0,0:0:0:0:
404,260,120167,1,2,0:0:0:0:
380,348,120300,1,0,0:0:0:0:
380,348,120367,1,0,0:0:0:0:
380,348,120434,1,0,0:0:0:0:
305,296,120567,1,2,0:0:0:0:
352,64,120700,6,0,P|400:76|428:108,2,90
220,124,121100,1,0,0:0:0:0:
144,248,121234,2,0,P|172:284|215:300,1,90,2|0,0:0|0:0,0:0:0:0:
340,236,121500,1,0,0:0:0:0:
460,104,121634,6,2,P|464:196|424:272,1,180
300,300,122034,5,0,0:0:0:0:
180,336,122167,1,2,0:0:0:0:
240,228,122300,5,0,0:0:0:0:
116,204,122434,1,0,0:0:0:0:
224,136,122567,5,2,0:0:0:0:
204,116,122634,1,0,0:0:0:0:
184,96,122700,1,2,0:0:0:0:
164,76,122767,1,0,0:0:0:0:
144,56,122834,2,0,P|96:64|68:96,2,90,0|0|2,0:0|0:0|0:0,0:0:0:0:
256,164,123234,1,0,0:0:0:0:
368,56,123367,2,0,P|416:64|444:96,2,90,0|0|2,0:0|0:0|0:0,0:0:0:0:
256,104,123767,1,0,0:0:0:0:
104,252,123900,6,0,L|80:164,1,90
408,132,124167,2,0,L|432:220,1,90,2|0,0:0|0:0,0:0:0:0:
136,124,124434,5,0,0:0:0:0:
376,260,124567,1,0,0:0:0:0:
136,124,124700,1,2,0:0:0:0:
376,260,124834,1,0,0:0:0:0:
136,340,124967,6,0,P|95:317|72:281,1,90,8|0,0:0|0:0,0:0:0:0:
256,192,125234,1,0,0:0:0:0:
72,102,125367,6,0,P|95:66|136:44,1,90,8|0,0:0|0:0,0:0:0:0:
256,192,125634,1,0,0:0:0:0:
376,44,125767,6,0,P|416:66|439:102,1,90,8|0,0:0|0:0,0:0:0:0:
256,192,126034,1,0,0:0:0:0:
439,281,126167,6,0,P|416:317|376:340,1,90,8|0,0:0|0:0,0:0:0:0:
256,192,126434,1,0,0:0:0:0:
256,192,126567,1,2,0:0:0:0:
256,192,126834,1,2,0:0:0:0:
164,52,127100,6,0,P|120:64|96:100,1,90
60,180,127367,1,0,0:0:0:0:
120,248,127500,1,2,0:0:0:0:
180,180,127634,1,0,0:0:0:0:
236,248,127767,1,0,0:0:0:0:
296,180,127900,2,0,L|356:248,2,90
272,92,128300,5,2,0:0:0:0:
360,84,128434,1,0,0:0:0:0:
428,144,128567,1,0,0:0:0:0:
428,232,128700,1,2,0:0:0:0:
360,292,128834,1,0,0:0:0:0:
272,284,128967,2,0,P|232:308|188:312,1,90
124,100,129234,6,0,P|156:68|200:56,2,90
84,180,129634,1,2,0:0:0:0:
96,268,129767,2,0,P|140:252|184:252,1,90
200,340,130034,2,0,P|244:352|288:348,1,90
460,204,130300,5,0,0:0:0:0:
404,272,130434,1,2,0:0:0:0:
316,284,130567,1,0,0:0:0:0:
228,264,130700,1,0,0:0:0:0:
156,208,130834,5,2,0:0:0:0:
240,92,130967,1,0,0:3:0:0:
356,176,131100,1,0,0:3:0:0:
272,292,131234,1,2,0:0:0:0:
96,324,131367,6,0,P|56:244|72:156,1,180
416,60,131767,2,0,P|456:140|440:228,1,180,2|0,0:0|0:0,0:0:0:0:
440,226,132167,1,0,0:0:0:0:
168,72,132434,5,0,0:0:0:0:
196,176,132567,1,2,0:0:0:0:
268,96,132700,1,0,0:0:0:0:
168,72,132834,1,0,0:0:0:0:
60,76,132967,2,0,P|44:120|52:164,1,90,2|0,0:0|0:0,0:0:0:0:
156,308,133234,2,0,P|172:264|160:220,1,90
360,284,133500,5,0,0:0:0:0:
360,284,133767,2,0,P|400:260|420:220,1,90,0|2,0:0|0:0,0:0:0:0:
332,196,134034,1,0,0:0:0:0:
332,196,134167,1,0,0:0:0:0:
152,100,134300,2,0,P|112:124|92:164,1,90
180,188,134567,5,0,0:0:0:0:
180,188,134700,1,2,0:0:0:0:
192,296,134834,2,0,P|228:324|272:336,1,90,0|0,0:0|0:0,0:0:0:0:
320,88,135100,2,0,P|284:60|240:48,1,90,2|0,0:0|0:0,0:0:0:0:
80,76,135367,1,2,0:0:0:0:
80,96,135434,1,0,0:0:0:0:
80,112,135500,1,2,0:0:0:0:
80,132,135567,1,0,0:0:0:0:
80,148,135634,6,0,L|44:232,2,90,0|0|2,0:0|0:0|0:0,0:0:0:0:
144,280,136034,1,0,0:0:0:0:
284,244,136167,2,0,L|324:328,2,90,0|0|2,0:0|0:0|0:0,0:0:0:0:
424,288,136567,1,0,0:0:0:0:
436,144,136700,6,0,L|364:84,1,90
76,240,136967,2,0,L|148:300,1,90,2|0,0:0|0:0,0:0:0:0:
280,332,137234,1,0,0:0:0:0:
296,224,137367,1,0,0:0:0:0:
216,152,137500,1,2,0:0:0:0:
232,44,137634,1,2,0:0:0:0:
72,196,137767,6,0,L|156:164,1,90
204,300,138034,1,2,0:0:0:0:
56,156,138167,2,0,L|140:124,1,90
240,324,138434,1,0,0:0:0:0:
40,116,138567,2,0,L|124:84,1,90,2|0,0:0|0:0,0:0:0:0:
276,348,138834,1,0,0:0:0:0:
24,76,138967,2,0,L|108:44,1,90,0|2,0:0|0:0,0:0:0:0:
312,324,139234,1,0,0:0:0:0:
488,76,139367,2,0,L|404:44,1,90
348,304,139634,1,2,0:0:0:0:
348,304,139767,1,2,0:0:0:0:
184,88,139900,6,0,L|96:60,2,90,0|0|2,0:0|0:0|0:0,0:0:0:0:
324,124,140300,2,0,L|412:96,2,90
136,188,140700,2,0,L|48:160,2,90,2|0|0,0:0|0:0|0:0,0:0:0:0:
376,220,141100,2,0,L|464:192,2,90,0|2|0,0:0|0:0|0:0,0:0:0:0:
92,296,141500,1,0,0:0:0:0:
152,340,141634,1,0,0:0:0:0:
224,352,141767,1,2,0:0:0:0:
296,352,141900,1,2,0:0:0:0:
360,316,142034,5,0,0:0:0:0:
220,280,142167,1,0,0:0:0:0:
416,272,142300,1,2,0:0:0:0:
192,208,142434,1,0,0:0:0:0:
448,208,142567,1,2,0:0:0:0:
160,136,142700,1,0,0:0:0:0:
460,136,142834,1,2,0:0:0:0:
132,64,142967,1,0,0:0:0:0:
464,64,143100,6,0,L|372:56,1,90,2|0,0:0|0:0,0:0:0:0:
48,84,143367,2,0,L|140:76,1,90,2|0,0:0|0:0,0:0:0:0:
232,288,143634,5,2,0:0:0:0:
160,236,143767,1,0,0:0:0:0:
192,152,143900,1,2,0:0:0:0:
280,124,144034,1,0,0:0:0:0:
360,156,144167,6,0,P|332:264|232:288,1,225,0|2,0:0|0:0,0:0:0:0:
120,292,144567,1,2,0:0:0:0:
76,188,144700,1,0,0:0:0:0:
140,92,144834,1,0,0:0:0:0:
248,60,144967,1,2,0:0:0:0:
360,48,145100,6,0,P|416:52|456:88,1,112.5
152,336,145367,2,0,P|96:332|56:296,1,112.5,0|2,0:0|0:0,0:0:0:0:
416,68,145634,2,0,P|465:94|487:143,1,112.5
96,316,145900,2,0,P|46:289|24:240,2,112.5,0|2|0,0:0|0:0|0:0,0:0:0:0:
208,340,146300,5,0,0:0:0:0:
320,328,146434,1,0,0:0:0:0:
400,252,146567,2,0,L|472:340,2,112.5,2|2|0,0:0|0:0|0:0,0:0:0:0:
412,140,146967,1,0,0:0:0:0:
328,68,147100,1,2,0:0:0:0:
216,52,147234,6,0,L|104:52,1,112.5
296,332,147500,2,0,L|408:332,1,112.5,0|2,0:0|0:0,0:0:0:0:
164,52,147767,2,0,L|52:52,1,112.5
348,332,148034,2,0,L|460:332,2,112.5,0|2|2,0:0|0:0|0:0,0:0:0:0:
196,328,148434,6,0,P|108:256|76:152,1,225,0|2,0:0|0:0,0:0:0:0:
316,56,148834,2,0,P|404:128|436:232,1,225,2|0,0:0|0:0,0:0:0:0:
196,328,149234,2,0,P|108:256|76:152,2,225,2|0|2,0:0|0:0|0:0,0:0:0:0:
308,312,149900,1,0,0:0:0:0:
416,348,150034,1,0,0:0:0:0:
424,236,150167,1,0,0:0:0:0:
424,236,150234,1,0,0:0:0:0:
424,236,150300,1,2,0:0:0:0:
320,196,150434,1,2,0:0:0:0:
140,116,150567,6,0,P|216:48|336:48,1,225,0|2,0:0|0:0,0:0:0:0:
372,268,150967,2,0,P|296:336|176:336,1,225,2|0,0:0|0:0,0:0:0:0:
140,116,151367,2,0,P|216:48|336:48,2,225,2|0|2,0:0|0:0|0:0,0:0:0:0:
72,208,152034,1,0,0:0:0:0:
120,308,152167,1,2,0:0:0:0:
160,332,152234,1,0,0:0:0:0:
204,336,152300,1,0,0:0:0:0:
360,208,152434,1,2,0:0:0:0:
320,192,152500,1,0,0:0:0:0:
276,188,152567,1,2,0:0:0:0:
232,196,152634,1,0,0:0:0:0:
192,212,152700,6,0,P|144:184|120:132,2,112.5,0|0|2,0:0|0:0|0:0,0:0:0:0:
288,272,153100,1,2,0:0:0:0:
300,136,153234,1,0,0:0:0:0:
432,112,153367,1,0,0:0:0:0:
468,244,153500,1,2,0:0:0:0:
368,336,153634,6,0,P|316:360|260:356,1,112.5
144,48,153901,2,0,P|196:24|252:28,1,112.5,0|2,0:0|0:0,0:0:0:0:
308,356,154168,2,0,P|250:356|201:330,1,112.5
204,28,154434,2,0,P|261:27|309:52,2,112.5,0|2|0,0:0|0:0|0:0,0:0:0:0:
104,80,154834,5,0,0:0:0:0:
40,172,154967,1,0,0:0:0:0:
80,276,155100,2,2,P|128:308|184:316,1,112.5
276,256,155367,1,0,0:0:0:0:
308,148,155500,1,0,0:0:0:0:
400,84,155634,1,2,0:0:0:0:
476,168,155767,6,0,L|476:280,1,112.5
36,216,156034,2,0,L|36:104,1,112.5,0|2,0:0|0:0,0:0:0:0:
476,224,156300,2,0,L|476:336,1,112.5
36,160,156567,2,0,L|36:48,2,112.5,0|2|2,0:0|0:0|0:0,0:0:0:0:
96,256,156967,6,0,B|96:316|96:316|132:356|196:348|248:316,1,225,0|2,0:0|0:0,0:0:0:0:
416,128,157367,2,0,B|416:68|416:68|380:28|316:36|264:68,1,225,2|0,0:0|0:0,0:0:0:0:
96,256,157767,2,0,B|96:316|96:316|132:356|196:348|248:316,2,225,2|0|2,0:0|0:0|0:0,0:0:0:0:
104,144,158434,1,0,0:0:0:0:
192,76,158567,1,0,0:0:0:0:
304,64,158700,1,0,0:0:0:0:
408,108,158834,1,2,0:0:0:0:
448,212,158967,1,0,0:0:0:0:
416,320,159100,6,0,P|308:352|200:324,1,225,0|2,0:0|0:0,0:0:0:0:
96,64,159500,2,0,P|204:32|312:60,1,225,2|0,0:0|0:0,0:0:0:0:
416,320,159900,2,0,P|308:352|200:324,2,225,2|0|2,0:0|0:0|0:0,0:0:0:0:
472,220,160567,1,2,0:0:0:0:
368,180,160700,1,0,0:0:0:0:
288,100,160834,1,0,0:0:0:0:
200,172,160967,1,2,0:0:0:0:
92,204,161100,1,0,0:0:0:0:
92,204,161234,6,0,L|136:308,1,112.5
420,180,161500,2,0,L|376:76,1,112.5,2|0,0:0|0:0,0:0:0:0:
64,248,161767,2,0,L|159:307,1,112.5,2|0,0:0|0:0,0:0:0:0:
448,136,162034,2,0,L|352:76,1,112.5,2|0,0:0|0:0,0:0:0:0:
56,300,162300,2,0,L|168:294,1,112.5,2|0,0:0|0:0,0:0:0:0:
456,84,162567,2,0,L|343:89,1,112.5,2|0,0:0|0:0,0:0:0:0:
76,344,162834,2,0,L|165:274,1,112.5,2|0,0:0|0:0,0:0:0:0:
436,40,163100,2,0,L|346:109,1,112.5,2|0,0:0|0:0,0:0:0:0:
192,64,163367,5,2,0:0:0:0:
84,88,163500,1,0,0:0:0:0:
220,140,163634,5,2,0:0:0:0:
140,216,163767,1,0,0:0:0:0:
284,192,163900,5,2,0:0:0:0:
253,298,164033,1,0,0:0:0:0:
364,200,164167,5,2,0:0:0:0:
391,308,164300,1,0,0:0:0:0:
460,164,164434,6,0,P|432:112|384:96,1,112.5,2|0,0:0|0:0,0:0:0:0:
128,96,164700,2,0,P|80:112|52:164,1,112.5,2|0,0:0|0:0,0:0:0:0:
60,276,164967,1,2,0:0:0:0:
176,348,165100,1,2,0:0:0:0:
336,348,165234,1,2,0:0:0:0:
452,276,165367,1,2,0:0:0:0:
146,156,165500,5,2,0:0:0:0:
365,156,165634,1,0,0:0:0:0:
188,284,165767,1,0,0:0:0:0:
255,77,165900,1,2,0:0:0:0:
323,284,166034,1,0,0:0:0:0:
146,156,166167,1,0,0:0:0:0:
365,156,166300,1,2,0:0:0:0:
188,284,166434,1,0,0:0:0:0:
255,77,166567,1,2,0:0:0:0:
48,208,167634,6,0,P|92:312|192:340,1,225,0|2,0:0|0:0,0:0:0:0:
304,336,168034,1,0,0:0:0:0:
436,248,168167,1,0,0:0:0:0:
304,336,168300,1,0,0:0:0:0:
436,248,168434,1,2,0:0:0:0:
320,44,168567,6,0,P|420:72|464:176,1,225
356,204,168967,1,2,0:0:0:0:
252,244,169100,1,0,0:0:0:0:
140,228,169234,2,0,P|100:188|96:132,2,112.5,0|0|2,0:0|0:0|0:0,0:0:0:0:
464,208,169634,6,0,P|420:312|320:340,1,225
208,332,170034,1,2,0:0:0:0:
108,276,170167,1,0,0:0:0:0:
208,228,170300,1,0,0:0:0:0:
304,168,170434,1,0,0:0:0:0:
272,60,170567,1,2,0:0:0:0:
48,176,170700,6,0,P|92:72|192:44,1,225
324,76,171100,1,2,0:0:0:0:
372,260,171234,1,0,0:0:0:0:
188,308,171367,1,2,0:0:0:0:
140,124,171500,1,0,0:0:0:0:
324,76,171634,1,2,0:0:0:0:
364,92,171700,1,0,0:0:0:0:
400,120,171767,1,0,0:0:0:0:
432,152,171834,1,0,0:0:0:0:
452,192,171900,6,0,B|464:240|460:280|460:280|436:312|384:340|332:336,1,225,0|2,0:0|0:0,0:0:0:0:
236,288,172300,1,0,0:0:0:0:
152,216,172434,2,0,P|100:240|80:288,1,112.5
79,288,172700,1,2,0:0:0:0:
171,47,172834,6,0,B|128:44|76:72|52:104|52:104|48:144|60:192,1,225
132,280,173234,1,2,0:0:0:0:
280,336,173367,1,0,0:0:0:0:
424,272,173500,2,0,P|464:232|472:176,1,112.5
408,88,173767,1,2,0:0:0:0:
120,176,173900,6,0,P|172:76|272:40,1,225
360,112,174300,1,2,0:0:0:0:
456,172,174434,1,0,0:0:0:0:
456,284,174567,2,0,P|424:332|372:348,1,112.5
373,347,174767,1,0,0:0:0:0:
373,347,174834,1,2,0:0:0:0:
84,280,174967,6,0,B|64:332|64:332|84:372|180:376|212:328,1,225
360,268,175367,1,2,0:0:0:0:
384,112,175500,1,0,0:0:0:0:
256,204,175634,1,2,0:0:0:0:
128,112,175767,1,0,0:0:0:0:
152,268,175900,1,2,0:0:0:0:
152,268,175967,1,0,0:0:0:0:
152,268,176034,1,0,0:0:0:0:
152,268,176100,1,0,0:0:0:0:
152,268,176167,6,0,L|244:336,1,112.5
460,268,176434,2,0,L|369:201,1,112.5,2|0,0:0|0:0,0:0:0:0:
456,96,176700,1,0,0:0:0:0:
356,44,176834,1,0,0:0:0:0:
244,36,176967,1,2,0:0:0:0:
456,96,177100,6,0,B|408:48|408:48|368:84|296:104|260:84,1,225
148,92,177500,1,2,0:0:0:0:
72,304,177634,1,0,0:0:0:0:
208,224,177767,2,0,P|212:280|252:316,1,112.5
251,315,177967,1,0,0:0:0:0:
251,315,178034,1,2,0:0:0:0:
68,88,178167,6,0,B|32:142|32:142|27:191|60:247|113:275,1,225
200,144,178567,1,2,0:0:0:0:
200,144,178700,1,0,0:0:0:0:
320,76,178834,1,0,0:0:0:0:
432,152,178967,1,0,0:0:0:0:
396,280,179100,1,2,0:0:0:0:
188,328,179234,6,0,P|132:324|80:348,2,112.5
312,276,179634,1,2,0:0:0:0:
352,148,179767,1,0,0:0:0:0:
200,108,179900,1,2,0:0:0:0:
160,236,180033,1,0,0:0:0:0:
292,344,180167,1,2,0:0:0:0:
336,340,180234,1,0,0:0:0:0:
376,316,180300,1,0,0:0:0:0:
400,276,180367,1,0,0:0:0:0:
408,232,180434,6,0,P|420:176|420:120,1,112.5
104,152,180700,2,0,P|92:208|92:264,1,112.5,2|0,0:0|0:0,0:0:0:0:
156,328,180967,1,0,0:0:0:0:
256,192,181100,1,0,0:0:0:0:
356,56,181234,1,2,0:0:0:0:
356,56,181367,6,0,B|304:28|304:28|264:72|200:84|152:72,1,225
124,180,181767,1,2,0:0:0:0:
172,280,181900,1,0,0:0:0:0:
284,300,182034,1,0,0:0:0:0:
364,220,182167,1,0,0:0:0:0:
336,112,182300,1,2,0:0:0:0:
216,60,182434,6,0,P|104:52|44:136,1,225
44,135,182767,1,0,0:0:0:0:
44,135,182834,1,2,0:0:0:0:
44,135,182900,1,0,0:0:0:0:
44,135,182967,1,0,0:0:0:0:
59,151,183034,1,0,0:0:0:0:
67,159,183100,1,2,0:0:0:0:
74,174,183167,1,0,0:0:0:0:
79,189,183234,1,0,0:0:0:0:
85,210,183300,1,0,0:0:0:0:
91,231,183367,1,2,0:0:0:0:
97,258,183434,1,0,0:0:0:0:
105,290,183500,1,0,0:0:0:0:
122,318,183567,1,0,0:0:0:0:
153,341,183634,5,2,0:0:0:0:
188,356,183700,1,0,0:0:0:0:
233,358,183767,1,0,0:0:0:0:
278,353,183834,1,0,0:0:0:0:
314,326,183900,1,2,0:0:0:0:
324,281,183967,1,0,0:0:0:0:
317,236,184034,1,0,0:0:0:0:
285,204,184100,1,0,0:0:0:0:
240,212,184167,1,2,0:0:0:0:
223,253,184234,1,0,0:0:0:0:
251,287,184300,1,0,0:0:0:0:
296,285,184367,1,0,0:0:0:0:
338,270,184434,1,2,0:0:0:0:
373,242,184500,1,0,0:0:0:0:
394,202,184567,1,0,0:0:0:0:
398,157,184634,1,0,0:0:0:0:
388,112,184700,6,0,P|352:68|300:48,1,112.5
184,88,184967,1,2,0:0:0:0:
84,164,185100,1,2,0:0:0:0:
188,268,185234,2,0,L|76:252,2,112.5,0|0|2,0:0|0:0|0:0,0:0:0:0:
280,336,185634,1,0,0:0:0:0:
452,188,185767,6,0,P|448:244|416:288,1,112.5
415,288,186034,1,2,0:0:0:0:
332,184,186167,1,0,0:0:0:0:
268,64,186300,2,0,P|212:52|160:68,1,112.5
208,168,186567,2,0,P|152:172|108:204,1,112.5,2|0,0:0|0:0,0:0:0:0:
248,320,186834,6,0,P|196:344|140:340,2,112.5,0|0|2,0:0|0:0|0:0,0:0:0:0:
248,320,187234,1,2,0:0:0:0:
392,252,187367,2,0,L|320:164,1,112.5
224,72,187634,1,2,0:0:0:0:
80,132,187767,2,0,P|56:184|68:236,1,112.5
432,252,188034,2,0,P|456:200|444:148,1,112.5,0|2,0:0|0:0,0:0:0:0:
128,168,188300,2,0,P|104:220|116:272,1,112.5
384,216,188567,2,0,P|408:164|396:112,2,112.5,0|2|2,0:0|0:0|0:0,0:0:0:0:
376,236,188900,1,0,0:0:0:0:
368,256,188967,6,0,P|340:304|288:328,1,112.5
176,324,189234,1,2,0:0:0:0:
288,196,189367,2,0,P|246:232|189:239,1,112.5,2|0,0:0|0:0,0:0:0:0:
84,201,189634,1,0,0:0:0:0:
84,201,189767,2,0,P|136:100|236:56,2,225,2|0|2,0:0|0:0|0:0,0:0:0:0:
172,320,190434,1,0,0:0:0:0:
320,324,190567,2,0,P|356:280|372:224,1,112.5
348,48,190834,2,0,P|312:92|296:148,1,112.5,2|0,0:0|0:0,0:0:0:0:
180,60,191100,5,0,0:0:0:0:
88,160,191234,1,0,0:0:0:0:
216,200,191367,2,2,P|184:248|136:272,1,112.5
260,328,191634,1,0,0:0:0:0:
260,328,191767,1,0,0:0:0:0:
396,340,191900,2,0,P|448:240|436:128,2,225,2|0|2,0:0|0:0|0:0,0:0:0:0:
260,328,192567,1,0,0:0:0:0:
256,192,192700,1,2,0:0:0:0:
252,56,192834,1,0,0:0:0:0:
76,196,192967,5,2,0:0:0:0:
92,232,193034,1,0,0:0:0:0:
120,260,193100,1,0,0:0:0:0:
156,276,193167,1,0,0:0:0:0:
196,272,193234,2,0,P|248:248|300:264,1,112.5
412,192,193500,1,2,0:0:0:0:
412,192,193634,1,2,0:0:0:0:
328,84,193767,2,0,P|376:52|432:44,2,112.5,0|0|2,0:0|0:0|0:0,0:0:0:0:
132,216,194167,6,0,P|80:196|40:156,1,112.5
132,236,194434,2,0,P|80:216|40:176,1,112.5,0|2,0:0|0:0,0:0:0:0:
132,256,194700,2,0,P|80:236|40:196,1,112.5
132,276,194967,2,0,P|80:256|40:216,1,112.5,0|2,0:0|0:0,0:0:0:0:
132,88,195234,1,0,0:0:0:0:
332,48,195367,6,0,P|380:76|408:124,1,112.5
396,280,195634,1,2,0:0:0:0:
252,340,195767,1,2,0:0:0:0:
316,148,195900,1,0,0:0:0:0:
216,56,196034,1,0,0:0:0:0:
88,100,196167,1,2,0:0:0:0:
236,268,196300,6,0,P|184:248|144:208,1,112.5
236,288,196567,2,0,P|184:268|144:228,1,112.5,0|2,0:0|0:0,0:0:0:0:
236,308,196833,2,0,P|184:288|144:248,1,112.5
236,328,197100,2,0,P|184:308|144:268,1,112.5,0|2,0:0|0:0,0:0:0:0:
168,112,197367,1,2,0:0:0:0:
380,128,197500,6,0,P|436:144|472:184,2,112.5,0|0|2,0:0|0:0|0:0,0:0:0:0:
156,164,197900,2,0,P|100:156|60:116,2,112.5,2|0|0,0:0|0:0|0:0,0:0:0:0:
380,128,198300,2,0,B|432:176|432:176|440:236|404:288|356:296,1,225,2|0,0:0|0:0,0:0:0:0:
224,324,198700,1,0,0:0:0:0:
100,272,198834,1,2,0:0:0:0:
96,92,198967,2,0,P|152:96|192:132,1,112.5
292,84,199234,1,0,0:0:0:0:
352,180,199367,1,2,0:0:0:0:
352,180,199500,1,0,0:0:0:0:
368,292,199634,2,0,L|268:348,2,112.5,0|0|2,0:0|0:0|0:0,0:0:0:0:
144,92,200034,2,0,L|244:36,2,112.5,2|0|0,0:0|0:0|0:0,0:0:0:0:
56,260,200434,6,0,B|52:320|52:320|92:364|164:360|208:328,2,225,2|0|2,0:0|0:0|0:0,0:0:0:0:
56,172,201100,1,2,0:0:0:0:
116,104,201234,1,2,0:0:0:0:
196,68,201367,1,0,0:0:0:0:
284,48,201500,1,0,0:0:0:0:
372,68,201634,1,0,0:0:0:0:
444,120,201767,6,0,P|472:168|468:224,1,112.5
276,340,202034,2,0,P|252:288|264:236,1,112.5,2|0,0:0|0:0,0:0:0:0:
368,276,202300,1,2,0:0:0:0:
376,164,202434,1,0,0:0:0:0:
196,160,202567,1,2,0:0:0:0:
200,272,202700,1,0,0:0:0:0:
108,336,202834,6,0,P|76:288|80:236,1,112.5,2|0,0:0|0:0,0:0:0:0:
228,68,203100,2,0,P|264:112|268:168,1,112.5,2|0,0:0|0:0,0:0:0:0:
388,104,203367,1,2,0:0:0:0:
428,232,203500,1,0,0:0:0:0:
348,340,203634,1,2,0:0:0:0:
212,332,203767,1,0,0:0:0:0:
124,232,203900,6,0,L|40:152,2,112.5,2|0|2,0:0|0:0|0:0,0:0:0:0:
280,144,204300,1,0,0:0:0:0:
360,308,204434,2,0,L|448:236,2,112.5,2|0|2,0:0|0:0|0:0,0:0:0:0:
280,144,204834,1,0,0:0:0:0:
68,72,204967,6,0,L|180:48,1,112.5,2|0,0:0|0:0,0:0:0:0:
68,312,205234,2,0,L|180:336,1,112.5,2|0,0:0|0:0,0:0:0:0:
328,124,205500,1,2,0:0:0:0:
432,208,205634,1,0,0:0:0:0:
440,344,205767,2,0,P|384:356|332:336,1,112.5
200,320,206034,5,0,0:0:0:0:
96,276,206167,1,0,0:0:0:0:
72,168,206300,1,2,0:0:0:0:
136,76,206434,1,0,0:0:0:0:
240,36,206567,1,2,0:0:0:0:
348,64,206700,1,0,0:0:0:0:
416,156,206834,1,2,0:0:0:0:
392,264,206967,1,0,0:0:0:0:
292,312,207100,5,2,0:0:0:0:
200,248,207234,1,0,0:0:0:0:
88,232,207367,1,2,0:0:0:0:
88,232,207500,1,0,0:0:0:0:
72,76,207634,2,0,P|128:56|184:56,1,112.5,2|0,0:0|0:0,0:0:0:0:
440,308,207900,2,0,P|384:328|328:328,1,112.5,2|0,0:0|0:0,0:0:0:0:
396,124,208167,5,2,0:0:0:0:
280,56,208300,1,0,0:0:0:0:
144,56,208434,1,2,0:0:0:0:
44,148,208567,1,0,0:0:0:0:
44,284,208700,1,2,0:0:0:0:
152,368,208834,1,0,0:0:0:0:
288,360,208967,1,2,0:0:0:0:
388,268,209100,1,0,0:0:0:0:
396,124,209234,5,2,0:0:0:0:
336,188,209367,1,0,0:0:0:0:
276,124,209500,1,2,0:0:0:0:
216,188,209633,1,0,0:0:0:0:
448,136,209767,5,2,0:0:0:0:
332,276,209900,1,2,0:0:0:0:
216,136,210034,1,2,0:0:0:0:
100,276,210167,1,2,0:0:0:0:
60,100,210300,5,2,0:0:0:0:
256,192,210434,1,0,0:0:0:0:
256,192,210567,1,0,0:0:0:0:
428,148,210700,5,8,0:0:0:0:
256,192,210834,1,0,0:0:0:0:
256,192,210967,1,0,0:0:0:0:
144,332,211100,5,8,0:0:0:0:
256,192,211234,1,0,0:0:0:0:
364,48,211367,6,0,P|308:36|252:44,1,112.5,2|0,0:0|0:0,0:0:0:0:
148,336,211634,2,0,P|204:348|260:340,1,112.5,2|0,0:0|0:0,0:0:0:0:
412,248,211900,1,0,0:0:0:0:
382,213,211967,1,0,0:0:0:0:
343,190,212034,1,0,0:0:0:0:
299,201,212100,1,0,0:0:0:0:
262,227,212167,1,0,0:0:0:0:
221,248,212234,1,0,0:0:0:0:
177,238,212300,1,0,0:0:0:0:
140,211,212367,1,0,0:0:0:0:
110,176,212434,6,0,P|88:124|108:72,1,112.5,2|0,0:0|0:0,0:0:0:0:
106,73,212700,1,0,0:0:0:0:
402,208,212834,6,0,P|424:260|404:312,1,112.5,2|0,0:0|0:0,0:0:0:0:
405,310,213100,1,0,0:0:0:0:
204,324,213234,5,2,0:0:0:0:
204,324,213367,1,0,0:0:0:0:
76,284,213500,5,2,0:0:0:0:
87,240,213567,1,0,0:0:0:0:
116,205,213634,1,0,0:0:0:0:
154,181,213700,1,0,0:0:0:0:
197,170,213767,1,2,0:0:0:0:
304,200,213900,1,0,0:0:0:0:
400,260,214034,2,0,P|444:224|464:172,1,112.5
424,68,214300,1,2,0:0:0:0:
381,51,214367,1,0,0:0:0:0:
336,42,214434,1,0,0:0:0:0:
291,47,214500,1,0,0:0:0:0:
249,64,214567,5,2,0:0:0:0:
116,92,214700,1,0,0:0:0:0:
44,208,214834,1,0,0:0:0:0:
263,320,214967,5,2,0:0:0:0:
396,292,215100,1,0,0:0:0:0:
468,176,215234,1,0,0:0:0:0:
249,64,215367,5,2,0:0:0:0:
263,320,215500,1,0,0:0:0:0:
249,64,215634,2,0,P|148:112|96:216,1,225,2|0,0:0|0:0,0:0:0:0:
97,208,216034,1,0,0:0:0:0:
97,208,216167,1,0,0:0:0:0:
256,192,216234,12,4,222300,0:0:0:0:
