osu file format v12

[General]
AudioFilename: houkago stride kano.mp3
AudioLeadIn: 1000
PreviewTime: 86036
Countdown: 0
SampleSet: None
StackLeniency: 0.7
Mode: 0
LetterboxInBreaks: 1

[Editor]
Bookmarks: 1234,9767,26834,52434,69500,86567,110034,127100,144167,167634,184700,222300
DistanceSpacing: 0.4
BeatDivisor: 4
GridSize: 4

[Metadata]
Title:Houkago Stride
TitleUnicode:放課後ストライド
Artist:kano
ArtistUnicode:鹿乃
Creator:Clementine
Version:Skystar
Source:
Tags:vocaloid last note. binjip cilvery caren_sk amamiya yuko yoshilove
BeatmapID:226071
BeatmapSetID:79878

[Difficulty]
HPDrainRate:6
CircleSize:4
OverallDifficulty:8
ApproachRate:9
SliderMultiplier:1.8
SliderTickRate:1

[Events]
//Background and Video events
0,0,"bg.jpg",0,0
//Break Periods
//Storyboard Layer 0 (Background)
//Storyboard Layer 1 (Fail)
//Storyboard Layer 2 (Pass)
//Storyboard Layer 3 (Foreground)
//Storyboard Sound Samples
//Background Colour Transformations
3,100,0,0,0

[TimingPoints]
1234,266.666666666667,4,2,1,80,1,0
9500,-66.6666666666667,4,2,1,80,0,0
9767,-100,4,2,1,80,0,1
26834,-100,4,2,1,80,0,0
86567,-80,4,2,1,80,0,1
103634,-100,4,2,1,80,0,1
110034,-100,4,2,1,80,0,0
144167,-80,4,2,1,80,0,1
167634,-80,4,2,1,80,0,0
182700,-80,4,2,1,30,0,0
182900,-80,4,2,1,40,0,0
183100,-80,4,2,1,50,0,0
183300,-80,4,2,1,60,0,0
183500,-80,4,2,1,65,0,0
183700,-80,4,2,1,70,0,0
183900,-80,4,2,1,75,0,0
184100,-80,4,2,1,80,0,0
184700,-80,4,2,1,80,0,1
201767,-80,4,2,1,80,0,0

[Colours]
Combo1 : 122,173,231
Combo2 : 86,220,153
Combo3 : 213,136,232
Combo4 : 197,226,80

[HitObjects]
40,40,1234,1,0,0:0:0:0:
256,316,1634,5,0,0:0:0:0:
344,328,1767,2,0,P|388:328|424:300,1,90
464,220,2034,1,0,0:0:0:0:
452,132,2167,1,0,0:0:0:0:
452,132,2234,1,0,0:0:0:0:
452,132,2300,1,0,0:0:0:0:
331,54,2434,1,0,0:0:0:0:
384,188,2567,1,0,0:0:0:0:
419,49,2700,1,0,0:0:0:0:
309,140,2834,2,0,P|296:184|312:232,1,90
472,344,3100,5,0,0:0:0:0:
472,344,3367,1,0,0:0:0:0:
256,68,3767,5,0,0:0:0:0:
208,144,3900,2,0,P|164:144|120:168,1,90
80,244,4167,1,0,0:0:0:0:
112,328,4300,2,0,L|156:320,1,45
200,312,4434,1,0,0:0:0:0:
208,144,4567,1,0,0:0:0:0:
280,288,4700,1,0,0:0:0:0:
200,176,4834,2,0,L|384:172,1,180
472,40,5234,5,0,0:0:0:0:
472,40,5500,1,0,0:0:0:0:
256,316,5900,5,0,0:0:0:0:
176,272,6034,2,0,P|164:316|132:348,1,90
88,268,6300,1,0,0:0:0:0:
52,184,6434,2,0,L|64:136,1,45
76,96,6567,1,0,0:0:0:0:
160,132,6700,2,0,L|252:128,1,90
52,44,6967,2,0,L|64:224,1,180
40,344,7367,5,0,0:0:0:0:
40,344,7634,1,0,0:0:0:0:
472,344,8167,5,0,0:0:0:0:
472,40,8700,5,0,0:0:0:0:
40,40,9234,5,0,0:0:0:0:
52,64,9300,1,0,0:0:0:0:
64,88,9367,1,0,0:0:0:0:
245,153,9500,6,0,P|184:176|120:156,1,135.000005149842
304,84,9767,6,0,P|332:120|336:168,1,90
291,325,10034,2,0,P|277:282|288:240,1,90
368,284,10300,2,0,P|276:312|200:284,1,180
292,328,10700,6,0,P|198:306|146:244,1,180
144,152,11100,1,0,0:0:0:0:
144,152,11167,1,0,0:0:0:0:
144,152,11234,1,0,0:0:0:0:
168,64,11367,2,0,L|268:68,1,90
144,152,11634,2,0,L|236:189,1,90
91,226,11900,6,0,P|124:256|140:304,1,90
309,344,12167,2,0,P|268:352|224:336,1,90
400,356,12434,2,0,P|384:264|424:184,1,180
404,276,12834,6,0,P|392:184|336:120,1,180
292,108,13167,1,0,0:0:0:0:
292,108,13234,2,0,L|284:204,1,90
224,264,13500,1,0,0:0:0:0:
372,160,13634,1,0,0:0:0:0:
216,300,13767,1,0,0:0:0:0:
452,208,13900,1,0,0:0:0:0:
208,336,14034,6,0,B|164:344|164:344|118:340,1,90
385,319,14300,2,0,B|340:316|340:316|296:324,1,90
472,340,14567,2,0,L|468:156,1,180
484,248,14967,6,0,L|456:64,1,180
432,32,15300,2,0,P|416:24|384:16,1,45
308,56,15500,1,0,0:0:0:0:
260,132,15634,1,0,0:0:0:0:
295,273,15767,1,0,0:0:0:0:
349,138,15900,1,0,0:0:0:0:
226,215,16034,1,0,0:0:0:0:
371,225,16167,6,0,L|464:216,1,90
260,132,16434,2,0,L|167:141,1,90
349,138,16700,2,0,P|360:228|360:328,1,180
442,283,17100,6,0,P|442:331|432:372,2,90
349,138,17500,2,0,L|256:136,1,90
280,254,17767,2,0,L|204:208,1,90
162,323,18034,1,0,0:0:0:0:
152,308,18100,1,0,0:0:0:0:
144,292,18167,1,0,0:0:0:0:
136,276,18234,1,0,0:0:0:0:
128,260,18300,6,0,P|112:300|80:340,1,90
