osu file format v12

[General]
AudioFilename: houkago stride kano.mp3
AudioLeadIn: 1000
PreviewTime: 86036
Countdown: 0
SampleSet: None
StackLeniency: 0.7
Mode: 0
LetterboxInBreaks: 1

[Editor]
Bookmarks: 1234,9767,26834,43900,52434,69500,86567,110034,127100,144167,167634,184700,222300
DistanceSpacing: 1.3
BeatDivisor: 4
GridSize: 4

[Metadata]
Title:Houkago Stride
TitleUnicode:放課後ストライド
Artist:kano
ArtistUnicode:鹿乃
Creator:Clementine
Version:RLC
Source:
Tags:vocaloid last note. binjip cilvery caren_sk amamiya yuko yoshilove
BeatmapID:228679
BeatmapSetID:79878

[Difficulty]
HPDrainRate:6
CircleSize:4
OverallDifficulty:8
ApproachRate:9
SliderMultiplier:1.9
SliderTickRate:1

[Events]
//Background and Video events
0,0,"bg.jpg",0,0
//Break Periods
//Storyboard Layer 0 (Background)
//Storyboard Layer 1 (Fail)
//Storyboard Layer 2 (Pass)
//Storyboard Layer 3 (Foreground)
//Storyboard Sound Samples
//Background Colour Transformations
3,100,0,0,0

[TimingPoints]
1234,266.666666666667,4,2,1,70,1,0
9767,-100,4,2,1,70,0,1
26834,-100,4,2,1,70,0,0
69767,-133.333333333333,4,2,1,70,0,0
71634,-100,4,2,1,70,0,0
71900,-133.333333333333,4,2,1,70,0,0
73767,-100,4,2,1,70,0,0
74034,-133.333333333333,4,2,1,70,0,0
75900,-100,4,2,1,70,0,0
76167,-133.333333333333,4,2,1,70,0,0
77500,-100,4,2,1,70,0,0
86567,-100,4,2,1,70,0,1
103634,-100,4,2,1,70,0,1
110034,-133.333333333333,4,2,1,70,0,0
114300,-100,4,2,1,70,0,0
118567,-133.333333333333,4,2,1,70,0,0
122834,-100,4,2,1,70,0,0
127100,-133.333333333333,4,2,1,70,0,0
135634,-100,4,2,1,70,0,0
144167,-100,4,2,1,70,0,1
167634,-100,4,2,1,70,0,0
182567,-100,4,1,1,20,0,0
183100,-100,4,1,1,30,0,0
183634,-100,4,1,1,40,0,0
184167,-100,4,1,1,50,0,0
184700,-80,4,2,1,70,0,1
201767,-80,4,2,1,70,0,0
216300,-80,4,2,1,5,0,0

[Colours]
Combo1 : 122,173,231
Combo2 : 86,220,153
Combo3 : 213,136,232
Combo4 : 197,226,80

[HitObjects]
73,143,9234,2,0,L|22:164,4,47.5,0|0|0|0|0,1:0|1:0|1:0|1:0|1:0,0:0:0:0:
476,86,9767,2,0,P|473:148|364:215,1,190,0|0,1:0|1:0,0:0:0:0:
216,179,10167,1,0,0:0:0:0:
318,277,10300,2,0,P|342:322|341:372,1,95,0|0,1:0|1:0,0:0:0:0:
251,341,10567,1,0,1:0:0:0:
162,369,10700,6,0,B|146:281|207:286|183:180,1,190,0|0,1:0|1:0,0:0:0:0:
25,201,11100,2,0,P|25:244|49:289,1,95,0|0,1:0|0:0,0:0:0:0:
106,222,11367,1,0,1:0:0:0:
24,118,11500,1,0,1:0:0:0:
166,104,11634,2,0,L|271:95,1,95,0|0,1:0|1:0,0:0:0:0:
488,221,11900,6,0,P|434:234|322:142,1,190,0|0,1:0|1:0,0:0:0:0:
432,136,12300,1,0,0:0:0:0:
317,279,12434,2,0,P|252:285|192:322,1,95,0|0,1:0|1:0,0:0:0:0:
125,371,12700,1,0,1:0:0:0:
19,247,12834,6,0,P|81:272|192:217,1,190,0|0,1:0|1:0,0:0:0:0:
323,102,13234,2,0,L|191:82,1,95,0|0,1:0|0:0,0:0:0:0:
91,154,13500,1,0,1:0:0:0:
249,172,13634,1,0,1:0:0:0:
132,75,13767,2,0,L|101:40,2,47.5,8|0|4,1:3|1:0|1:3,0:0:0:0:
250,267,14034,6,0,P|319:243|432:305,1,190,4|0,1:1|1:0,0:0:0:0:
496,365,14434,1,0,0:0:0:0:
430,195,14567,2,0,P|416:139|432:86,1,95,0|0,1:0|1:0,0:0:0:0:
500,145,14834,1,0,1:0:0:0:
341,82,14967,6,0,P|298:124|159:132,1,190,0|0,1:0|1:0,0:0:0:0:
76,68,15367,2,0,P|86:127|64:188,1,95,0|0,1:0|0:0,0:0:0:0:
54,330,15634,1,0,1:0:0:0:
178,220,15767,1,0,1:0:0:0:
7,257,15900,2,0,P|68:248|122:270,1,95,0|0,1:0|1:0,0:0:0:0:
303,352,16167,6,0,P|359:331|406:202,1,190,0|0,1:0|1:0,0:0:0:0:
356,115,16567,1,0,0:0:0:0:
244,125,16700,2,0,P|212:89|194:24,1,95,0|0,1:0|1:0,0:0:0:0:
383,37,16967,1,0,1:0:0:0:
306,201,17100,6,0,P|224:226|145:153,1,190,0|0,1:0|1:0,0:0:0:0:
397,190,17500,2,0,P|412:243|407:294,1,95,0|0,1:0|0:0,0:0:0:0:
168,384,17767,2,0,P|153:331|158:280,1,95,0|0,1:0|1:0,0:0:0:0:
314,287,18034,1,0,1:0:0:0:
318,314,18100,1,0,1:0:0:0:
313,342,18167,1,0,1:0:0:0:
44,294,18300,6,0,P|86:222|215:228,1,190,0|0,1:0|1:0,0:0:0:0:
313,201,18700,1,0,0:0:0:0:
258,39,18834,2,0,P|245:91|249:149,1,95,0|0,1:0|1:0,0:0:0:0:
345,30,19100,1,0,1:0:0:0:
408,206,19234,6,0,P|421:154|417:96,1,95,0|0,1:0|0:0,0:0:0:0:
357,284,19500,1,0,1:0:0:0:
506,362,19634,2,0,L|406:352,1,95,0|0,1:0|0:0,0:0:0:0:
139,185,19900,2,0,L|239:195,1,95,0|0,1:0|1:0,0:0:0:0:
312,375,20167,2,0,L|212:365,1,95,0|0,1:0|1:0,0:0:0:0:
104,108,20434,6,0,P|180:77|286:137,1,190,0|0,1:0|1:0,0:0:0:0:
188,275,20834,1,0,0:0:0:0:
38,186,20967,2,0,P|11:132|18:72,1,95,0|0,1:0|1:0,0:0:0:0:
178,184,21234,1,0,1:0:0:0:
81,275,21367,6,0,P|108:329|101:389,1,95,0|0,1:0|0:0,0:0:0:0:
252,351,21634,1,0,1:0:0:0:
329,219,21767,2,0,P|302:165|309:105,1,95,0|0,1:0|0:0,0:0:0:0:
453,47,22034,1,0,1:0:0:0:
388,156,22167,1,0,1:0:0:0:
246,83,22300,1,8,1:3:0:0:
218,74,22367,1,0,1:0:0:0:
189,72,22434,1,4,1:3:0:0:
43,228,22567,6,0,P|104:238|204:164,1,190,4|0,1:0|1:0,0:0:0:0:
100,135,22967,1,0,0:0:0:0:
206,286,23100,2,0,P|233:300|296:307,1,95,0|0,1:0|1:0,0:0:0:0:
457,241,23367,1,0,1:0:0:0:
398,312,23500,6,0,P|371:262|377:203,1,95,0|0,1:0|0:0,0:0:0:0:
485,330,23767,1,0,1:0:0:0:
453,69,23900,2,0,P|480:119|474:178,1,95,0|0,1:0|0:0,0:0:0:0:
398,312,24167,1,0,1:0:0:0:
307,151,24300,1,0,1:0:0:0:
457,241,24434,1,0,1:0:0:0:
313,341,24567,1,0,1:0:0:0:
172,267,24700,6,0,P|105:249|-4:315,1,190,0|0,1:0|1:0,0:0:0:0:
218,352,25100,1,0,0:0:0:0:
205,185,25234,2,0,L|189:90,1,95,0|0,1:0|1:0,0:0:0:0:
302,30,25500,1,0,1:0:0:0:
470,109,25634,6,0,P|368:163|301:145,1,190,0|0,1:0|1:0,0:0:0:0:
21,183,26034,2,0,P|80:177|135:195,1,95,0|0,1:0|0:0,0:0:0:0:
334,242,26300,2,0,P|278:255|226:281,1,95,0|0,1:0|1:0,0:0:0:0:
108,332,26567,2,0,L|169:337,1,47.5,0|0,1:0|1:0,0:0:0:0:
271,356,26700,2,0,L|207:367,1,47.5,0|0,1:0|1:0,0:0:0:0:
27,368,26834,6,0,P|21:318|53:262,1,95,2|0,1:2|0:0,0:0:0:0:
115,107,27100,1,0,0:0:0:0:
178,260,27234,1,0,0:0:0:0:
7,198,27367,2,0,L|124:189,1,95,2|0,1:2|0:0,0:0:0:0:
289,170,27634,1,0,0:0:0:0:
209,101,27767,6,0,P|265:145|374:114,1,190,2|0,0:0|0:0,0:0:0:0:
448,163,28167,2,0,P|430:206|420:270,1,95
445,356,28434,1,0,1:0:0:0:
299,41,28700,1,0,0:0:0:0:
445,356,28967,5,2,0:0:0:0:
364,306,29100,1,0,0:0:0:0:
271,330,29234,2,0,L|174:312,1,95
0,174,29500,2,0,P|61:149|169:221,1,190,2|0,1:2|0:0,0:0:0:0:
178,313,29900,1,2,0:0:0:0:
498,140,30167,5,0,0:0:0:0:
418,87,30300,2,0,L|307:71,1,95
182,124,30567,1,0,1:2:0:0:
319,154,30700,1,0,0:0:0:0:
237,58,30834,1,0,0:0:0:0:
237,191,30967,1,0,0:0:0:0:
387,212,31100,2,0,P|434:221|503:354,1,190,4|0,0:0|0:0,0:0:0:0:
353,291,31500,5,0,0:0:0:0:
241,377,31634,1,0,1:0:0:0:
197,254,31767,2,0,P|144:265|114:291,1,95
271,290,32034,5,0,0:0:0:0:
388,371,32167,1,0,0:0:0:0:
303,203,32300,2,0,P|320:143|362:111,1,95
440,243,32567,5,0,0:0:0:0:
315,364,32700,2,0,L|209:357,1,95,0|0,1:0|0:0,0:0:0:0:
120,175,32967,2,0,L|226:182,1,95
471,162,33234,6,0,P|422:159|370:191,1,95,4|0,0:0|0:0,0:0:0:0:
368,310,33500,1,0,0:0:0:0:
337,81,33634,6,0,P|309:121|311:182,1,95,4|0,0:0|0:0,0:0:0:0:
414,244,33900,1,0,0:0:0:0:
204,161,34034,6,0,P|225:204|279:233,1,95,4|0,0:0|0:0,0:0:0:0:
384,177,34300,1,0,0:0:0:0:
201,318,34434,6,0,P|249:321|302:289,1,95,4|0,0:0|0:0,0:0:0:0:
303,170,34700,1,0,0:0:0:0:
414,244,34834,6,0,L|439:361,1,95,4|0,1:2|0:0,0:0:0:0:
451,127,35100,2,0,L|426:10,1,95,4|0,1:2|0:0,0:0:0:0:
274,39,35367,5,2,1:2:0:0:
384,177,35500,1,0,0:0:0:0:
363,52,35634,1,0,0:0:0:0:
198,66,35767,1,0,0:0:0:0:
319,127,35900,2,0,P|265:133|215:165,1,95,2|0,1:2|0:0,0:0:0:0:
142,292,36167,1,0,0:0:0:0:
0,203,36300,6,0,P|71:217|150:140,1,190,2|0,0:0|0:0,0:0:0:0:
68,14,36700,2,0,L|57:127,1,95
142,292,36967,1,0,1:0:0:0:
489,133,37234,1,0,0:0:0:0:
142,292,37500,5,2,0:0:0:0:
231,259,37634,1,0,0:0:0:0:
314,304,37767,2,0,P|280:341|218:348,1,95
150,199,38034,2,0,P|229:161|325:215,1,190,2|0,1:2|0:0,0:0:0:0:
316,201,38434,1,2,0:0:0:0:
448,68,38700,5,0,0:0:0:0:
352,68,38834,2,0,P|358:122|395:166,1,95
475,218,39100,1,0,1:0:0:0:
316,202,39234,1,0,0:0:0:0:
422,336,39367,2,0,P|416:282|379:238,1,95
218,194,39634,2,0,P|166:215|105:334,1,190,4|0,0:0|0:0,0:0:0:0:
263,352,40034,5,0,0:0:0:0:
386,249,40167,1,0,1:0:0:0:
250,270,40300,2,0,P|307:278|337:316,1,95
183,319,40567,5,0,0:0:0:0:
316,202,40700,1,0,0:0:0:0:
153,137,40834,2,0,P|117:182|69:189,1,95
164,52,41100,5,0,0:0:0:0:
238,189,41234,1,0,1:0:0:0:
77,103,41367,1,0,0:0:0:0:
252,48,41500,1,0,0:0:0:0:
77,103,41634,1,0,0:0:0:0:
175,253,41767,6,0,P|229:275|289:257,1,95,4|0,0:0|0:0,0:0:0:0:
388,169,42034,1,0,0:0:0:0:
496,345,42167,6,0,P|488:287|442:244,1,95,4|0,0:0|0:0,0:0:0:0:
316,202,42434,1,0,0:0:0:0:
414,21,42567,6,0,P|367:56|353:117,1,95,4|0,0:0|0:0,0:0:0:0:
381,248,42834,1,0,0:0:0:0:
174,253,42967,6,0,P|227:275|288:257,1,95,4|0,0:0|0:0,0:0:0:0:
388,169,43234,1,0,0:0:0:0:
140,330,43367,6,0,L|35:351,1,95,4|0,1:2|0:0,0:0:0:0:
68,192,43634,2,0,L|162:174,1,95,4|0,1:2|0:0,0:0:0:0:
299,42,43900,6,0,P|364:35|463:125,1,190,0|0,1:0|1:0,0:0:0:0:
383,262,44300,1,0,0:0:0:0:
265,152,44434,1,0,1:0:0:0:
443,189,44567,1,0,1:0:0:0:
293,244,44700,1,0,1:0:0:0:
475,289,44834,6,0,P|441:342|316:332,1,190,0|0,1:0|1:0,0:0:0:0:
118,233,45234,2,0,L|238:216,1,95,0|0,1:0|0:0,0:0:0:0:
435,86,45500,2,0,L|315:103,1,95,0|0,1:0|1:0,0:0:0:0:
25,105,45767,2,0,L|145:88,1,95,0|0,1:0|1:0,0:0:0:0:
151,325,46034,6,0,P|78:318|30:192,1,190,0|0,1:0|1:0,0:0:0:0:
208,111,46434,1,0,0:0:0:0:
118,233,46567,1,0,1:0:0:0:
119,91,46700,1,0,1:0:0:0:
204,203,46834,1,0,1:0:0:0:
59,158,46967,6,0,L|272:107,1,190,0|0,1:0|1:0,0:0:0:0:
454,153,47367,2,0,L|349:177,1,95,0|0,1:0|0:0,0:0:0:0:
145,313,47634,2,0,L|249:288,1,95,0|0,1:0|1:0,0:0:0:0:
490,312,47900,1,8,1:3:0:0:
444,324,47967,1,0,1:0:0:0:
398,337,48034,1,4,1:3:0:0:
254,202,48167,6,0,P|169:187|74:270,1,190,4|0,1:0|1:0,0:0:0:0:
307,267,48567,1,0,0:0:0:0:
235,99,48700,1,0,1:0:0:0:
191,293,48834,1,0,1:0:0:0:
428,270,48967,1,0,1:0:0:0:
323,141,49100,6,0,P|408:156|503:73,1,190,0|0,1:0|1:0,0:0:0:0:
234,196,49500,2,0,P|173:184|116:204,1,95,0|0,1:0|0:0,0:0:0:0:
23,137,49767,2,0,P|63:90|75:30,1,95,0|0,1:0|1:0,0:0:0:0:
114,297,50034,2,0,P|134:355|179:395,1,95,0|0,1:0|1:0,0:0:0:0:
308,273,50300,6,0,P|385:228|505:275,1,190,0|0,1:0|1:0,0:0:0:0:
292,357,50700,1,0,0:0:0:0:
302,141,50834,1,0,1:0:0:0:
389,326,50967,1,0,1:0:0:0:
198,319,51100,1,0,1:0:0:0:
302,141,51234,6,0,L|74:196,1,190,0|0,1:0|1:0,0:0:0:0:
16,80,51634,2,0,P|70:103|115:106,1,95,0|0,1:0|0:0,0:0:0:0:
347,214,51900,2,0,P|300:249|274:286,1,95,0|0,1:0|1:0,0:0:0:0:
411,116,52167,1,0,1:0:0:0:
382,77,52234,1,0,1:0:0:0:
343,50,52300,1,0,1:0:0:0:
184,75,52434,5,2,1:2:0:0:
303,142,52567,1,0,0:0:0:0:
262,30,52700,1,0,0:0:0:0:
220,158,52834,1,0,0:0:0:0:
347,214,52967,2,0,L|447:200,1,95,2|0,1:2|0:0,0:0:0:0:
499,312,53234,1,0,0:0:0:0:
341,342,53367,6,0,P|284:307|156:324,1,190,2|0,0:0|0:0,0:0:0:0:
35,306,53767,1,0,0:0:0:0:
176,226,53900,1,0,0:0:0:0:
85,110,54034,1,0,1:0:0:0:
412,296,54300,1,0,0:0:0:0:
85,110,54567,5,2,0:0:0:0:
248,133,54700,1,0,0:0:0:0:
171,92,54834,2,0,P|167:141|185:186,1,95
327,165,55100,2,0,P|331:116|313:71,1,95,2|0,1:2|0:0,0:0:0:0:
264,224,55367,1,0,0:0:0:0:
367,243,55500,6,0,P|425:229|523:312,1,190,2|0,0:2|0:0,0:0:0:0:
264,224,55900,2,0,P|290:175|339:136,1,95
165,252,56167,2,0,P|160:199|178:143,1,95,0|0,1:0|0:0,0:0:0:0:
249,310,56434,1,0,0:0:0:0:
81,281,56567,1,0,0:0:0:0:
110,117,56700,2,0,P|165:127|272:43,1,190,4|0,0:0|0:0,0:0:0:0:
75,45,57100,5,0,0:0:0:0:
60,188,57234,1,0,1:0:0:0:
228,193,57367,2,0,P|181:208|133:249,1,95
27,112,57634,5,0,0:0:0:0:
157,49,57767,1,0,0:0:0:0:
267,121,57900,2,0,P|323:118|369:89,1,95
239,47,58167,5,0,0:0:0:0:
148,194,58300,1,0,1:0:0:0:
313,201,58434,1,0,0:0:0:0:
189,122,58567,1,0,0:0:0:0:
313,201,58700,1,0,0:0:0:0:
195,268,58834,6,0,L|91:315,1,95,4|0,0:0|0:0,0:0:0:0:
22,346,59100,1,0,0:0:0:0:
321,317,59234,6,0,L|425:270,1,95,4|0,0:0|0:0,0:0:0:0:
494,239,59500,1,0,0:0:0:0:
187,152,59634,6,0,L|83:199,1,95,4|0,0:0|0:0,0:0:0:0:
14,230,59900,1,0,0:0:0:0:
313,201,60034,6,0,L|417:154,1,95,4|0,0:0|0:0,0:0:0:0:
486,123,60300,1,0,0:0:0:0:
185,29,60434,6,0,L|81:76,1,95,4|0,1:2|0:0,0:0:0:0:
311,78,60700,2,0,L|415:31,1,95,4|0,1:2|0:0,0:0:0:0:
469,318,60967,6,0,P|386:342|296:258,1,190,2|0,1:2|0:0,0:0:0:0:
372,139,61367,1,0,0:0:0:0:
401,259,61500,1,2,1:2:0:0:
225,308,61634,1,0,0:0:0:0:
322,213,61767,1,0,0:0:0:0:
266,375,61900,6,0,P|186:319|103:343,1,190,2|0,0:2|0:0,0:0:0:0:
47,187,62300,1,0,0:0:0:0:
184,240,62434,1,0,0:0:0:0:
172,68,62567,1,0,1:0:0:0:
103,343,62834,1,0,0:0:0:0:
172,68,63100,5,2,0:2:0:0:
299,115,63234,1,0,0:0:0:0:
157,153,63367,1,0,0:0:0:0:
249,42,63500,1,0,0:0:0:0:
206,223,63634,2,0,P|249:196|306:199,1,95,2|0,1:2|0:0,0:0:0:0:
274,280,63900,1,0,0:0:0:0:
116,290,64034,6,0,P|99:239|204:115,1,190,2|0,0:2|0:0,0:0:0:0:
372,179,64434,1,0,0:0:0:0:
199,306,64567,1,0,0:0:0:0:
299,115,64700,1,0,1:0:0:0:
370,279,64834,1,0,0:0:0:0:
299,115,64967,1,0,0:0:0:0:
466,189,65100,1,0,0:0:0:0:
299,115,65234,2,0,P|375:108|459:13,1,190,4|0,0:0|0:0,0:0:0:0:
277,207,65634,5,0,0:0:0:0:
192,77,65767,1,0,1:0:0:0:
125,208,65900,2,0,P|73:196|11:201,1,95
118,118,66167,5,0,0:0:0:0:
89,286,66300,1,0,0:0:0:0:
198,164,66434,2,0,L|221:268,1,95
363,225,66700,5,0,0:0:0:0:
271,122,66834,1,0,1:0:0:0:
297,289,66967,1,0,0:0:0:0:
350,143,67100,1,0,0:0:0:0:
192,77,67234,1,0,0:0:0:0:
89,286,67367,6,0,P|84:237|91:178,1,95,4|0,0:0|0:0,0:0:0:0:
123,37,67634,1,0,0:0:0:0:
272,122,67767,6,0,P|277:171|270:230,1,95,4|0,0:0|0:0,0:0:0:0:
238,371,68034,1,0,0:0:0:0:
363,225,68167,6,0,L|465:238,1,95,4|0,0:0|0:0,0:0:0:0:
472,334,68434,1,0,0:0:0:0:
366,110,68567,6,0,L|264:123,1,95,4|0,0:0|0:0,0:0:0:0:
257,219,68834,1,0,0:0:0:0:
145,301,68967,6,0,L|247:314,1,95,4|0,1:2|0:0,0:0:0:0:
148,186,69234,2,0,L|46:199,1,95,4|0,1:2|0:0,0:0:0:0:
35,50,69500,6,0,P|99:38|190:117,1,190,4|0,1:2|0:0,0:0:0:0:
257,219,69900,2,0,L|246:308,2,71.2500027179719,0|0|0,1:0|0:0|0:0,0:0:0:0:
348,209,70300,2,0,L|380:283,1,71.2500027179719
304,119,70567,1,0,1:0:0:0:
409,147,70700,2,0,L|479:194,2,71.2500027179719,0|0|0,1:0|0:0|0:0,0:0:0:0:
369,62,71100,2,0,P|297:95|224:76,1,142.500005435944,0|0,1:0|0:0,0:0:0:0:
237,83,71500,1,0,0:0:0:0:
32,199,71634,6,0,P|93:197|195:287,1,190,4|0,1:2|0:0,0:0:0:0:
83,310,72034,2,0,L|6:327,2,71.2500027179719,0|0|0,1:0|0:0|0:0,0:0:0:0:
185,354,72434,2,0,L|265:340,1,71.2500027179719
381,349,72700,1,0,1:0:0:0:
373,221,72834,2,0,L|293:235,1,71.2500027179719,0|0,1:0|0:0,0:0:0:0:
213,129,73100,1,0,0:0:0:0:
317,53,73234,2,0,P|381:59|443:119,1,142.500005435944,0|0,1:0|0:0,0:0:0:0:
437,109,73634,1,0,1:0:0:0:
435,282,73767,6,0,P|345:273|260:363,1,190,4|0,1:2|0:0,0:0:0:0:
180,240,74167,2,0,L|168:163,2,71.2500027179719,0|0|0,1:0|0:0|0:0,0:0:0:0:
117,294,74567,2,0,L|48:261,1,71.2500027179719
195,320,74834,1,0,1:0:0:0:
257,268,74967,2,0,L|319:200,2,71.2500027179719,0|0|0,1:0|0:0|0:0,0:0:0:0:
276,135,75367,2,0,P|332:138|389:219,1,142.500005435944,0|0,1:0|0:0,0:0:0:0:
386,199,75767,1,0,0:0:0:0:
213,193,75900,6,0,L|11:229,1,190,4|0,1:2|0:0,0:0:0:0:
195,320,76300,2,0,L|276:305,1,71.2500027179719,0|0,1:0|0:0,0:0:0:0:
313,219,76567,1,0,0:0:0:0:
216,106,76700,2,0,L|135:121,1,71.2500027179719
98,207,76967,1,0,1:0:0:0:
306,126,77100,2,0,P|358:138|411:223,1,142.500005435944,0|0,1:0|0:0,0:0:0:0:
372,330,77500,2,0,P|316:319|256:338,1,95,0|0,1:0|0:0,0:0:0:0:
59,342,77767,1,8,1:3:0:0:
106,346,77834,1,0,1:0:0:0:
149,327,77900,1,4,1:3:0:0:
159,187,78034,6,0,P|100:168|13:263,1,190,4|0,1:0|1:0,0:0:0:0:
235,141,78434,2,0,L|249:33,2,95,2|0|2,0:0|0:0|0:0,0:0:0:0:
257,247,78834,2,0,L|271:355,2,95,0|0|0,1:0|0:0|0:0,0:0:0:0:
326,141,79234,2,0,L|340:33,2,95,0|0|2,0:0|1:0|0:0,0:0:0:0:
348,247,79634,6,0,L|362:355,1,95,0|2,0:0|0:0,0:0:0:0:
429,222,79900,1,0,1:0:0:0:
257,247,80034,1,2,1:2:0:0:
429,222,80167,6,0,P|411:158|476:46,1,190,4|0,0:2|1:0,0:0:0:0:
348,56,80567,2,0,L|254:13,2,95,2|0|2,0:0|0:0|0:0,0:0:0:0:
322,144,80967,2,0,L|217:141,2,95,0|0|0,1:0|0:0|0:0,0:0:0:0:
342,236,81367,2,0,L|246:280,2,95,0|0|2,0:0|1:0|0:0,0:0:0:0:
415,348,81767,6,0,P|357:335|298:340,1,95,0|2,0:0|0:0,0:0:0:0:
199,383,82034,1,0,1:0:0:0:
118,221,82167,1,2,1:2:0:0:
104,366,82300,6,0,P|144:322|169:268,1,95,4|0,0:2|0:0,0:0:0:0:
184,149,82567,1,0,1:0:0:0:
289,222,82700,2,0,P|343:181|483:193,1,190,2|2,0:0|0:0,0:0:0:0:
381,354,83100,2,0,P|331:347|283:309,1,95,0|0,1:0|0:0,0:0:0:0:
209,231,83367,1,0,1:0:0:0:
30,191,83500,2,0,P|98:182|172:78,1,190,0|2,1:0|1:2,0:0:0:0:
317,42,83900,5,0,1:0:0:0:
295,187,84034,1,2,0:2:0:0:
231,26,84167,1,0,1:0:0:0:
347,123,84300,1,2,1:2:0:0:
211,175,84434,6,0,L|106:171,1,95,4|0,1:0|0:0,0:0:0:0:
24,268,84700,2,0,P|20:321|31:376,1,95,0|0,1:0|0:0,0:0:0:0:
90,95,84967,2,0,P|94:42|83:-13,1,95,0|0,1:0|0:0,0:0:0:0:
114,295,85234,1,0,1:0:0:0:
201,259,85367,1,0,1:0:0:0:
292,284,85500,1,0,1:0:0:0:
292,284,86167,5,0,0:0:0:0:
439,182,86300,2,0,P|447:138|439:84,1,95
60,55,86567,2,0,P|33:128|72:256,1,190,0|8,1:0|0:2,0:0:0:0:
198,342,86967,1,0,0:0:0:0:
372,251,87100,2,0,P|435:255|481:284,1,95,0|0,1:0|1:0,0:0:0:0:
292,365,87367,1,8,0:2:0:0:
218,251,87500,6,0,L|209:141,1,95,0|0,1:0|1:0,0:0:0:0:
375,16,87767,2,0,L|384:126,1,95,2|8,1:3|0:2,0:0:0:0:
135,166,88034,2,0,L|126:56,1,95,2|0,1:3|0:0,0:0:0:0:
453,125,88301,2,0,L|462:235,1,95,2|8,1:3|0:2,0:0:0:0:
291,287,88567,1,0,1:0:0:0:
325,111,88700,5,0,1:0:0:0:
394,289,88834,1,0,1:0:0:0:
251,193,88967,1,8,0:2:0:0:
353,203,89100,1,0,0:0:0:0:
189,276,89234,2,0,P|124:279|69:250,1,95,0|0,1:0|1:0,0:0:0:0:
56,83,89500,1,8,0:2:0:0:
325,111,89634,6,0,L|303:243,1,95,0|0,1:0|1:0,0:0:0:0:
81,363,89900,2,0,L|103:231,1,95,2|8,1:3|0:2,0:0:0:0:
433,51,90167,2,0,L|411:183,1,95,2|0,1:3|0:0,0:0:0:0:
189,303,90433,2,0,L|211:171,1,95,2|8,1:3|0:2,0:0:0:0:
289,38,90700,1,0,1:0:0:0:
501,209,90834,6,0,P|465:301|358:318,1,190,0|8,1:0|0:2,0:0:0:0:
289,193,91234,2,0,P|311:137|353:109,1,95,0|0,0:0|1:0,0:0:0:0:
394,213,91500,1,0,1:0:0:0:
299,289,91634,2,0,L|190:277,1,95,8|0,0:2|0:0,0:0:0:0:
28,273,91900,5,0,1:0:0:0:
156,348,92034,1,2,1:2:0:0:
205,194,92167,2,0,L|180:60,1,95,8|2,0:2|0:2,0:0:0:0:
36,75,92434,2,0,L|61:209,1,95,0|10,1:0|1:2,0:0:0:0:
205,279,92700,1,10,0:2:0:0:
296,120,92834,1,0,0:2:0:0:
476,170,92967,6,0,P|460:107|340:54,1,190,0|8,1:0|0:2,0:0:0:0:
299,272,93367,2,0,L|399:258,1,95,0|0,0:0|1:0,0:0:0:0:
502,248,93634,1,0,1:0:0:0:
232,163,93767,2,0,L|132:177,1,95,8|0,0:2|0:0,0:0:0:0:
1,118,94034,5,0,1:0:0:0:
89,241,94167,1,2,1:2:0:0:
191,94,94300,2,0,L|291:80,1,95,8|2,0:2|0:2,0:0:0:0:
352,339,94567,2,0,L|252:353,1,95,0|10,1:0|1:2,0:0:0:0:
79,353,94834,1,8,1:3:0:0:
61,309,94900,1,0,1:0:0:0:
62,261,94967,1,4,1:3:0:0:
232,163,95100,5,4,1:0:0:0:
156,331,95234,1,0,1:0:0:0:
109,151,95367,1,8,0:2:0:0:
254,273,95500,1,0,0:0:0:0:
318,41,95634,2,0,P|385:40|482:137,1,190,0|8,1:0|0:2,0:0:0:0:
332,215,96034,6,0,L|311:112,1,95,0|0,1:0|1:0,0:0:0:0:
455,206,96300,2,0,L|476:309,1,95,2|8,1:3|0:2,0:0:0:0:
131,282,96567,2,0,L|110:179,1,95,2|0,1:3|0:0,0:0:0:0:
254,273,96833,2,0,L|275:376,1,95,2|8,1:3|0:2,0:0:0:0:
55,327,97100,1,0,1:0:0:0:
195,206,97234,5,0,1:0:0:0:
137,362,97367,1,0,1:0:0:0:
112,188,97500,1,8,0:2:0:0:
278,184,97634,1,0,0:0:0:0:
23,211,97767,2,0,P|29:154|55:103,1,95,0|0,1:0|1:0,0:0:0:0:
179,41,98034,1,8,0:2:0:0:
339,112,98167,6,0,L|438:81,1,95,0|0,1:0|1:0,0:0:0:0:
231,269,98434,2,0,L|132:300,1,95,2|8,1:3|0:2,0:0:0:0:
206,137,98700,2,0,L|175:38,1,95,2|0,1:3|0:0,0:0:0:0:
363,245,98967,2,0,L|394:344,1,95,2|8,1:3|0:2,0:0:0:0:
288,190,99234,1,0,1:0:0:0:
466,162,99367,6,0,P|412:154|337:43,1,190,0|8,1:0|0:2,0:0:0:0:
486,252,99767,2,0,L|474:358,1,95,0|0,0:0|1:0,0:0:0:0:
326,359,100034,1,0,1:0:0:0:
198,292,100167,2,0,L|210:186,1,95,8|0,0:2|0:0,0:0:0:0:
277,64,100434,5,0,1:0:0:0:
148,128,100567,1,2,1:2:0:0:
290,157,100700,1,8,0:2:0:0:
186,44,100834,1,2,0:2:0:0:
89,199,100967,2,0,P|38:193|-3:146,1,95,0|10,1:0|1:2,0:0:0:0:
148,128,101234,1,10,0:2:0:0:
167,263,101367,1,0,0:0:0:0:
220,184,101500,6,0,P|278:179|382:266,1,190,0|8,1:0|0:2,0:0:0:0:
204,349,101900,2,0,L|85:371,1,95,0|0,0:0|1:0,0:0:0:0:
271,285,102167,1,0,1:0:0:0:
381,355,102300,2,0,L|500:333,1,95,8|0,0:2|0:0,0:0:0:0:
427,62,102567,6,0,P|421:121|435:176,1,95,0|2,1:0|1:2,0:0:0:0:
503,259,102834,1,8,0:2:0:0:
505,114,102967,1,2,0:2:0:0:
363,216,103100,1,8,1:3:0:0:
343,32,103234,1,4,1:3:0:0:
428,156,103367,1,4,1:3:0:0:
278,188,103500,1,4,1:3:0:0:
207,68,103634,6,0,P|123:57|9:135,1,190,4|0,1:0|1:0,0:0:0:0:
32,103,104034,1,0,0:0:0:0:
137,260,104167,2,0,L|128:149,1,95,0|0,1:0|0:0,0:0:0:0:
41,259,104434,2,0,L|50:370,1,95,0|0,1:0|0:0,0:0:0:0:
228,223,104700,5,0,1:0:0:0:
322,233,104834,1,0,0:0:0:0:
403,184,104967,1,0,1:0:0:0:
427,92,105100,1,0,0:0:0:0:
321,31,105234,2,0,L|308:138,1,95,0|0,1:0|0:0,0:0:0:0:
390,373,105500,2,0,L|403:266,1,95,0|0,1:0|0:0,0:0:0:0:
230,314,105767,6,0,P|149:332|49:248,1,190,0|0,1:0|1:0,0:0:0:0:
62,277,106167,1,0,0:0:0:0:
148,119,106300,2,0,L|163:228,1,95,0|0,1:0|0:0,0:0:0:0:
17,176,106567,2,0,L|2:67,1,95,0|0,1:0|0:0,0:0:0:0:
318,82,106834,6,0,L|305:176,1,95,0|0,1:0|0:0,0:0:0:0:
161,213,107101,2,0,L|173:118,1,95,0|0,1:0|0:0,0:0:0:0:
462,119,107367,5,0,1:0:0:0:
331,176,107501,1,0,1:0:0:0:
318,81,107634,1,0,1:0:0:0:
474,213,107767,1,0,1:0:0:0:
290,262,107900,6,0,P|224:274|180:306,1,95,0|0,1:0|0:0,0:0:0:0:
200,287,108167,1,0,1:0:0:0:
384,305,108300,2,0,P|450:317|494:349,1,95,0|0,1:0|0:0,0:0:0:0:
473,330,108567,1,0,1:0:0:0:
111,316,108700,2,0,P|45:304|1:272,1,95,0|0,1:0|0:0,0:0:0:0:
36,143,108967,1,0,1:0:0:0:
256,192,109234,12,0,110034,0:0:0:0:
121,138,110434,5,0,0:0:0:0:
205,85,110567,2,0,P|259:81|356:91,1,142.500005435944,0|0,1:0|0:0,0:0:0:0:
420,157,110967,2,0,L|410:310,1,142.500005435944,0|0,1:0|1:0,0:0:0:0:
328,355,111367,1,0,0:0:0:0:
323,255,111500,1,0,0:0:0:0:
410,299,111634,1,0,1:0:0:0:
49,247,111900,5,0,0:0:0:0:
138,291,112034,1,0,0:0:0:0:
199,212,112167,2,0,P|207:169|208:119,1,71.2500027179719,0|0,1:0|0:0,0:0:0:0:
118,96,112434,2,0,P|110:139|109:189,1,71.2500027179719
296,202,112700,2,0,P|356:165|438:163,1,142.500005435944,0|0,1:0|0:0,0:0:0:0:
326,81,113100,2,0,P|281:82|190:29,1,142.500005435944,0|0,1:0|1:0,0:0:0:0:
35,52,113500,1,0,0:0:0:0:
130,183,113634,1,0,0:0:0:0:
196,37,113767,1,0,1:0:0:0:
480,304,114034,5,0,1:0:0:0:
459,298,114100,1,0,1:0:0:0:
438,291,114167,1,0,1:0:0:0:
417,285,114234,1,0,1:0:0:0:
396,279,114300,2,0,P|292:291|244:360,1,190,0|0,1:0|1:0,0:0:0:0:
360,369,114700,5,2,0:0:0:0:
465,221,114834,1,0,0:0:0:0:
296,200,114967,2,0,P|285:148|306:87,1,95,2|0,0:0|1:0,0:0:0:0:
386,160,115234,5,0,0:0:0:0:
263,305,115367,1,0,0:0:0:0:
195,126,115500,2,0,L|90:148,1,95,0|0,0:0|1:0,0:0:0:0:
36,240,115767,5,2,0:0:0:0:
88,62,115900,2,0,P|35:54|-5:23,1,95,0|2,0:0|0:0,0:0:0:0:
204,208,116167,2,0,P|257:216|297:247,1,95,0|0,1:0|0:0,0:0:0:0:
415,110,116434,6,0,P|329:118|256:27,1,190,4|0,0:0|0:0,0:0:0:0:
512,92,116834,6,0,L|474:210,1,95,4|0,0:0|0:0,0:0:0:0:
497,306,117100,1,0,0:0:0:0:
370,367,117234,6,0,L|332:249,1,95,4|0,0:0|0:0,0:0:0:0:
355,153,117500,1,0,0:0:0:0:
263,113,117634,6,0,L|225:231,1,95,4|0,0:0|0:0,0:0:0:0:
248,327,117900,1,0,0:0:0:0:
116,310,118034,6,0,L|78:192,1,95,4|0,1:2|0:0,0:0:0:0:
326,62,118300,2,0,L|364:180,1,95,4|0,1:2|0:0,0:0:0:0:
360,295,118567,1,0,1:0:0:0:
360,295,118967,5,0,0:0:0:0:
454,263,119100,2,0,P|434:197|446:120,1,142.500005435944,0|0,1:0|0:0,0:0:0:0:
349,159,119500,2,0,P|273:137|184:139,1,142.500005435944,0|0,1:0|1:0,0:0:0:0:
126,190,119900,1,0,0:0:0:0:
216,233,120034,1,0,0:0:0:0:
210,135,120167,1,0,1:0:0:0:
210,135,120434,5,0,0:0:0:0:
126,190,120567,1,0,0:0:0:0:
216,233,120700,2,0,L|210:317,1,71.2500027179719,0|0,1:0|0:0,0:0:0:0:
350,368,120967,2,0,L|344:284,1,71.2500027179719
287,67,121234,2,0,L|304:208,1,142.500005435944,0|0,1:0|0:0,0:0:0:0:
387,157,121634,2,0,P|437:170|518:105,1,142.500005435944,0|0,1:0|1:0,0:0:0:0:
435,78,122034,1,0,0:0:0:0:
435,78,122167,1,0,0:0:0:0:
363,26,122300,1,0,1:0:0:0:
39,313,122567,5,0,1:0:0:0:
60,309,122634,1,0,1:0:0:0:
80,305,122700,1,0,1:0:0:0:
101,302,122767,1,0,1:0:0:0:
122,299,122834,2,0,P|204:251|224:159,1,190,0|0,1:0|1:0,0:0:0:0:
105,40,123234,5,2,0:0:0:0:
118,202,123367,1,0,0:0:0:0:
4,41,123500,2,0,P|27:88|65:126,1,95,2|0,0:0|1:0,0:0:0:0:
188,60,123767,5,0,0:0:0:0:
30,204,123900,2,0,L|253:148,1,190,0|0,0:0|1:0,0:0:0:0:
297,219,124300,5,2,0:0:0:0:
204,273,124434,2,0,P|186:319|172:382,1,95,0|2,0:0|0:0,0:0:0:0:
290,311,124700,1,0,1:0:0:0:
102,291,124834,1,0,0:0:0:0:
290,311,124967,6,0,L|409:323,1,95,4|0,0:0|0:0,0:0:0:0:
490,254,125234,1,0,0:0:0:0:
216,191,125367,6,0,L|97:203,1,95,4|0,0:0|0:0,0:0:0:0:
16,134,125634,1,0,0:0:0:0:
292,144,125767,6,0,L|411:156,1,95,4|0,0:0|0:0,0:0:0:0:
459,101,126034,1,0,0:0:0:0:
217,99,126167,6,0,L|98:111,1,95,4|0,0:0|0:0,0:0:0:0:
50,56,126434,1,0,0:0:0:0:
310,114,126567,6,0,P|354:151|384:210,1,95,4|0,1:2|0:0,0:0:0:0:
200,202,126834,2,0,P|156:239|126:298,1,95,4|0,1:2|0:0,0:0:0:0:
300,317,127100,6,0,P|379:342|461:319,1,142.500005435944,0|0,1:0|0:0,0:0:0:0:
482,242,127500,1,0,1:0:0:0:
445,148,127634,1,0,0:0:0:0:
345,156,127767,1,0,0:0:0:0:
385,246,127900,1,0,0:0:0:0:
385,246,128167,5,0,1:0:0:0:
256,124,128300,2,0,P|259:74|268:37,1,71.2500027179719,0|0,1:0|0:0,0:0:0:0:
154,130,128567,1,0,0:0:0:0:
221,205,128700,2,0,P|218:255|209:292,1,71.2500027179719,0|0,1:0|0:0,0:0:0:0:
63,154,128967,2,0,P|66:104|75:67,1,71.2500027179719
38,243,129234,6,0,P|90:232|182:278,1,142.500005435944,0|0,1:0|0:0,0:0:0:0:
237,339,129634,1,0,1:0:0:0:
293,257,129767,1,0,0:0:0:0:
391,270,129900,1,0,0:0:0:0:
331,351,130034,1,0,0:0:0:0:
331,351,130300,5,0,1:0:0:0:
355,185,130434,2,0,L|345:102,1,71.2500027179719,0|0,1:0|0:0,0:0:0:0:
251,52,130700,1,0,0:0:0:0:
197,159,130834,2,0,L|187:242,1,71.2500027179719,0|0,1:0|0:0,0:0:0:0:
134,340,131100,1,0,1:0:0:0:
40,266,131234,1,0,1:0:0:0:
97,155,131367,6,0,P|143:160|249:134,1,142.500005435944,0|0,1:0|0:0,0:0:0:0:
326,95,131767,1,0,1:0:0:0:
395,165,131900,1,0,0:0:0:0:
481,115,132034,1,0,0:0:0:0:
479,214,132167,1,0,0:0:0:0:
479,214,132434,5,0,1:0:0:0:
408,75,132567,2,0,P|409:30|411:-5,1,71.2500027179719,0|0,1:0|0:0,0:0:0:0:
308,186,132834,1,0,0:0:0:0:
399,264,132967,2,0,P|398:309|396:344,1,71.2500027179719,0|0,1:0|0:0,0:0:0:0:
222,352,133234,2,0,P|223:307|225:272,1,71.2500027179719
159,201,133500,6,0,L|-2:222,1,142.500005435944,0|0,1:0|0:0,0:0:0:0:
17,219,133900,1,0,1:0:0:0:
65,126,134034,1,0,0:0:0:0:
121,294,134167,1,0,0:0:0:0:
236,191,134300,1,0,0:0:0:0:
236,191,134567,5,0,1:0:0:0:
166,107,134700,2,0,P|205:95|246:92,1,71.2500027179719,0|0,1:0|0:0,0:0:0:0:
361,90,134967,1,0,0:0:0:0:
457,213,135100,2,0,P|409:215|320:175,1,142.500005435944,0|8,1:0|1:3,0:0:0:0:
315,198,135434,1,0,1:0:0:0:
305,216,135500,1,4,1:3:0:0:
290,232,135567,1,0,1:0:0:0:
271,242,135634,6,0,P|274:302|264:358,2,95,4|0|0,1:0|0:0|1:0,0:0:0:0:
175,291,136034,2,0,L|60:318,2,95,2|0|2,0:0|0:0|0:0,0:0:0:0:
109,205,136434,2,0,L|224:178,2,95,0|0|0,1:0|0:0|0:0,0:0:0:0:
136,100,136834,2,0,L|21:127,2,95,0|0|2,0:0|1:0|0:0,0:0:0:0:
227,101,137234,6,0,P|278:115|329:108,1,95,0|2,0:0|0:0,0:0:0:0:
500,145,137500,2,0,P|449:159|398:152,1,95,0|2,1:0|1:2,0:0:0:0:
204,227,137767,6,2,L|175:337,2,95,4|0|0,0:2|0:0|1:0,0:0:0:0:
292,255,138167,2,0,L|290:366,2,95,2|0|2,0:0|0:0|0:0,0:0:0:0:
383,269,138567,2,0,L|401:377,2,95,0|0|0,1:0|0:0|0:0,0:0:0:0:
473,258,138967,2,0,L|512:366,2,95,0|0|2,0:0|1:0|0:0,0:0:0:0:
441,151,139367,5,0,0:0:0:0:
352,184,139500,1,2,0:0:0:0:
265,143,139634,1,0,1:0:0:0:
254,48,139767,1,2,1:2:0:0:
154,40,139900,6,0,L|177:152,1,95,4|0,0:2|0:0,0:0:0:0:
173,133,140167,1,0,1:0:0:0:
104,286,140300,2,0,L|81:174,1,95,2|0,0:0|0:0,0:0:0:0:
85,193,140567,1,2,0:0:0:0:
267,97,140700,2,0,L|290:209,1,95,0|0,1:0|0:0,0:0:0:0:
286,190,140967,1,0,0:0:0:0:
217,343,141100,2,0,L|194:231,1,95,0|0,0:0|1:0,0:0:0:0:
198,250,141367,1,2,0:0:0:0:
360,152,141500,6,0,L|471:145,1,95,0|2,0:0|0:0,0:0:0:0:
509,46,141767,1,0,1:0:0:0:
449,224,141900,1,2,1:2:0:0:
291,300,142034,6,0,P|340:281|453:367,1,190,4|0,1:0|1:0,0:0:0:0:
285,383,142434,1,0,1:0:0:0:
139,312,142567,2,0,L|35:332,1,95,0|0,1:0|1:0,0:0:0:0:
172,131,142834,2,0,L|276:111,1,95,0|0,1:0|1:0,0:0:0:0:
431,85,143100,5,0,1:0:0:0:
302,191,143234,1,0,1:0:0:0:
320,38,143367,1,0,1:0:0:0:
400,178,143500,1,0,1:0:0:0:
250,281,143634,5,0,1:0:0:0:
415,360,143767,1,0,1:0:0:0:
250,281,143900,1,0,1:0:0:0:
400,178,144034,1,0,1:0:0:0:
148,292,144167,6,0,P|77:288|7:176,1,190,0|8,1:0|0:2,0:0:0:0:
7,199,144567,1,0,0:0:0:0:
122,100,144700,2,0,L|108:217,1,95,0|0,1:0|1:0,0:0:0:0:
200,373,144967,1,8,0:2:0:0:
362,139,145100,6,0,L|348:22,1,95,0|0,1:0|1:0,0:0:0:0:
228,183,145367,2,0,L|242:300,1,95,2|8,1:3|0:2,0:0:0:0:
495,210,145634,2,0,L|481:93,1,95,2|0,1:3|0:0,0:0:0:0:
361,254,145901,2,0,L|375:371,1,95,2|8,1:3|0:2,0:0:0:0:
420,198,146167,1,0,1:0:0:0:
281,113,146300,5,0,1:0:0:0:
284,283,146434,1,0,1:0:0:0:
332,196,146567,1,8,0:2:0:0:
148,202,146700,1,0,0:0:0:0:
332,196,146834,2,0,L|374:93,1,95,0|0,1:0|1:0,0:0:0:0:
486,69,147100,1,8,0:2:0:0:
203,42,147234,6,0,P|195:95|207:156,1,95,0|0,1:0|1:0,0:0:0:0:
422,374,147500,2,0,P|430:321|418:260,1,95,2|8,1:3|0:2,0:0:0:0:
92,44,147767,2,0,P|84:97|96:158,1,95,2|0,1:3|0:0,0:0:0:0:
311,376,148033,2,0,P|319:323|307:262,1,95,2|8,1:3|0:2,0:0:0:0:
201,134,148300,1,0,1:0:0:0:
356,46,148434,6,0,P|360:107|469:177,1,190,0|8,1:0|0:2,0:0:0:0:
302,201,148834,2,0,L|186:228,1,95,0|0,0:0|1:0,0:0:0:0:
39,225,149100,1,0,1:0:0:0:
167,329,149234,1,8,0:2:0:0:
123,174,149367,1,0,0:0:0:0:
67,324,149500,5,0,1:0:0:0:
67,324,149634,1,2,1:2:0:0:
268,294,149767,2,0,P|322:292|388:315,1,95,8|2,0:2|0:2,0:0:0:0:
493,178,150034,2,0,P|437:204|402:245,1,95,0|10,1:0|1:2,0:0:0:0:
282,110,150300,2,0,P|319:157|327:204,1,95,10|0,0:2|0:0,0:0:0:0:
198,111,150567,6,0,P|254:119|363:34,1,190,0|8,1:0|0:2,0:0:0:0:
108,89,150967,2,0,P|53:78|-6:87,1,95,0|0,0:0|1:0,0:0:0:0:
135,180,151234,1,0,1:0:0:0:
182,35,151367,1,8,0:2:0:0:
49,166,151500,1,0,0:0:0:0:
204,231,151634,5,0,1:0:0:0:
204,231,151767,1,2,1:2:0:0:
84,258,151900,2,0,L|73:362,1,95,8|2,0:2|0:2,0:0:0:0:
281,379,152167,1,0,1:0:0:0:
247,158,152300,1,10,1:2:0:0:
158,304,152434,1,8,1:3:0:0:
204,313,152500,1,0,1:0:0:0:
250,300,152567,1,4,1:3:0:0:
361,191,152700,5,4,1:0:0:0:
504,268,152834,1,0,1:0:0:0:
339,278,152967,1,8,0:2:0:0:
381,104,153100,1,0,0:0:0:0:
500,181,153234,2,0,P|441:212|418:268,1,95,0|0,1:0|1:0,0:0:0:0:
389,367,153500,1,8,0:2:0:0:
278,215,153634,6,0,L|164:235,1,95,0|0,1:0|1:0,0:0:0:0:
12,68,153900,2,0,L|126:48,1,95,2|8,1:3|0:2,0:0:0:0:
476,242,154167,2,0,L|362:262,1,95,2|0,1:3|0:0,0:0:0:0:
210,95,154433,2,0,L|324:75,1,95,2|8,1:3|0:2,0:0:0:0:
483,103,154700,1,0,1:0:0:0:
376,18,154834,5,0,1:0:0:0:
340,159,154967,1,0,1:0:0:0:
463,23,155100,1,8,0:2:0:0:
304,78,155234,1,0,0:0:0:0:
427,175,155367,2,0,P|424:224|448:296,1,95,0|0,1:0|1:0,0:0:0:0:
505,217,155634,1,8,0:2:0:0:
342,324,155767,6,0,L|230:308,1,95,0|0,1:0|1:0,0:0:0:0:
25,273,156034,2,0,L|137:257,1,95,2|8,1:3|0:2,0:0:0:0:
346,237,156300,2,0,L|234:221,1,95,2|0,1:3|0:0,0:0:0:0:
29,186,156567,2,0,L|141:170,1,95,2|8,1:3|0:2,0:0:0:0:
254,84,156834,1,0,1:0:0:0:
403,68,156967,6,0,P|467:124|448:246,1,190,0|8,1:0|0:2,0:0:0:0:
270,261,157367,2,0,P|242:216|250:155,1,95,0|0,0:0|1:0,0:0:0:0:
360,176,157634,1,0,1:0:0:0:
345,361,157767,1,8,0:2:0:0:
498,291,157900,1,0,0:0:0:0:
398,271,158034,5,0,1:0:0:0:
398,271,158167,1,2,1:2:0:0:
234,339,158300,2,0,L|117:357,1,95,8|2,0:2|0:2,0:0:0:0:
275,179,158567,2,0,L|191:91,1,95,0|10,1:0|1:2,0:0:0:0:
424,115,158834,2,0,L|413:8,1,95,10|0,0:2|0:0,0:0:0:0:
19,88,159100,6,0,P|50:156|179:170,1,190,0|8,1:0|0:2,0:0:0:0:
331,222,159500,2,0,P|381:196|434:191,1,95,0|0,0:0|1:0,0:0:0:0:
482,305,159767,1,0,1:0:0:0:
311,303,159900,1,8,0:2:0:0:
330,130,160034,1,0,0:0:0:0:
397,342,160167,5,0,1:0:0:0:
397,342,160300,1,2,1:2:0:0:
224,276,160434,2,0,P|156:282|107:301,1,95,8|2,0:2|0:2,0:0:0:0:
63,216,160700,1,8,1:3:0:0:
160,191,160834,1,4,1:3:0:0:
3,117,160967,1,4,1:3:0:0:
178,66,161100,1,4,1:3:0:0:
291,197,161234,6,0,P|356:217|475:129,1,190,4|0,1:0|1:0,0:0:0:0:
458,163,161634,1,0,0:0:0:0:
371,25,161767,2,0,L|360:144,1,95,0|0,1:0|0:0,0:0:0:0:
468,355,162034,2,0,L|479:236,1,95,0|0,1:0|0:0,0:0:0:0:
208,26,162300,6,0,L|197:145,1,95,0|0,1:0|0:0,0:0:0:0:
305,356,162567,2,0,L|316:237,1,95,0|0,1:0|0:0,0:0:0:0:
152,204,162834,1,0,1:0:0:0:
7,253,162967,1,0,0:0:0:0:
40,108,163100,1,0,1:0:0:0:
93,269,163234,1,0,0:0:0:0:
256,234,163367,6,0,P|336:225|428:296,1,190,0|0,1:0|1:0,0:0:0:0:
422,285,163767,1,0,0:0:0:0:
187,376,163900,2,0,L|171:274,1,95,0|0,1:0|0:0,0:0:0:0:
340,39,164167,2,0,L|324:141,1,95,0|0,1:0|0:0,0:0:0:0:
109,108,164434,6,0,L|229:114,1,95,0|0,1:0|0:0,0:0:0:0:
435,207,164700,2,0,L|419:105,1,95,0|0,1:0|0:0,0:0:0:0:
207,235,164967,5,0,1:0:0:0:
338,234,165100,1,0,1:0:0:0:
114,253,165234,1,0,1:0:0:0:
331,329,165367,1,0,1:0:0:0:
330,130,165500,5,0,1:0:0:0:
145,171,165634,1,0,1:0:0:0:
259,297,165767,1,0,1:0:0:0:
323,50,165900,5,0,1:0:0:0:
273,185,166034,1,0,1:0:0:0:
399,173,166167,1,0,1:0:0:0:
466,39,166300,5,0,1:0:0:0:
403,88,166434,1,0,1:0:0:0:
478,118,166567,5,0,1:0:0:0:
256,192,166834,12,0,167634,0:0:0:0:
256,192,167900,5,0,1:0:0:0:
235,285,168034,1,0,0:0:0:0:
319,326,168167,2,0,L|433:297,1,95
411,302,168434,1,0,1:0:0:0:
477,187,168567,6,0,P|458:113|331:68,1,190
152,111,168967,2,0,P|207:103|242:77,1,95,0|0,1:0|0:0,0:0:0:0:
77,191,169234,2,0,L|101:313,1,95,2|0,0:1|0:0,0:0:0:0:
453,363,169500,2,0,L|429:241,1,95,2|0,1:1|0:0,0:0:0:0:
333,344,169767,6,0,P|257:347|187:263,1,190,0|0,0:0|1:0,0:0:0:0:
260,110,170167,1,0,0:0:0:0:
374,214,170300,2,0,P|319:248|268:252,1,95
169,152,170567,1,0,1:0:0:0:
357,104,170700,6,0,P|433:107|503:23,1,190
187,61,171100,2,0,L|74:49,1,95,0|0,1:0|0:0,0:0:0:0:
220,341,171367,2,0,L|333:353,1,95,2|0,0:1|0:0,0:0:0:0:
446,278,171634,1,8,1:3:0:0:
463,234,171700,1,0,1:0:0:0:
453,187,171767,1,4,1:3:0:0:
271,98,171900,6,0,P|260:164|266:202,1,95,4|0,1:0|0:0,0:0:0:0:
91,334,172167,1,0,1:0:0:0:
147,257,172300,1,0,0:0:0:0:
149,161,172434,2,0,L|121:52,1,95
125,68,172700,1,0,1:0:0:0:
230,306,172834,6,0,P|295:291|404:365,1,190
375,229,173234,2,0,P|365:179|377:125,1,95,0|0,1:0|0:0,0:0:0:0:
479,84,173500,2,0,L|461:188,1,95,2|0,0:1|0:0,0:0:0:0:
43,326,173767,2,0,L|61:222,1,95,2|0,1:1|0:0,0:0:0:0:
53,94,174034,6,0,P|121:67|238:120,1,190,0|0,0:0|1:0,0:0:0:0:
306,239,174434,1,0,0:0:0:0:
404,143,174567,2,0,L|290:161,1,95
132,199,174834,1,0,1:0:0:0:
277,339,174967,6,0,P|382:300|450:327,1,190
181,344,175367,2,0,L|66:327,1,95,0|0,1:0|0:0,0:0:0:0:
194,84,175634,2,0,L|309:101,1,95,2|0,0:1|0:0,0:0:0:0:
493,167,175900,1,2,1:1:0:0:
470,208,175967,1,0,1:0:0:0:
426,228,176034,1,0,1:0:0:0:
277,210,176167,6,0,P|222:182|154:177,1,95,0|0,1:0|0:0,0:0:0:0:
367,160,176434,1,0,1:0:0:0:
349,253,176567,1,0,0:0:0:0:
395,335,176700,2,0,P|446:363|494:369,1,95
481,368,176967,1,0,1:0:0:0:
287,356,177100,6,0,P|235:323|86:340,1,190
11,217,177500,2,0,P|85:231|127:213,1,95,0|0,1:0|0:0,0:0:0:0:
286,177,177767,2,0,P|226:216|210:262,1,95,2|0,0:1|0:0,0:0:0:0:
155,130,178034,2,0,P|115:104|101:61,1,95,2|0,1:1|0:0,0:0:0:0:
263,79,178300,6,0,L|359:58,1,95
495,221,178567,1,0,1:0:0:0:
403,198,178700,1,0,0:0:0:0:
310,172,178834,2,0,L|184:141,1,95
217,149,179100,1,0,1:0:0:0:
180,346,179234,6,0,L|376:292,1,190
506,325,179634,2,0,P|455:338|410:384,1,95,0|0,1:0|0:0,0:0:0:0:
34,315,179900,2,0,P|85:302|130:256,1,95,2|0,0:1|0:0,0:0:0:0:
152,29,180167,1,8,1:3:0:0:
131,72,180234,1,0,1:0:0:0:
134,118,180300,1,4,1:3:0:0:
256,197,180434,6,0,P|314:188|422:268,1,190,4|0,1:0|1:0,0:0:0:0:
417,258,180834,1,0,0:0:0:0:
212,296,180967,2,0,L|99:303,1,95
49,190,181234,1,0,1:0:0:0:
225,120,181367,6,0,P|255:71|250:13,1,95
164,188,181634,1,0,0:0:0:0:
323,274,181767,2,0,L|344:392,1,95,0|0,1:0|0:0,0:0:0:0:
456,191,182034,2,0,B|369:233|367:151|249:201,1,190,0|2,0:1|1:1,0:0:0:0:
408,115,182434,1,0,0:0:0:0:
467,274,182567,6,0,L|455:356,2,63.3333333333333
348,309,182834,2,0,L|338:246,2,63.3333333333333
234,260,183100,2,0,L|227:318,3,47.5
129,297,183367,2,0,L|123:249,3,47.5
36,207,183634,6,0,L|97:178,1,47.5
87,95,183767,2,0,L|26:124,1,47.5
157,153,183900,2,0,L|218:124,1,47.5
208,41,184033,2,0,L|147:70,1,47.5
234,260,184167,6,0,L|295:231,1,47.5
339,67,184300,2,0,L|278:96,1,47.5
402,312,184434,2,0,L|463:283,1,47.5
507,119,184567,2,0,L|446:148,1,47.5
341,175,184700,5,0,1:0:0:0:
497,224,184834,1,0,1:0:0:0:
465,50,184967,1,8,0:2:0:0:
410,248,185100,1,0,0:0:0:0:
339,66,185234,2,0,P|274:113|140:93,1,178.125,0|0,1:0|0:0,0:0:0:0:
108,80,185500,1,8,0:2:0:0:
54,324,185634,6,0,B|41:268|41:268|57:207,1,118.75,0|0,1:0|1:0,0:0:0:0:
418,75,185900,2,0,B|431:131|431:131|415:192,1,118.75,2|8,1:3|0:2,0:0:0:0:
203,315,186167,1,2,1:3:0:0:
232,82,186300,1,0,0:0:0:0:
350,317,186434,1,2,1:3:0:0:
155,237,186567,1,8,0:2:0:0:
305,133,186700,1,0,1:0:0:0:
272,363,186834,5,0,1:0:0:0:
358,195,186967,1,0,1:0:0:0:
230,162,187100,1,8,0:2:0:0:
279,284,187234,1,0,0:0:0:0:
498,219,187367,2,0,P|431:202|377:98,1,178.125,0|0,1:0|0:0,0:0:0:0:
378,34,187634,1,8,0:2:0:0:
43,147,187767,6,0,L|166:117,1,118.75,0|0,1:0|1:0,0:0:0:0:
373,260,188034,2,0,L|250:230,1,118.75,2|8,1:3|0:2,0:0:0:0:
54,233,188300,1,2,1:3:0:0:
168,372,188434,1,0,0:0:0:0:
140,207,188567,1,2,1:3:0:0:
83,362,188700,1,8,0:2:0:0:
232,318,188834,1,0,1:0:0:0:
388,374,188967,6,0,P|469:326|483:206,1,178.125,0|0,1:0|0:0,0:0:0:0:
463,176,189234,1,8,0:2:0:0:
324,230,189367,2,0,L|185:248,1,118.75,0|0,0:0|1:0,0:0:0:0:
25,312,189634,1,0,1:0:0:0:
42,112,189767,2,0,P|112:121|173:84,1,118.75,8|0,0:2|0:0,0:0:0:0:
218,58,189967,1,0,0:0:0:0:
294,70,190034,2,0,P|369:64|413:25,1,118.75,0|2,1:0|1:2,0:0:0:0:
463,176,190300,6,0,L|451:301,1,118.75,8|2,0:2|0:2,0:0:0:0:
282,363,190567,1,0,1:0:0:0:
301,159,190700,1,10,1:2:0:0:
383,364,190834,1,10,0:2:0:0:
224,260,190967,1,0,0:0:0:0:
64,371,191100,6,0,P|104:302|90:181,1,178.125,0|0,1:0|0:0,0:0:0:0:
65,136,191367,1,8,0:2:0:0:
211,104,191500,2,0,P|267:103|327:58,1,118.75,0|0,0:0|1:0,0:0:0:0:
313,247,191767,1,0,1:0:0:0:
484,192,191900,2,0,P|416:152|355:156,1,118.75,8|0,0:2|0:0,0:0:0:0:
302,171,192100,1,0,0:0:0:0:
228,194,192167,2,0,P|189:192|121:152,1,118.75,0|2,1:0|1:2,0:0:0:0:
55,342,192434,6,0,L|189:317,1,118.75,8|2,0:2|0:2,0:0:0:0:
376,382,192700,1,0,1:0:0:0:
490,102,192834,2,0,L|349:80,1,118.75,10|8,1:2|1:3,0:0:0:0:
296,71,193034,1,0,1:0:0:0:
220,59,193100,2,0,L|121:45,1,59.375,4|0,1:3|1:0,0:0:0:0:
83,36,193234,5,4,1:0:0:0:
50,230,193367,1,0,1:0:0:0:
212,140,193500,1,8,0:2:0:0:
29,98,193634,1,0,0:0:0:0:
125,210,193767,2,0,P|198:215|274:304,1,178.125,0|0,1:0|0:0,0:0:0:0:
272,365,194034,1,8,0:2:0:0:
440,169,194167,6,0,B|453:112|453:112|443:45,1,118.75,0|0,1:0|1:0,0:0:0:0:
52,155,194434,2,0,B|39:212|39:212|49:279,1,118.75,2|8,1:3|0:2,0:0:0:0:
199,343,194700,1,2,1:3:0:0:
212,140,194834,1,0,0:0:0:0:
111,337,194967,1,2,1:3:0:0:
270,278,195100,1,8,0:2:0:0:
425,357,195234,1,0,1:0:0:0:
397,177,195367,5,0,1:0:0:0:
372,267,195500,1,0,1:0:0:0:
489,134,195634,1,8,0:2:0:0:
326,102,195767,1,0,0:0:0:0:
498,282,195900,2,0,P|435:252|332:310,1,178.125,0|0,1:0|0:0,0:0:0:0:
304,363,196167,1,8,0:2:0:0:
50,255,196300,6,0,L|184:268,1,118.75,0|0,1:0|1:0,0:0:0:0:
397,177,196567,2,0,L|263:190,1,118.75,2|8,1:3|0:2,0:0:0:0:
151,89,196834,1,2,1:3:0:0:
251,272,196967,1,0,0:0:0:0:
249,111,197100,1,2,1:3:0:0:
101,173,197234,1,8,0:2:0:0:
249,111,197367,1,0,1:0:0:0:
339,253,197500,6,0,P|415:267|488:195,1,178.125,0|0,1:0|0:0,0:0:0:0:
479,125,197767,1,8,0:2:0:0:
329,347,197900,2,0,P|257:334|192:350,1,118.75,0|0,0:0|1:0,0:0:0:0:
77,315,198167,1,8,1:2:0:0:
30,158,198300,2,0,P|106:173|171:157,1,118.75,8|0,0:2|0:0,0:0:0:0:
210,123,198500,1,0,0:0:0:0:
287,131,198567,1,0,1:0:0:0:
114,62,198700,1,2,1:2:0:0:
238,204,198834,5,8,0:2:0:0:
355,73,198967,1,2,0:2:0:0:
194,41,199100,1,0,1:0:0:0:
172,261,199234,1,2,1:2:0:0:
114,62,199367,1,10,0:2:0:0:
238,204,199500,1,0,0:0:0:0:
365,148,199634,6,0,P|448:178|488:258,1,178.125,0|0,1:0|0:0,0:0:0:0:
468,328,199900,1,8,0:2:0:0:
402,62,200034,2,0,L|256:78,1,118.75,0|0,0:0|1:0,0:0:0:0:
114,62,200300,1,8,1:2:0:0:
19,221,200434,2,0,P|94:208|165:232,1,118.75,8|0,0:2|0:0,0:0:0:0:
194,266,200634,1,0,0:0:0:0:
231,332,200700,1,0,1:0:0:0:
75,293,200834,1,2,1:2:0:0:
268,267,200967,5,8,0:2:0:0:
152,334,201100,1,2,0:2:0:0:
230,194,201234,1,8,1:3:0:0:
372,272,201367,1,4,1:3:0:0:
290,136,201500,1,4,1:3:0:0:
313,337,201634,1,4,1:3:0:0:
462,232,201767,1,4,1:0:0:0:
462,232,202034,6,0,L|342:257,1,118.75,0|0,1:0|0:0,0:0:0:0:
351,136,202300,2,0,L|231:161,1,118.75,0|0,1:0|0:0,0:0:0:0:
248,36,202567,2,0,L|128:61,1,118.75,0|0,1:0|0:0,0:0:0:0:
27,247,202834,6,0,L|127:344,1,118.75,0|0,1:0|0:0,0:0:0:0:
170,226,203100,2,0,L|270:323,1,118.75,0|0,1:0|0:0,0:0:0:0:
481,143,203367,2,0,L|381:240,1,118.75,0|0,1:0|0:0,0:0:0:0:
338,122,203633,2,0,L|238:219,1,118.75,0|0,1:0|0:0,0:0:0:0:
126,320,203900,1,0,1:0:0:0:
126,320,204167,6,0,L|266:330,1,118.75,0|0,1:0|0:0,0:0:0:0:
445,275,204434,2,0,L|305:265,1,118.75,0|0,1:0|0:0,0:0:0:0:
147,176,204700,2,0,L|287:186,1,118.75,0|0,1:0|0:0,0:0:0:0:
473,99,204967,6,0,L|363:184,1,118.75,0|0,1:0|0:0,0:0:0:0:
48,127,205234,2,0,L|158:42,1,118.75,0|0,1:0|0:0,0:0:0:0:
333,92,205500,5,8,1:3:0:0:
195,130,205634,1,4,1:3:0:0:
300,204,205767,1,4,1:3:0:0:
232,290,205900,1,4,1:3:0:0:
298,380,206034,1,4,1:0:0:0:
298,380,206300,5,0,1:0:0:0:
220,207,206434,1,0,0:0:0:0:
111,352,206567,1,0,1:0:0:0:
308,281,206700,1,0,0:0:0:0:
117,255,206834,2,0,L|-8:274,1,118.75,0|0,1:0|0:0,0:0:0:0:
147,166,207100,1,0,1:0:0:0:
200,367,207234,5,0,0:0:0:0:
300,204,207367,1,0,1:0:0:0:
190,287,207500,1,0,0:0:0:0:
372,337,207634,5,0,1:0:0:0:
353,142,207767,1,0,0:0:0:0:
510,275,207900,2,0,L|379:257,1,118.75,0|0,1:0|0:0,0:0:0:0:
220,214,208167,5,0,1:0:0:0:
323,65,208300,1,0,0:0:0:0:
434,189,208434,1,0,1:0:0:0:
251,140,208567,5,0,0:0:0:0:
398,79,208700,1,0,1:0:0:0:
328,293,208834,1,0,0:0:0:0:
139,208,208967,5,0,1:0:0:0:
247,31,209100,1,0,0:0:0:0:
200,304,209234,6,0,L|79:326,2,118.75,0|0|0,1:0|0:0|1:0,0:0:0:0:
468,258,209634,1,0,0:0:0:0:
333,192,209767,5,0,1:0:0:0:
267,362,209900,1,0,1:0:0:0:
448,337,210034,5,0,1:0:0:0:
261,243,210167,1,0,1:0:0:0:
398,79,210300,5,0,1:0:0:0:
258,160,210434,1,0,1:0:0:0:
414,160,210567,1,0,1:0:0:0:
189,34,210700,5,0,1:0:0:0:
329,115,210834,1,0,1:0:0:0:
173,115,210967,1,0,1:0:0:0:
323,29,211100,5,0,1:0:0:0:
252,83,211234,1,0,1:0:0:0:
323,29,211367,6,0,L|445:45,1,118.75,0|0,1:0|1:0,0:0:0:0:
396,362,211634,2,0,L|274:346,1,118.75,0|0,1:0|1:0,0:0:0:0:
189,254,211900,1,8,0:3:0:0:
100,345,212034,1,4,0:3:0:0:
4,217,212167,2,0,P|71:221|122:184,1,118.75,4|0,1:0|1:0,0:0:0:0:
258,219,212434,5,0,1:0:0:0:
183,336,212567,1,0,1:0:0:0:
188,177,212700,1,0,1:0:0:0:
396,239,212834,5,0,1:0:0:0:
306,118,212967,1,0,1:0:0:0:
312,277,213100,1,0,1:0:0:0:
461,184,213234,5,0,1:0:0:0:
330,195,213367,1,0,1:0:0:0:
461,184,213500,6,0,L|458:307,1,118.75,0|0,1:0|1:0,0:0:0:0:
72,343,213767,2,0,L|75:220,1,118.75,0|0,1:0|1:0,0:0:0:0:
204,68,214034,1,8,0:3:0:0:
114,128,214167,2,0,P|174:167|230:164,1,118.75,4|4,0:3|1:0,0:0:0:0:
263,147,214367,1,0,1:0:0:0:
298,114,214434,1,0,1:0:0:0:
474,107,214567,5,0,1:0:0:0:
409,261,214700,1,0,1:0:0:0:
388,153,214834,1,0,1:0:0:0:
468,192,214967,5,0,1:0:0:0:
403,346,215100,1,0,1:0:0:0:
382,238,215234,1,0,1:0:0:0:
460,287,215367,5,0,1:0:0:0:
306,327,215501,1,0,1:0:0:0:
460,287,215634,5,0,1:0:0:0:
366,58,215900,5,0,1:0:0:0:
301,212,216033,1,0,1:0:0:0:
280,104,216167,1,0,1:0:0:0:
256,192,216300,12,0,222300,0:0:0:0:
