osu file format v12

[General]
AudioFilename: houkago stride kano.mp3
AudioLeadIn: 1000
PreviewTime: 86036
Countdown: 0
SampleSet: None
StackLeniency: 0.7
Mode: 0
LetterboxInBreaks: 1

[Editor]
Bookmarks: 1234,9767,26834,52434,69500,86567,110034,127100,144167,167634,184700,222300
DistanceSpacing: 0.9
BeatDivisor: 4
GridSize: 4

[Metadata]
Title:Houkago Stride
TitleUnicode:放課後ストライド
Artist:kano
ArtistUnicode:鹿乃
Creator:Clementine
Version:Mintong
Source:
Tags:vocaloid last note. binjip cilvery caren_sk amamiya yuko yoshilove
BeatmapID:226895
BeatmapSetID:79878

[Difficulty]
HPDrainRate:8
CircleSize:4
OverallDifficulty:9
ApproachRate:9
SliderMultiplier:1.6
SliderTickRate:1

[Events]
//Background and Video events
0,0,"bg.jpg",0,0
//Break Periods
2,18500,25967
//Storyboard Layer 0 (Background)
//Storyboard Layer 1 (Fail)
//Storyboard Layer 2 (Pass)
//Storyboard Layer 3 (Foreground)
//Storyboard Sound Samples
//Background Colour Transformations
3,100,0,0,0

[TimingPoints]
1234,266.666666666667,4,2,1,80,1,0
7367,-100,4,3,1,80,0,0
9767,-100,4,3,1,80,0,1
17434,-100,4,3,1,5,0,1
17500,-100,4,3,1,80,0,1
17700,-100,4,3,1,5,0,1
17767,-100,4,3,1,80,0,1
26834,-100,4,3,1,80,0,0
86567,-80,4,3,1,80,0,1
103634,-100,4,3,1,80,0,1
110034,-100,4,3,1,80,0,0
144167,-80,4,3,1,80,0,1
167634,-80,4,3,1,80,0,0
182700,-80,4,3,1,30,0,0
182900,-80,4,3,1,40,0,0
183100,-80,4,3,1,50,0,0
183300,-80,4,3,1,60,0,0
183500,-80,4,3,1,65,0,0
183700,-80,4,3,1,70,0,0
183900,-80,4,3,1,75,0,0
184100,-80,4,3,1,80,0,0
184700,-80,4,3,1,80,0,1
201767,-80,4,3,1,80,0,0

[Colours]
Combo1 : 122,173,231
Combo2 : 86,220,153
Combo3 : 213,136,232
Combo4 : 197,226,80

[HitObjects]
256,196,1234,1,4,0:0:0:0:
256,88,3100,5,4,0:0:0:0:
256,192,3367,1,4,0:0:0:0:
256,296,5234,5,4,0:0:0:0:
256,192,5501,1,4,0:0:0:0:
256,192,7367,5,2,0:0:0:0:
291,52,7634,2,0,P|292:156|256:192,1,160,4|0,0:0|0:0,0:0:0:0:
180,188,8034,1,2,2:0:0:0:
180,188,8167,2,0,P|204:136|320:156,1,160,4|0,0:0|0:0,0:0:0:0:
332,196,8567,1,2,2:0:0:0:
332,196,8700,2,0,P|308:248|192:228,1,160,4|2,0:0|2:0,0:0:0:0:
112,216,9100,1,4,0:0:0:0:
180,188,9234,1,0,0:0:0:0:
144,148,9300,1,0,0:0:0:0:
96,144,9367,1,0,0:0:0:0:
52,168,9434,1,0,0:0:0:0:
40,208,9500,1,8,0:0:0:0:
40,208,9767,6,4,P|44:248|80:284,1,80,4|0,2:0|0:0,0:0:0:0:
184,228,10034,2,0,P|180:188|144:152,1,80,8|0,0:0|0:0,0:0:0:0:
112,216,10300,1,0,0:0:0:0:
248,268,10434,1,0,0:0:0:0:
252,196,10567,2,0,P|308:200|344:220,1,80,8|0,0:0|0:0,0:0:0:0:
472,232,10834,6,0,P|450:241|394:245,1,80,0|0,0:0|0:0,0:0:0:0:
392,172,11100,1,8,0:0:0:0:
392,172,11367,2,0,L|384:72,1,80
304,40,11634,2,0,L|310:119,1,80,8|0,0:0|0:0,0:0:0:0:
316,192,11900,6,0,P|316:248|288:288,1,80,0|0,0:0|0:0,0:0:0:0:
248,224,12167,2,0,P|216:260|168:264,1,80,8|0,0:0|0:0,0:0:0:0:
116,248,12434,2,0,L|38:228,1,80
16,144,12700,2,0,L|93:163,1,80,8|0,0:0|0:0,0:0:0:0:
164,180,12967,5,0,0:0:0:0:
164,180,13034,1,0,0:0:0:0:
164,180,13100,1,0,0:0:0:0:
212,120,13234,2,0,P|240:164|240:196,1,80,8|0,0:0|0:0,0:0:0:0:
116,244,13500,2,0,P|88:200|88:168,1,80,8|0,0:0|0:0,0:0:0:0:
164,180,13767,1,8,0:0:0:0:
168,188,13834,1,8,0:0:0:0:
172,196,13900,1,8,0:0:0:0:
176,204,13967,1,8,0:0:0:0:
180,212,14034,6,0,L|220:288,1,80
304,268,14300,2,0,L|264:192,1,80,8|0,0:0|0:0,0:0:0:0:
240,128,14567,1,0,0:0:0:0:
308,48,14700,1,0,0:0:0:0:
472,64,14834,2,0,P|436:84|372:100,1,80,8|0,0:0|0:0,0:0:0:0:
240,128,15100,6,0,P|176:132|132:124,1,80
92,108,15367,1,8,0:0:0:0:
92,108,15634,2,0,P|76:160|56:188,1,80
8,228,15900,2,0,P|21:248|37:300,1,80,8|0,0:0|0:0,0:0:0:0:
52,372,16167,6,0,P|100:372|160:288,1,160,0|8,0:0|0:0,0:0:0:0:
160,212,16567,1,0,0:0:0:0:
236,200,16700,2,0,P|216:160|180:140,1,80
112,148,16967,2,0,P|88:184|84:224,1,80,8|0,0:0|0:0,0:0:0:0:
160,212,17234,6,0,L|232:344,1,120,0|0,0:0|0:0,0:0:0:0:
292,304,17500,2,0,L|228:188,1,120,8|0,0:0|0:0,0:0:0:0:
200,128,17767,1,0,0:0:0:0:
200,128,18034,2,8,L|172:88,4,40,8|8|8|8|4,0:0|0:0|0:0|0:0|2:0,0:0:0:0:
256,36,26567,5,8,0:0:0:0:
252,44,26634,1,8,0:0:0:0:
248,52,26700,1,8,0:0:0:0:
244,60,26767,1,8,0:0:0:0:
240,68,26834,6,0,P|176:92|160:128,1,80,4|0,2:0|0:0,0:0:0:0:
164,168,27100,2,0,P|228:144|244:108,1,80,8|0,0:0|0:0,0:0:0:0:
240,68,27367,2,0,P|304:108|284:188,1,160,0|8,0:0|0:0,0:0:0:0:
