osu file format v12

[General]
AudioFilename: houkago stride kano.mp3
AudioLeadIn: 1000
PreviewTime: 86036
Countdown: 0
SampleSet: Soft
StackLeniency: 0.7
Mode: 0
LetterboxInBreaks: 1

[Editor]
DistanceSpacing: 1.2
BeatDivisor: 4
GridSize: 4

[Metadata]
Title:Houkago Stride
TitleUnicode:放課後ストライド
Artist:kano
ArtistUnicode:鹿乃
Creator:Clementine
Version:Cilvery
Source:
Tags:vocaloid last note. binjip cilvery caren_sk amamiya yuko yoshilove
BeatmapID:222653
BeatmapSetID:79878

[Difficulty]
HPDrainRate:6
CircleSize:4
OverallDifficulty:8
ApproachRate:9
SliderMultiplier:1.7
SliderTickRate:1

[Events]
//Background and Video events
0,0,"bg.jpg",0,0
//Break Periods
2,9967,25967
2,48367,51567
//Storyboard Layer 0 (Background)
//Storyboard Layer 1 (Fail)
//Storyboard Layer 2 (Pass)
//Storyboard Layer 3 (Foreground)
//Storyboard Sound Samples
//Background Colour Transformations
3,100,0,0,0

[TimingPoints]
1234,266.666666666667,4,2,1,80,1,0
86567,-80,4,2,1,80,0,1
110034,-100,4,2,1,80,0,0
144167,-80,4,2,1,80,0,1
167634,-100,4,2,1,80,0,0
184700,-80,4,2,1,80,0,1
201767,-80,4,2,1,80,0,0

[Colours]
Combo1 : 235,215,255
Combo2 : 202,238,255
Combo3 : 228,255,202
Combo4 : 255,223,239
Combo5 : 255,222,206
Combo6 : 255,255,202

[HitObjects]
68,104,1234,1,4,0:0:0:0:
68,104,1500,2,0,P|112:108|156:104,1,85,2|0,0:0|0:0,0:0:0:0:
256,28,1767,1,2,0:0:0:0:
396,156,1900,1,0,0:0:0:0:
396,156,2167,2,0,P|360:224|276:224,1,170,2|0,0:0|0:0,0:0:0:0:
256,96,2567,2,0,P|292:112|316:160,1,85,2|0,0:0|0:0,0:0:0:0:
196,200,2834,2,0,P|148:204|112:200,1,85,2|0,0:0|0:0,0:0:0:0:
4,132,3100,5,4,0:0:0:0:
256,96,3367,1,4,0:0:0:0:
428,284,3634,2,0,P|432:240|428:200,1,85,2|0,0:0|0:0,0:0:0:0:
372,88,3900,2,0,P|260:88|292:192,1,255,2|0,0:0|0:0,0:0:0:0:
420,204,4434,1,2,0:0:0:0:
420,204,4500,1,0,0:0:0:0:
420,204,4567,1,0,0:0:0:0:
256,96,4700,2,0,P|212:88|168:92,1,85,2|0,0:0|0:0,0:0:0:0:
172,284,4967,2,0,P|200:256|208:212,1,85,2|0,0:0|0:0,0:0:0:0:
80,192,5234,5,4,0:0:0:0:
316,284,5500,1,4,0:0:0:0:
140,100,5767,2,0,P|100:84|56:84,1,85,2|0,0:0|0:0,0:0:0:0:
8,268,6034,2,0,P|112:296|180:184,1,255,2|0,0:0|0:0,0:0:0:0:
76,24,6567,1,2,0:0:0:0:
76,24,6634,1,0,0:0:0:0:
76,24,6700,1,0,0:0:0:0:
180,100,6834,2,0,P|220:116|264:116,1,85,2|0,0:0|0:0,0:0:0:0:
440,52,7100,2,0,P|400:36|356:36,1,85,2|0,0:0|0:0,0:0:0:0:
380,228,7367,6,0,P|388:184|380:144,1,85,4|0,0:0|0:0,0:0:0:0:
260,188,7634,1,4,0:0:0:0:
180,252,8167,1,4,0:0:0:0:
100,316,8700,1,4,0:0:0:0:
352,360,8967,2,0,L|396:368,2,42.5
352,360,9234,6,0,P|340:316|360:272,1,85,4|0,0:3|0:0,0:0:0:0:
444,192,9500,1,4,0:0:0:0:
444,192,9767,1,4,0:0:0:0:
96,104,26567,5,0,0:0:0:0:
96,104,26634,1,0,0:0:0:0:
96,104,26700,1,0,0:0:0:0:
96,104,26767,1,0,0:0:0:0:
96,104,26834,6,0,P|88:144|96:188,1,85,4|0,0:0|0:0,0:0:0:0:
172,256,27100,1,8,0:0:0:0:
272,140,27234,2,0,P|228:132|184:140,1,85
188,138,27500,1,0,0:0:0:0:
256,276,27634,1,8,0:0:0:0:
356,160,27767,2,0,P|360:116|356:76,2,85
172,256,28167,1,8,0:0:0:0:
76,140,28301,2,0,P|116:136|160:140,1,85
340,236,28567,2,0,P|300:240|256:236,2,85,0|8|0,0:0|0:0|0:0,0:0:0:0:
432,192,28967,5,0,0:0:0:0:
344,68,29100,1,0,0:0:0:0:
276,144,29234,1,8,0:0:0:0:
424,104,29367,1,0,0:0:0:0:
224,68,29500,2,0,P|196:100|184:140,2,85,0|0|8,0:0|0:0|0:0,0:0:0:0:
228,220,29900,2,0,P|144:224|96:160,1,170
224,68,30300,2,0,P|268:72|308:92,1,85,8|8,0:0|0:0,0:0:0:0:
356,236,30567,6,0,P|360:192|368:152,1,85
428,68,30834,1,8,0:0:0:0:
428,68,30967,1,8,0:0:0:0:
492,208,31100,1,4,0:0:0:0:
236,208,31367,5,8,0:0:0:0:
132,320,31500,2,0,P|128:276|120:236,1,85
76,144,31767,1,0,0:0:0:0:
224,100,31900,2,0,P|200:136|160:156,1,85,8|0,0:0|0:0,0:0:0:0:
212,8,32167,2,0,P|256:12|292:36,2,85,0|0|8,0:0|0:0|0:0,0:0:0:0:
76,80,32567,1,0,0:0:0:0:
152,212,32700,2,0,P|155:171|151:127,1,85,0|8,0:0|0:0,0:0:0:0:
76,264,32967,2,0,P|104:292|148:304,1,85,8|0,0:0|0:0,0:0:0:0:
288,248,33234,6,0,P|304:176|236:192,1,170,4|0,0:0|0:0,0:0:0:0:
220,292,33634,6,0,P|292:328|364:276,1,170,4|0,0:0|0:0,0:0:0:0:
380,132,34034,6,0,P|312:84|216:92,1,170,4|0,0:0|0:0,0:0:0:0:
160,164,34434,6,0,P|204:228|272:180,1,170,4|0,0:0|0:0,0:0:0:0:
156,88,34834,6,0,P|116:100|88:136,1,85,4|0,0:0|0:0,0:0:0:0:
120,284,35100,2,0,P|112:240|72:200,1,85,4|0,0:0|0:0,0:0:0:0:
24,288,35367,5,4,0:0:0:0:
80,372,35500,1,0,0:0:0:0:
184,360,35634,1,8,0:0:0:0:
212,264,35767,1,0,0:0:0:0:
148,184,35900,2,0,P|104:176|64:196,2,85,0|0|8,0:0|0:0|0:0,0:0:0:0:
212,264,36300,2,0,P|288:308|372:288,1,170
408,144,36700,2,0,P|400:188|424:224,1,85,8|0,0:0|0:0,0:0:0:0:
504,164,36967,1,0,0:0:0:0:
504,164,37100,1,0,0:0:0:0:
472,68,37234,6,0,P|436:48|388:48,1,85,8|0,0:0|0:0,0:0:0:0:
312,108,37500,1,0,0:0:0:0:
224,60,37634,1,0,0:0:0:0:
132,180,37767,1,8,0:0:0:0:
232,204,37900,1,0,0:0:0:0:
132,88,38034,2,0,P|88:96|56:128,1,85
100,268,38300,2,0,P|140:276|184:256,1,85,8|0,0:0|0:0,0:0:0:0:
179,259,38700,5,0,0:0:0:0:
40,196,38834,2,0,P|12:232|4:276,1,85,8|8,0:0|0:0,0:0:0:0:
124,364,39100,1,0,0:0:0:0:
256,288,39233,1,0,0:0:0:0:
216,140,39367,2,0,P|172:136|128:140,1,85,8|8,0:0|0:0,0:0:0:0:
131,139,39634,1,4,0:0:0:0:
328,192,39900,5,8,0:0:0:0:
396,116,40034,2,0,P|388:72|372:32,1,85
276,8,40300,1,0,0:0:0:0:
176,124,40434,2,0,P|216:128|268:124,2,85,8|0|0,0:0|0:0|0:0,0:0:0:0:
84,80,40834,2,0,P|44:76|-8:80,1,85,0|8,0:0|0:0,0:0:0:0:
40,172,41100,5,0,0:0:0:0:
168,12,41234,1,0,0:0:0:0:
40,172,41367,5,8,0:0:0:0:
132,212,41500,1,8,0:0:0:0:
236,204,41634,1,0,0:0:0:0:
292,120,41767,6,0,P|252:56|204:112,1,170,4|0,0:0|0:0,0:0:0:0:
236,204,42167,6,0,P|300:224|380:160,1,170,4|0,0:0|0:0,0:0:0:0:
392,64,42567,6,0,P|408:144|440:232,1,170,4|0,0:0|0:0,0:0:0:0:
504,304,42967,6,0,P|452:256|432:332,1,170,4|0,0:0|0:0,0:0:0:0:
480,380,43367,1,2,0:0:0:0:
480,380,43634,1,0,0:0:0:0:
256,192,43900,12,0,44434,0:0:0:0:
256,192,44700,12,4,48167,0:0:0:0:
92,264,52167,5,0,0:0:0:0:
92,264,52234,1,0,0:0:0:0:
92,264,52300,1,0,0:0:0:0:
92,264,52367,1,0,0:0:0:0:
92,264,52434,6,0,P|132:276|176:264,1,85,4|0,0:0|0:0,0:0:0:0:
136,116,52700,2,0,P|124:156|136:200,1,85,8|0,0:0|0:0,0:0:0:0:
284,156,52967,2,0,P|244:144|204:156,2,85,0|0|8,0:0|0:0|0:0,0:0:0:0:
388,268,53367,2,0,P|340:324|288:264,1,170
420,192,53767,2,0,P|452:216|468:264,1,85,8|0,0:0|0:0,0:0:0:0:
440,356,54034,1,0,0:0:0:0:
288,220,54167,1,0,0:0:0:0:
288,220,54234,1,0,0:0:0:0:
288,220,54300,1,8,0:0:0:0:
220,300,54434,1,0,0:0:0:0:
132,176,54567,6,0,P|176:172|216:176,1,85
340,84,54834,2,0,P|296:88|256:84,1,85,8|0,0:0|0:0,0:0:0:0:
176,20,55100,1,0,0:0:0:0:
24,156,55234,1,0,0:0:0:0:
40,56,55367,1,8,0:0:0:0:
132,176,55500,6,0,P|228:180|252:76,1,212.5
216,52,55900,2,0,P|252:48|300:32,1,85,8|0,0:0|0:0,0:0:0:0:
424,120,56167,2,0,P|388:116|341:100,1,85
404,20,56434,1,8,0:0:0:0:
404,20,56567,1,8,0:0:0:0:
512,192,56700,1,4,0:0:0:0:
256,216,56967,5,8,0:0:0:0:
108,256,57100,2,0,P|104:296|108:340,1,85
200,296,57367,1,0,0:0:0:0:
200,296,57500,1,8,0:0:0:0:
128,160,57634,6,0,P|84:160|48:180,1,85
200,296,57900,1,0,0:0:0:0:
200,296,58034,1,8,0:0:0:0:
228,196,58167,6,0,P|232:152|220:112,1,85
148,44,58434,1,8,0:0:0:0:
300,56,58567,2,0,P|335:79|355:115,1,85,8|0,0:0|0:0,0:0:0:0:
328,268,58834,6,0,P|264:328|196:292,1,170,4|0,0:0|0:0,0:0:0:0:
296,176,59234,6,0,P|368:176|424:256,1,170,4|0,0:0|0:0,0:0:0:0:
428,352,59634,6,0,P|420:264|460:180,1,170,4|0,0:0|0:0,0:0:0:0:
508,104,60034,6,0,P|452:156|376:108,1,170,4|0,0:0|0:0,0:0:0:0:
372,96,60367,1,0,0:0:0:0:
376,76,60434,2,0,P|336:104|300:120,1,85,4|0,0:0|0:0,0:0:0:0:
152,88,60700,2,0,P|192:60|228:44,1,85,4|0,0:0|0:0,0:0:0:0:
152,180,60967,6,0,P|108:172|80:140,1,85,4|0,0:0|0:0,0:0:0:0:
60,44,61234,1,8,0:0:0:0:
