osu file format v12

[General]
AudioFilename: houkago stride kano.mp3
AudioLeadIn: 1000
PreviewTime: 86036
Countdown: 0
SampleSet: Soft
StackLeniency: 0.7
Mode: 0
LetterboxInBreaks: 1

[Editor]
Bookmarks: 9767,12700,26834,43900,52434,69500,90834,95100,103634,108967,110034,114300,118567,127100,135634,144167,167634,184700,206034,215900
DistanceSpacing: 0.3
BeatDivisor: 4
GridSize: 32

[Metadata]
Title:Houkago Stride
TitleUnicode:放課後ストライド
Artist:kano
ArtistUnicode:鹿乃
Creator:Clementine
Version:CRN
Source:
Tags:vocaloid last note. binjip cilvery caren_sk amamiya yuko yoshilove
BeatmapID:225483
BeatmapSetID:79878

[Difficulty]
HPDrainRate:6
CircleSize:4
OverallDifficulty:7
ApproachRate:10
SliderMultiplier:1.8
SliderTickRate:1

[Events]
//Background and Video events
0,0,"bg.jpg",1,1
//Break Periods
2,48367,51717
//Storyboard Layer 0 (Background)
//Storyboard Layer 1 (Fail)
//Storyboard Layer 2 (Pass)
//Storyboard Layer 3 (Foreground)
//Storyboard Sound Samples
//Background Colour Transformations
3,100,0,0,0

[TimingPoints]
1234,266.666666666667,4,2,0,70,1,0
8100,-100,4,2,0,5,0,0
8167,-100,4,2,0,70,0,0
8634,-100,4,2,0,5,0,0
8700,-100,4,2,0,70,0,0
9167,-100,4,2,0,5,0,0
9234,-100,4,2,0,50,0,0
69500,-200,4,2,0,50,0,0
75900,-133.333333333333,4,2,0,50,0,0
77367,-100,4,2,0,50,0,0
84167,-80,4,2,0,50,0,0
86034,-100,4,2,0,40,0,0
86167,-100,4,2,0,50,0,0
86300,-100,4,2,0,60,0,0
86434,-100,4,2,0,70,0,0
86567,-80,4,2,0,80,0,1
103634,-80,4,2,0,60,0,1
104167,-80,4,2,0,65,0,1
104700,-80,4,2,0,70,0,1
105234,-80,4,2,0,75,0,1
105767,-80,4,2,0,80,0,1
106300,-80,4,2,0,85,0,1
106834,-80,4,2,0,87,0,1
107367,-80,4,2,0,90,0,1
107900,-80,4,2,0,85,0,1
108967,-100,4,2,0,80,0,0

[Colours]
Combo1 : 18,56,99
Combo2 : 23,113,68
Combo3 : 91,21,108
Combo4 : 108,130,21

[HitObjects]
256,64,1234,1,4,0:0:0:0:
32,352,1634,5,2,0:0:0:0:
96,288,1767,2,0,L|192:288,2,90
272,384,2167,1,0,0:0:0:0:
272,384,2300,2,0,P|313:342|330:284,1,90,2|0,0:0|0:0,0:0:0:0:
337,194,2567,1,0,0:0:0:0:
437,269,2700,2,0,L|528:329,2,90,0|2|0,0:0|0:0|0:0,0:0:0:0:
337,194,3100,1,4,0:0:0:0:
512,40,3367,1,4,0:0:0:0:
23,102,3900,6,0,P|153:74|279:134,1,270
437,270,4434,2,0,L|465:161,1,90,2|0,0:0|0:0,0:0:0:0:
322,270,4700,1,0,0:0:0:0:
393,357,4834,2,0,P|288:390|152:335,1,225,2|0,0:0|0:0,0:0:0:0:
88,194,5234,1,4,0:0:0:0:
45,361,5500,1,4,0:0:0:0:
508,31,6034,6,0,P|437:129|282:122,1,270
191,182,6567,2,0,P|183:111|202:78,2,90,2|0|0,0:0|0:0|0:0,0:0:0:0:
293,272,6967,1,0,0:0:0:0:
220,367,7100,2,0,L|112:372,1,90,2|0,0:0|0:0,0:0:0:0:
0,243,7367,2,0,L|108:248,1,90,2|0,0:0|0:0,0:0:0:0:
363,367,7634,6,0,P|458:222|419:77,1,315,6|0,0:0|0:0,0:0:0:0:
365,120,8167,6,0,P|244:166|258:29,1,315,4|0,0:0|0:0,2:0:0:0:
320,15,8700,6,0,B|293:101|293:101|186:201|88:112,1,315,4|0,0:0|0:0,0:0:0:0:
31,108,9234,6,0,L|-36:113,1,45,2|0,0:0|0:0,0:0:0:0:
37,194,9367,2,0,L|-19:232,1,45,2|0,0:0|0:0,0:0:0:0:
91,285,9500,2,0,L|98:362,1,45,2|0,0:0|0:0,0:0:0:0:
193,325,9634,2,0,L|263:339,1,45,2|0,0:0|0:0,0:0:0:0:
320,352,9767,6,0,P|384:320|416:192,1,180,6|0,0:0|0:0,0:0:0:0:
410,30,10167,1,0,0:0:0:0:
342,125,10300,2,0,P|296:145|245:123,1,90,2|0,0:0|0:0,0:0:0:0:
15,87,10567,1,0,0:0:0:0:
119,179,10700,2,0,L|110:61,1,90,2|0,0:0|0:0,0:0:0:0:
0,311,10967,1,0,0:0:0:0:
191,221,11100,1,2,0:0:0:0:
198,359,11234,1,0,0:0:0:0:
350,234,11367,2,0,P|395:252|447:247,1,90,2|0,0:0|0:0,0:0:0:0:
512,96,11634,2,0,P|467:78|415:83,1,90,2|0,0:0|0:0,0:0:0:0:
171,11,11900,6,0,P|144:68|159:152,1,135,6|0,0:0|0:0,0:0:0:0:
168,182,12167,2,0,L|270:177,1,90
511,329,12434,2,0,L|409:324,1,90,2|0,0:0|0:0,0:0:0:0:
1,329,12700,2,0,L|103:324,1,90,0|2,0:0|0:0,0:0:0:0:
347,253,12967,1,0,0:0:0:0:
223,356,13100,2,0,P|208:306|213:256,1,90,2|0,0:0|0:0,0:0:0:0:
227,31,13367,1,0,0:0:0:0:
248,171,13500,2,0,P|296:179|349:160,1,90,2|0,0:0|0:0,0:0:0:0:
471,63,13767,1,2,0:0:0:0:
471,63,13834,1,0,0:0:0:0:
471,63,13900,1,2,0:0:0:0:
471,63,13967,1,0,0:0:0:0:
471,63,14034,6,0,P|508:117|458:252,1,180,6|0,0:0|0:0,0:0:0:0:
346,338,14434,1,0,0:0:0:0:
379,171,14567,1,2,0:0:0:0:
488,224,14700,2,0,P|457:263|397:283,1,90,0|2,0:0|0:0,0:0:0:0:
246,359,14967,1,0,0:0:0:0:
171,214,15100,2,0,P|164:275|117:344,1,135,0|0,0:0|0:0,0:0:0:0:
90,361,15367,2,0,L|-11:341,1,90,2|0,0:0|0:0,0:0:0:0:
231,83,15634,1,2,0:0:0:0:
313,163,15767,1,0,0:0:0:0:
171,213,15900,1,2,0:0:0:0:
279,297,16034,1,0,0:0:0:0:
313,163,16167,6,0,P|367:150|410:162,1,90,2|0,0:0|0:0,0:0:0:0:
497,55,16434,1,0,0:0:0:0:
471,237,16567,2,0,P|417:250|374:238,1,90,0|2,0:0|0:0,0:0:0:0:
197,141,16834,1,0,0:0:0:0:
94,233,16967,2,0,L|83:134,1,90,2|0,0:0|0:0,0:0:0:0:
227,253,17234,1,2,0:0:0:0:
136,341,17367,2,0,P|90:365|40:349,2,90,0|2|0,0:0|0:0|0:0,0:0:0:0:
0,270,17767,1,0,0:0:0:0:
113,167,17900,1,0,0:0:0:0:
41,54,18034,1,2,0:0:0:0:
41,54,18100,1,0,0:0:0:0:
41,54,18167,1,2,0:0:0:0:
41,54,18234,1,0,0:0:0:0:
41,54,18300,6,0,P|127:37|235:55,1,180,6|0,0:0|0:0,0:0:0:0:
424,6,18700,2,0,P|442:39|437:94,1,90
342,209,18967,1,2,0:0:0:0:
394,302,19100,2,0,P|450:281|474:251,1,90,0|2,0:0|0:0,0:0:0:0:
287,114,19367,2,0,P|251:191|276:300,1,180,2|0,0:0|0:0,0:0:0:0:
306,380,19767,1,0,0:0:0:0:
161,316,19900,2,0,P|132:347|78:353,1,90,2|0,0:0|0:0,0:0:0:0:
0,228,20167,2,0,P|29:259|83:265,1,90,2|0,0:0|0:0,0:0:0:0:
71,125,20434,6,0,L|56:19,2,90,6|0|2,0:0|0:0|0:0,0:0:0:0:
192,64,20834,1,0,0:0:0:0:
256,160,20967,1,2,0:0:0:0:
320,64,21100,2,0,L|431:56,1,90,0|0,0:0|0:0,0:0:0:0:
168,140,21367,1,2,0:0:0:0:
61,23,21500,2,0,P|24:81|18:150,1,135
23,204,21767,2,0,P|66:209|127:194,1,90,2|0,0:0|0:0,0:0:0:0:
420,130,22034,2,0,P|377:125|316:140,1,90,2|0,0:0|0:0,0:0:0:0:
199,337,22300,1,2,0:0:0:0:
199,337,22367,1,0,0:0:0:0:
199,337,22434,1,2,0:0:0:0:
199,337,22500,1,0,0:0:0:0:
199,337,22567,6,0,P|194:265|212:144,1,180,6|0,0:0|0:0,0:0:0:0:
267,29,22967,2,0,P|315:46|386:26,1,90,2|0,0:0|0:0,0:0:0:0:
512,189,23234,2,0,L|414:218,1,90,2|0,0:0|0:0,0:0:0:0:
208,157,23500,2,0,P|176:209|81:223,1,135
54,243,23767,2,0,L|60:344,1,90,2|0,0:0|0:0,0:0:0:0:
335,359,24034,2,0,L|329:258,2,90,2|0|2,0:0|0:0|0:0,0:0:0:0:
208,157,24434,1,2,0:0:0:0:
414,196,24567,1,0,0:0:0:0:
368,57,24700,6,0,P|340:105|337:161,1,90,2|0,0:0|0:0,0:0:0:0:
231,280,24967,2,0,L|139:245,1,90
40,299,25234,2,0,P|68:347|71:403,1,90,2|0,0:0|0:0,0:0:0:0:
0,185,25501,2,0,L|92:150,1,90
84,152,25700,1,0,0:0:0:0:
84,152,25767,1,2,0:0:0:0:
71,30,25900,1,0,0:0:0:0:
217,214,26034,1,2,0:0:0:0:
339,131,26167,1,0,0:0:0:0:
474,298,26300,1,2,0:0:0:0:
474,298,26367,1,0,0:0:0:0:
474,298,26434,1,0,0:0:0:0:
378,228,26567,1,2,0:0:0:0:
353,239,26634,1,0,0:0:0:0:
334,258,26700,1,2,0:0:0:0:
321,282,26767,1,0,0:0:0:0:
320,309,26834,6,0,P|306:360|176:349,1,180,6|0,0:0|0:0,0:0:0:0:
2,264,27234,1,0,0:0:0:0:
65,347,27367,2,0,P|112:320|130:283,1,90,2|0,0:0|0:0,0:0:0:0:
202,81,27634,1,2,0:0:0:0:
105,166,27767,2,0,P|183:196|290:158,1,180,2|0,0:0|0:0,0:0:0:0:
488,51,28167,1,0,0:0:0:0:
367,143,28300,2,0,P|360:89|369:38,1,90,2|0,0:0|0:0,0:0:0:0:
503,173,28567,2,0,P|510:227|501:278,1,90,2|0,0:0|0:0,0:0:0:0:
361,284,28834,1,0,0:0:0:0:
395,371,28967,6,0,L|287:357,1,90,2|0,0:0|0:0,0:0:0:0:
179,224,29234,1,2,0:0:0:0:
155,363,29367,1,2,0:0:0:0:
12,310,29500,2,0,L|120:296,1,90,2|0,0:0|0:0,0:0:0:0:
362,284,29767,1,0,0:0:0:0:
473,120,29900,2,0,P|488:195|463:273,1,135
451,295,30167,2,0,L|343:281,1,90,2|0,0:0|0:0,0:0:0:0:
233,129,30434,1,2,0:0:0:0:
269,272,30567,1,0,0:0:0:0:
269,272,30634,1,0,0:0:0:0:
269,272,30700,1,2,0:0:0:0:
157,374,30834,1,0,0:0:0:0:
95,256,30967,1,2,0:0:0:0:
269,272,31100,6,0,P|170:279|83:250,1,180,6|0,0:0|0:0,0:0:0:0:
5,102,31500,2,0,P|16:151|38:195,1,90,2|0,0:0|0:0,0:0:0:0:
91,12,31767,1,0,0:0:0:0:
146,90,31900,2,0,L|254:84,1,90,0|2,0:0|0:0,0:0:0:0:
492,11,32167,2,0,L|384:17,1,90,0|2,0:0|0:0,0:0:0:0:
175,172,32434,1,2,0:0:0:0:
92,12,32567,1,0,0:0:0:0:
5,169,32700,2,0,P|-2:115|7:64,1,90,2|0,0:0|0:0,0:0:0:0:
265,64,32967,2,0,P|272:118|263:169,1,90,2|0,0:0|0:0,0:0:0:0:
184,295,33234,5,2,0:0:0:0:
184,295,33300,1,0,0:0:0:0:
184,295,33367,2,0,P|220:329|265:336,1,90,2|0,0:0|0:0,0:0:0:0:
466,355,33634,1,2,0:0:0:0:
466,355,33700,1,0,0:0:0:0:
466,355,33767,2,0,P|477:306|461:264,1,90,2|0,0:0|0:0,0:0:0:0:
472,90,34034,1,2,0:0:0:0:
472,90,34100,1,0,0:0:0:0:
472,90,34167,2,0,P|424:104|395:139,1,90,2|0,0:0|0:0,0:0:0:0:
262,253,34434,1,2,0:0:0:0:
228,282,34500,1,0,0:0:0:0:
184,295,34567,2,0,P|124:299|67:241,1,135,2|0,0:0|0:0,0:0:0:0:
59,211,34834,5,2,0:0:0:0:
62,198,34900,1,0,0:0:0:0:
66,185,34967,1,2,0:0:0:0:
76,176,35034,1,0,0:0:0:0:
88,171,35100,1,2,0:0:0:0:
101,169,35167,1,0,0:0:0:0:
114,170,35234,1,2,0:0:0:0:
126,173,35300,1,0,0:0:0:0:
135,182,35367,6,0,P|138:246|41:344,1,180,6|0,0:0|0:0,0:0:0:0:
205,379,35767,1,0,0:0:0:0:
288,310,35900,2,0,L|404:302,1,90,2|0,0:0|0:0,0:0:0:0:
512,175,36167,1,0,0:0:0:0:
430,75,36300,2,0,P|415:111|418:168,1,90,2|0,0:0|0:0,0:0:0:0:
305,172,36567,2,0,L|215:128,1,90,2|0,0:0|0:0,0:0:0:0:
21,35,36834,2,0,P|0:95|20:166,1,135,0|0,0:0|0:0,0:0:0:0:
38,208,37100,2,0,L|144:203,1,90,2|0,0:0|0:0,0:0:0:0:
416,163,37367,1,0,0:0:0:0:
317,240,37500,5,2,0:0:0:0:
453,333,37634,1,0,0:0:0:0:
278,384,37767,1,2,0:0:0:0:
317,240,37900,1,0,0:0:0:0:
317,240,37967,1,0,0:0:0:0:
317,240,38034,2,0,P|239:249|125:305,1,180,2|0,0:0|0:0,0:0:0:0:
29,367,38434,2,0,P|8:255|17:213,1,135,2|0,0:0|0:0,0:0:0:0:
37,185,38700,1,0,0:0:0:0:
0,70,38834,6,0,P|48:62|112:66,1,90,2|0,0:0|0:0,0:0:0:0:
140,108,39034,1,0,0:0:0:0:
140,108,39100,2,0,P|188:100|252:104,1,90,2|0,0:0|0:0,0:0:0:0:
286,139,39300,1,0,0:0:0:0:
286,139,39366,2,0,P|334:131|398:135,1,90,2|0,0:0|0:0,0:0:0:0:
429,173,39567,1,0,0:0:0:0:
429,173,39634,6,0,P|447:249|411:352,1,180,6|0,0:0|0:0,0:0:0:0:
323,243,40034,1,0,0:0:0:0:
335,366,40167,2,0,L|220:362,1,90,2|0,0:0|0:0,0:0:0:0:
82,357,40434,1,0,0:0:0:0:
34,200,40567,1,0,0:0:0:0:
34,200,40700,2,0,L|9:298,1,90,2|0,0:0|0:0,0:0:0:0:
180,131,40967,1,0,0:0:0:0:
236,237,41100,2,0,P|280:247|341:234,1,90,2|0,0:0|0:0,0:0:0:0:
87,124,41367,2,0,P|43:114|-18:127,2,90,2|0|2,0:0|0:0|0:0,0:0:0:0:
256,32,41767,5,2,0:0:0:0:
256,32,41900,1,0,0:0:0:0:
256,32,42034,1,0,0:0:0:0:
480,192,42167,5,2,0:0:0:0:
480,192,42300,1,0,0:0:0:0:
480,192,42434,1,0,0:0:0:0:
256,352,42567,5,2,0:0:0:0:
256,352,42700,1,0,0:0:0:0:
256,352,42834,1,0,0:0:0:0:
32,192,42967,5,2,0:0:0:0:
32,192,43100,1,0,0:0:0:0:
32,192,43234,1,2,0:0:0:0:
128,128,43367,5,2,0:0:0:0:
192,224,43500,1,0,0:0:0:0:
320,128,43634,1,2,0:0:0:0:
416,224,43767,1,0,0:0:0:0:
256,192,43900,12,4,48167,0:0:0:0:
96,64,52167,5,0,0:0:0:0:
96,64,52234,1,0,0:0:0:0:
96,64,52300,1,0,0:0:0:0:
96,64,52367,1,0,0:0:0:0:
96,64,52434,2,0,P|195:58|288:96,1,180,6|0,0:0|0:0,0:0:0:0:
451,18,52834,2,0,P|459:63|443:118,1,90
512,250,53101,2,0,P|469:234|429:193,1,90,2|0,0:0|0:0,0:0:0:0:
270,84,53367,2,0,P|212:137|87:145,1,180,2|0,0:0|0:0,0:0:0:0:
11,249,53767,2,0,L|108:243,1,90
205,351,54034,2,0,L|108:357,1,90,2|0,0:0|0:0,0:0:0:0:
288,236,54300,1,2,0:0:0:0:
335,375,54434,1,0,0:0:0:0:
423,289,54567,6,0,L|520:283,1,90,2|0,0:0|0:0,0:0:0:0:
384,135,54834,1,0,0:0:0:0:
288,237,54967,2,0,L|191:231,1,90,2|0,0:0|0:0,0:0:0:0:
5,126,55234,1,0,0:0:0:0:
33,241,55367,2,0,P|110:188|146:91,1,180,2|0,0:0|0:0,0:0:0:0:
261,31,55767,2,0,L|471:38,1,180,2|0,0:0|0:0,0:0:0:0:
492,162,56167,2,0,P|515:109|510:68,1,90,2|0,0:0|0:0,0:0:0:0:
246,227,56434,2,0,P|223:174|228:133,1,90,2|0,0:0|0:0,0:0:0:0:
407,110,56700,6,0,L|421:314,1,180,6|0,0:0|0:0,0:0:0:0:
341,374,57100,2,0,L|245:366,1,90,2|0,0:0|0:0,0:0:0:0:
124,266,57367,1,0,0:0:0:0:
43,360,57500,2,0,P|8:312|3:262,1,90,2|0,0:0|0:0,0:0:0:0:
121,176,57767,2,0,L|125:279,1,90,2|0,0:0|0:0,0:0:0:0:
29,108,58034,1,2,0:0:0:0:
29,108,58167,2,0,P|115:82|235:104,1,180,2|0,0:0|0:0,0:0:0:0:
491,125,58567,2,0,L|501:18,1,90,2|0,0:0|0:0,0:0:0:0:
434,201,58834,5,2,0:0:0:0:
331,149,58967,1,2,0:0:0:0:
252,259,59100,2,0,L|138:263,1,90,2|0,0:0|0:0,0:0:0:0:
400,301,59367,2,0,L|514:305,1,90,2|0,0:0|0:0,0:0:0:0:
263,346,59634,2,0,P|249:287|261:243,1,90,2|0,0:0|0:0,0:0:0:0:
425,113,59900,2,0,P|439:172|427:216,1,90,2|0,0:0|0:0,0:0:0:0:
334,356,60167,2,0,P|385:324|408:284,1,90,2|0,0:0|0:0,0:0:0:0:
71,241,60434,2,2,P|57:299|69:343,1,90
171,279,60700,2,0,P|184:220|173:176,1,90,0|0,0:0|0:0,0:0:0:0:
1,101,60967,6,0,P|91:84|204:95,1,180,6|0,0:0|0:0,0:0:0:0:
338,52,61367,1,0,0:0:0:0:
445,134,61500,2,0,L|456:39,1,90,2|0,0:0|0:0,0:0:0:0:
512,227,61767,2,0,L|354:221,1,135
317,220,62034,2,0,L|306:315,1,90,2|0,0:0|0:0,0:0:0:0:
188,163,62300,1,2,0:0:0:0:
31,336,62434,2,0,L|189:342,1,135
226,343,62701,2,0,L|237:248,1,90,2|0,0:0|0:0,0:0:0:0:
270,23,62967,1,0,0:0:0:0:
351,123,63100,6,0,P|393:137|448:131,1,90,2|0,0:0|0:0,0:0:0:0:
135,54,63367,2,0,P|93:40|38:46,1,90
272,154,63634,2,0,P|230:168|175:162,1,90,2|0,0:0|0:0,0:0:0:0:
411,63,63901,2,0,P|453:49|508:55,2,90,2|0|2,0:0|0:0|0:0,0:0:0:0:
269,21,64300,1,0,0:0:0:0:
183,167,64434,2,0,P|147:241|42:283,1,180,2|0,0:0|0:0,0:0:0:0:
161,375,64834,2,0,L|282:368,1,90,2|0,0:0|0:0,0:0:0:0:
489,289,65100,1,0,0:0:0:0:
379,364,65234,6,0,P|332:295|349:183,1,180,6|0,0:0|0:0,0:0:0:0:
397,17,65634,1,0,0:0:0:0:
397,17,65767,2,0,P|364:65|360:106,1,90,2|0,0:0|0:0,0:0:0:0:
145,47,66034,2,0,L|44:45,1,90
0,168,66300,2,0,L|101:166,1,90,2|0,0:0|0:0,0:0:0:0:
294,121,66567,1,0,0:0:0:0:
497,331,66700,2,0,L|499:230,1,90,2|0,0:0|0:0,0:0:0:0:
376,186,66966,2,0,L|378:287,1,90,2|0,0:0|0:0,0:0:0:0:
160,357,67234,1,0,0:0:0:0:
269,279,67367,6,2,P|179:249|85:275,1,180,4|0,0:0|0:0,0:0:0:0:
309,45,67767,2,0,P|399:75|493:49,1,180,6|0,0:0|0:0,0:0:0:0:
225,11,68167,2,0,P|195:101|221:195,1,180,6|0,0:0|0:0,0:0:0:0:
303,374,68567,2,0,P|332:284|307:190,1,180,6|0,0:0|0:0,0:0:0:0:
130,162,68967,2,0,L|25:180,1,90,6|0,0:0|0:0,0:0:0:0:
0,43,69234,2,0,L|105:61,1,90,6|0,0:0|0:0,0:0:0:0:
265,109,69500,6,0,P|330:121|399:104,1,135,2|0,0:0|0:0,0:0:0:0:
494,60,70034,2,0,P|508:103|497:154,1,90,2|0,0:0|0:0,0:0:0:0:
428,228,70434,1,0,0:0:0:0:
512,327,70567,2,0,P|447:339|378:322,1,135,2|0,0:0|0:0,0:0:0:0:
306,262,71101,2,0,P|292:305|303:356,1,90,2|0,0:0|0:0,0:0:0:0:
192,370,71501,1,0,0:0:0:0:
115,312,71634,6,0,L|16:316,1,90,2|0,0:0|0:0,0:0:0:0:
122,179,72034,2,0,L|174:262,1,90,2|0,0:0|0:0,0:0:0:0:
0,250,72434,2,0,L|46:162,1,90,2|0,0:0|0:0,0:0:0:0:
86,93,72834,2,0,P|58:87|19:95,2,67.5,2|0|2,0:0|0:0|0:0,0:0:0:0:
160,32,73367,1,0,0:0:0:0:
224,96,73501,1,2,0:0:0:0:
288,32,73634,1,0,0:0:0:0:
352,96,73767,6,0,P|372:52|372:10,1,90,2|0,0:0|0:0,0:0:0:0:
493,135,74167,2,0,L|383:148,1,90,2|0,0:0|0:0,0:0:0:0:
306,250,74567,2,0,L|416:263,2,90,2|0|2,0:0|0:0|0:0,0:0:0:0:
222,141,75234,1,0,0:0:0:0:
218,250,75367,2,0,P|185:270|125:277,1,90,2|0,0:0|0:0,0:0:0:0:
16,224,75767,1,0,0:0:0:0:
134,277,75900,6,0,P|148:198|113:145,1,135.000005149842,2|0,0:0|0:0,0:0:0:0:
65,54,76300,2,0,L|220:72,1,135.000005149842,2|0,0:0|0:0,0:0:0:0:
447,54,76700,2,0,L|292:72,1,135.000005149842,2|0,0:0|0:0,0:0:0:0:
139,190,77100,1,0,0:0:0:0:
260,324,77234,1,2,0:0:0:0:
344,164,77367,6,0,P|271:192|263:326,1,225
275,341,77767,1,2,0:0:0:0:
286,347,77834,1,0,0:0:0:0:
297,353,77900,1,2,0:0:0:0:
309,358,77967,1,0,0:0:0:0:
322,361,78034,6,2,L|420:341,1,90,4|0,0:0|0:0,0:0:0:0:
237,229,78300,1,2,0:0:0:0:
186,374,78434,1,0,0:0:0:0:
113,273,78567,2,0,L|15:253,2,90,2|0|2,0:0|0:0|0:0,0:0:0:0:
42,131,78967,1,0,0:0:0:0:
173,191,79100,2,0,L|196:90,1,90,2|0,0:0|0:0,0:0:0:0:
41,131,79367,2,0,L|18:30,1,90,2|0,0:0|0:0,0:0:0:0:
220,23,79634,2,0,P|291:54|399:43,1,180,2|0,0:0|0:0,0:0:0:0:
508,39,80034,1,0,0:0:0:0:
508,39,80167,6,0,L|483:149,1,90,6|0,0:0|0:0,0:0:0:0:
344,305,80434,2,0,P|432:269|465:191,1,180,2|0,0:0|0:0,0:0:0:0:
392,50,80834,2,0,P|378:95|387:143,1,90,2|0,0:0|0:0,0:0:0:0:
197,126,81100,2,0,L|99:116,1,90
3,195,81367,2,0,P|17:240|8:288,1,90,2|0,0:0|0:0,0:0:0:0:
239,232,81634,2,0,L|337:222,1,90
392,51,81900,1,0,0:0:0:0:
512,246,82034,1,2,0:0:0:0:
512,246,82167,1,0,0:0:0:0:
424,354,82300,6,0,L|233:348,1,180,6|0,0:0|0:0,0:0:0:0:
0,87,82700,2,0,L|191:93,1,180,2|0,0:0|0:0,0:0:0:0:
497,76,83100,1,2,0:0:0:0:
413,181,83234,1,0,0:0:0:0:
318,58,83367,2,0,P|305:103|315:150,1,90,2|0,0:0|0:0,0:0:0:0:
390,286,83634,2,0,P|345:299|298:289,1,90
171,357,83900,2,0,P|182:311|214:275,1,90,6|0,0:0|0:0,0:0:0:0:
318,59,84167,2,0,L|203:65,1,112.5,4|0,0:0|0:0,0:0:0:0:
27,72,84434,5,6,0:0:0:0:
181,178,84567,1,0,0:0:0:0:
123,57,84700,2,0,P|102:111|102:171,1,112.5,2|0,0:0|0:0,0:0:0:0:
148,358,84967,1,6,0:0:0:0:
0,241,85100,1,0,0:0:0:0:
31,360,85234,2,0,P|76:323|106:271,1,112.5,2|0,0:0|0:0,0:0:0:0:
221,330,85500,2,0,P|311:321|214:196,1,337.5,6|0,0:0|0:0,0:0:0:0:
214,195,86034,5,2,0:0:0:0:
214,195,86167,1,2,0:0:0:0:
214,195,86300,1,2,0:0:0:0:
214,195,86434,1,2,0:0:0:0:
461,49,86567,6,0,P|463:124|415:235,1,168.75,6|0,0:0|0:0,0:0:0:0:
407,243,86834,2,0,L|259:212,1,112.5
180,53,87100,1,0,0:0:0:0:
25,161,87234,1,2,0:0:0:0:
25,161,87300,1,0,0:0:0:0:
25,161,87367,1,0,0:0:0:0:
120,239,87500,5,0,0:0:0:0:
33,342,87634,2,0,P|85:354|159:337,1,112.5,2|0,0:0|0:0,0:0:0:0:
384,203,87900,1,0,0:0:0:0:
457,316,88034,2,0,L|328:315,1,112.5,2|0,0:0|0:0,0:0:0:0:
190,157,88300,2,0,L|319:158,1,112.5,2|0,0:0|0:0,0:0:0:0:
449,22,88567,1,0,0:0:0:0:
449,22,88634,1,0,0:0:0:0:
449,22,88700,6,0,P|466:85|434:134,1,112.5,6|0,0:0|0:0,0:0:0:0:
312,270,88967,2,0,L|301:142,1,112.5
173,23,89234,1,2,0:0:0:0:
116,137,89367,2,0,P|57:146|-6:136,1,112.5,0|2,0:0|0:0,0:0:0:0:
173,23,89634,5,0,0:0:0:0:
308,50,89767,2,0,P|320:114|297:165,1,112.5,2|0,0:0|0:0,0:0:0:0:
303,156,89967,1,0,0:0:0:0:
303,156,90034,1,0,0:0:0:0:
445,123,90167,1,0,0:0:0:0:
390,239,90300,1,2,0:0:0:0:
434,355,90434,1,0,0:0:0:0:
417,358,90500,1,0,0:0:0:0:
400,360,90567,1,0,0:0:0:0:
383,361,90634,1,0,0:0:0:0:
366,361,90700,1,0,0:0:0:0:
349,361,90767,1,0,0:0:0:0:
332,362,90834,6,0,P|270:353|201:268,1,168.75,2|0,0:0|0:0,0:0:0:0:
159,235,91100,2,0,P|117:309|123:353,1,112.5
15,104,91367,1,2,0:0:0:0:
50,216,91500,1,0,0:0:0:0:
194,151,91634,2,0,P|392:170|518:70,1,337.5,2|0,0:0|0:0,0:0:0:0:
329,5,92167,6,0,P|313:65|328:132,1,112.5,2|0,0:0|0:0,0:0:0:0:
191,308,92434,2,0,P|250:291|301:245,1,112.5,2|0,0:0|0:0,0:0:0:0:
484,299,92700,2,0,P|440:255|374:234,1,112.5,2|0,0:0|0:0,0:0:0:0:
293,100,92967,6,0,P|198:149|71:124,1,225,2|0,0:0|0:0,0:0:0:0:
352,19,93367,1,0,0:0:0:0:
352,19,93500,2,0,L|369:145,1,112.5,2|0,0:0|0:0,0:0:0:0:
421,363,93767,1,2,0:0:0:0:
507,293,93900,1,0,0:0:0:0:
507,293,93967,1,0,0:0:0:0:
507,293,94034,1,2,0:0:0:0:
384,233,94167,5,0,0:0:0:0:
332,370,94300,2,0,P|248:377|197:298,1,168.75,2|0,0:0|0:0,0:0:0:0:
173,270,94567,2,0,L|53:283,1,112.5,2|0,0:0|0:0,0:0:0:0:
95,84,94834,2,0,L|215:71,1,112.5
512,13,95100,6,0,P|519:69|491:130,1,112.5,6|0,0:0|0:0,0:0:0:0:
414,216,95367,1,2,0:0:0:0:
291,176,95500,1,2,0:0:0:0:
203,260,95634,2,0,P|255:330|361:328,1,168.75,2|0,0:0|0:0,0:0:0:0:
388,328,95900,6,0,L|506:264,1,112.5,2|0,0:0|0:0,0:0:0:0:
396,115,96167,2,0,P|344:136|309:183,1,112.5,2|0,0:0|0:0,0:0:0:0:
126,328,96434,2,0,L|8:264,1,112.5,2|0,0:0|0:0,0:0:0:0:
116,115,96700,2,0,P|168:136|203:183,1,112.5,2|0,0:0|0:0,0:0:0:0:
339,374,96967,1,2,0:0:0:0:
391,191,97100,1,0,0:0:0:0:
512,271,97234,6,0,P|446:286|386:280,1,112.5,6|0,0:0|0:0,0:0:0:0:
236,85,97500,1,0,0:0:0:0:
299,217,97634,6,0,P|233:232|169:225,1,112.5,0|2,0:0|0:0,0:0:0:0:
188,229,97834,1,0,0:0:0:0:
188,229,97900,1,0,0:0:0:0:
236,85,98034,1,0,0:0:0:0:
380,183,98167,6,0,P|419:138|439:89,1,112.5,2|0,0:0|0:0,0:0:0:0:
71,160,98434,2,0,P|32:205|12:254,2,112.5,2|0|2,0:0|0:0|0:0,0:0:0:0:
151,48,98834,1,2,0:0:0:0:
254,259,98967,1,0,0:0:0:0:
381,182,99100,1,0,0:0:0:0:
470,358,99234,1,0,0:0:0:0:
505,244,99367,6,0,B|445:253|390:341|290:325,1,225,2|0,0:0|0:0,0:0:0:0:
134,371,99767,2,0,P|108:312|114:255,1,112.5
0,126,100034,2,0,P|64:132|110:166,1,112.5,0|0,0:0|0:0,0:0:0:0:
270,220,100300,2,0,P|231:272|179:295,2,112.5,2|0|0,0:0|0:0|0:0,0:0:0:0:
314,58,100700,1,2,0:0:0:0:
483,93,100834,1,0,0:0:0:0:
411,268,100967,2,0,L|405:130,2,112.5,2|0|0,0:0|0:0|0:0,0:0:0:0:
401,23,101367,1,0,0:0:0:0:
324,136,101500,5,2,0:0:0:0:
290,144,101567,1,0,0:0:0:0:
256,138,101634,1,0,0:0:0:0:
158,42,101767,1,2,0:0:0:0:
29,136,101900,1,2,0:0:0:0:
30,152,101967,1,0,0:0:0:0:
31,168,102034,1,0,0:0:0:0:
32,184,102100,1,0,0:0:0:0:
33,200,102167,2,0,P|98:252|191:267,1,168.75,0|0,0:0|0:0,0:0:0:0:
233,260,102434,6,0,L|256:378,1,112.5,0|0,0:0|0:0,0:0:0:0:
349,204,102700,1,2,0:0:0:0:
502,355,102834,2,0,L|479:237,1,112.5,2|0,0:0|0:0,0:0:0:0:
255,372,103100,2,0,P|193:388|133:363,1,112.5,2|0,0:0|0:0,0:0:0:0:
25,135,103367,2,0,P|87:119|147:144,1,112.5,2|0,0:0|0:0,0:0:0:0:
460,218,103634,6,0,L|461:96,1,112.5,2|0,0:0|0:0,0:0:0:0:
224,32,103900,2,0,L|223:154,1,112.5
460,218,104167,6,0,L|461:96,1,112.5,2|0,0:0|0:0,0:0:0:0:
192,64,104433,2,0,L|191:186,1,112.5
460,218,104700,6,0,L|461:96,1,112.5,2|0,0:0|0:0,0:0:0:0:
160,96,104967,2,0,L|159:218,1,112.5
460,218,105233,6,0,L|461:96,1,112.5,2|0,0:0|0:0,0:0:0:0:
128,128,105500,2,0,L|127:250,1,112.5
460,218,105767,6,0,L|461:96,1,112.5,2|0,0:0|0:0,0:0:0:0:
96,160,106034,2,0,L|95:282,1,112.5
460,218,106300,6,0,L|461:96,1,112.5,2|0,0:0|0:0,0:0:0:0:
64,192,106567,2,0,L|63:314,1,112.5
460,218,106834,6,0,L|461:96,1,112.5,2|0,0:0|0:0,0:0:0:0:
256,32,107100,6,0,L|255:154,1,112.5
460,218,107367,6,0,L|461:96,2,112.5
493,315,107767,2,0,P|439:337|376:337,1,112.5
256,352,108300,5,4,0:0:0:0:
32,192,108567,5,4,0:0:0:0:
160,160,108700,1,2,0:0:0:0:
128,288,108834,1,2,0:0:0:0:
32,192,108967,1,6,0:0:0:0:
256,192,109034,12,4,110034,0:0:0:0:
