osu file format v12

[General]
AudioFilename: houkago stride kano.mp3
AudioLeadIn: 1000
PreviewTime: 86036
Countdown: 0
SampleSet: Soft
StackLeniency: 0.7
Mode: 0
LetterboxInBreaks: 1

[Editor]
Bookmarks: 1234,9767,26834,52434,69500,86567,110034,127100,144167,167634,184700,222300
DistanceSpacing: 0.8
BeatDivisor: 4
GridSize: 4

[Metadata]
Title:Houkago Stride
TitleUnicode:放課後ストライド
Artist:kano
ArtistUnicode:鹿乃
Creator:Clementine
Version:BinJip
Source:
Tags:vocaloid last note. binjip cilvery caren_sk amamiya yuko yoshilove
BeatmapID:222927
BeatmapSetID:79878

[Difficulty]
HPDrainRate:6
CircleSize:4
OverallDifficulty:8
ApproachRate:9
SliderMultiplier:2.2
SliderTickRate:1

[Events]
//Background and Video events
0,0,"bg.jpg",0,0
//Break Periods
2,1500,2500
2,3567,4634
2,5700,6767
//Storyboard Layer 0 (Background)
//Storyboard Layer 1 (Fail)
//Storyboard Layer 2 (Pass)
//Storyboard Layer 3 (Foreground)
//Storyboard Sound Samples
//Background Colour Transformations
3,100,0,0,0

[TimingPoints]
1234,266.666666666667,4,2,1,80,1,0
9767,-100,4,2,1,80,0,1
26834,-100,4,2,1,80,0,0
86567,-80,4,2,1,80,0,1
103634,-100,4,2,1,80,0,1
110034,-100,4,2,1,80,0,0
144167,-80,4,2,1,80,0,1
167634,-80,4,2,1,80,0,0
184700,-80,4,2,1,80,0,1
201767,-80,4,2,1,80,0,0

[Colours]
Combo1 : 122,173,231
Combo2 : 86,220,153
Combo3 : 213,136,232
Combo4 : 197,226,80

[HitObjects]
256,72,1234,2,0,L|256:156,1,55
256,72,3100,5,0,0:0:0:0:
256,92,3367,1,0,0:0:0:0:
256,116,5234,5,0,0:0:0:0:
256,136,5500,1,0,0:0:0:0:
256,160,7367,5,0,0:0:0:0:
256,184,7634,1,0,0:0:0:0:
348,280,8167,1,0,0:0:0:0:
480,296,8700,1,0,0:0:0:0:
480,296,8967,1,0,0:0:0:0:
495,254,9234,5,0,0:0:0:0:
495,209,9300,1,0,0:0:0:0:
484,168,9367,1,0,0:0:0:0:
462,131,9434,1,0,0:0:0:0:
419,137,9500,1,0,0:0:0:0:
380,153,9567,1,0,0:0:0:0:
344,181,9634,1,0,0:0:0:0:
321,218,9700,1,0,0:0:0:0:
288,248,9767,6,0,P|176:268|52:248,1,220
44,80,10300,1,0,0:0:0:0:
128,108,10434,1,0,0:0:0:0:
216,108,10567,1,0,0:0:0:0:
300,80,10700,2,0,P|388:144|424:248,1,220
168,248,11100,2,0,P|80:184|44:80,2,220
104,308,11767,5,0,0:0:0:0:
188,336,11900,2,0,P|236:308|256:244,1,110
328,208,12167,2,0,P|428:228|504:324,1,220
412,316,12567,1,0,0:0:0:0:
432,232,12700,1,0,0:0:0:0:
512,192,12834,2,0,B|420:108|296:132|296:132,1,220
328,44,13234,2,0,B|248:24|208:72|208:164|124:140|124:140,1,220
256,260,13767,1,0,0:0:0:0:
88,308,14034,6,0,P|20:232|-8:104,1,220
160,64,14567,1,0,0:0:0:0:
232,116,14700,1,0,0:0:0:0:
152,148,14834,1,0,0:0:0:0:
244,32,14967,2,0,B|368:56|420:160|420:160,1,220
328,164,15367,2,0,B|408:256|388:372|388:372,1,220
464,320,15767,1,0,0:0:0:0:
416,156,15900,1,0,0:0:0:0:
456,232,16034,1,0,0:0:0:0:
328,164,16167,5,0,0:0:0:0:
328,164,16300,1,0,0:0:0:0:
328,164,16434,2,0,B|204:184|120:112|120:112,1,220
56,172,16834,1,0,0:0:0:0:
40,84,16967,2,0,P|72:44|152:36,1,110
292,88,17367,1,0,0:0:0:0:
228,244,17500,1,0,0:0:0:0:
396,304,17767,5,0,0:0:0:0:
460,140,18034,1,0,0:0:0:0:
444,100,18100,1,0,0:0:0:0:
412,68,18167,1,0,0:0:0:0:
368,56,18234,1,0,0:0:0:0:
324,60,18300,6,0,B|256:144|104:136|104:136,1,220
60,28,18834,1,0,0:0:0:0:
40,228,18967,1,0,0:0:0:0:
160,24,19100,1,0,0:0:0:0:
4,128,19234,2,0,B|148:152|228:120|228:120,1,220
256,40,19634,2,0,B|352:56|352:56|336:132|396:192,1,220
256,300,20167,1,0,0:0:0:0:
84,336,20434,6,0,P|37:241|85:145,1,220
256,104,20967,2,0,L|352:168,1,110
508,144,21234,2,0,L|412:80,1,110
396,260,21634,1,0,0:0:0:0:
256,300,21767,1,0,0:0:0:0:
84,352,22034,2,0,B|0:240|84:104|84:104,1,220
44,104,22367,2,0,L|-4:68,2,55
88,104,22567,2,0,B|192:148|320:104|320:104,1,220
