osu file format v9

[General]
AudioFilename: 06 .mp3
AudioLeadIn: 1985
PreviewTime: -1
Countdown: 1
SampleSet: Normal
StackLeniency: 0.7
Mode: 0
LetterboxInBreaks: 1

[Editor]
DistanceSpacing: 1
BeatDivisor: 4
GridSize: 4

[Metadata]
Title:ikenai futari wa kyo mo borukeino
Artist:kana&nanahira
Creator:taq
Version:Snow
Source:
Tags:snowweak

[Difficulty]
HPDrainRate:7
CircleSize:5
OverallDifficulty:7
ApproachRate:9
SliderMultiplier:1.8
SliderTickRate:1

[Events]
//Background and Video events
0,0,"previewdfe6202c3b1e182bf5e3e307dbe0eb68.jpg"
//Break Periods
//Storyboard Layer 0 (Background)
//Storyboard Layer 1 (Fail)
//Storyboard Layer 2 (Pass)
//Storyboard Layer 3 (Foreground)
//Storyboard Sound Samples
//Background Colour Transformations
3,100,163,162,255

[TimingPoints]
1489.49751031812,348.837209302326,4,1,0,100,1,0
34977,-100,4,1,0,100,0,1
46140,-100,4,1,0,100,0,0
58655,-133.333333333333,4,1,0,100,0,0
78146,-100,4,1,0,100,0,0
82419,-100,4,1,0,100,0,1
104047,-100,4,1,0,100,0,0
104745,-100,4,1,0,100,0,1
115820,-133.333333333333,4,1,0,100,0,0
126983,-100,4,1,0,100,0,0
128379,-133.333333333333,4,1,0,100,0,0
147913,-100,4,1,0,100,0,0
152187,-100,4,1,0,100,0,1
207913,-100,4,1,0,5,0,0

[HitObjects]
184,64,94,1,0
316,116,442,2,0,B|340:116,4,22.5
300,124,661,2,0,B|264:124,2,22.5
300,140,791,1,0
360,208,966,1,0
360,208,1053,1,0
360,208,1140,1,0
360,208,1227,1,0
360,208,1315,1,0
292,268,1489,6,0,B|252:296|184:300,1,90
132,344,1838,2,0,B|108:292|128:232,1,90
172,180,2187,1,0
136,96,2361,1,0
176,76,2448,1,0
220,76,2536,1,0
304,112,2710,1,0
388,84,2884,6,0,B|400:144|388:212,1,90
368,244,3146,1,0
304,272,3233,2,0,B|292:212|304:144,1,90
284,112,3495,1,0
220,80,3582,2,0,B|192:128|196:204,1,90
164,232,3844,1,0
164,232,3931,1,0
100,144,4105,1,0
188,80,4280,5,0
432,196,4454,5,0
164,232,4629,5,0
352,36,4803,5,0
336,304,4977,6,0,B|384:304|428:256,1,90
452,184,5326,1,0
436,96,5501,1,0
436,96,5588,1,0
436,96,5675,1,0
352,64,5849,5,0
308,144,6024,1,0
224,112,6198,1,0
152,168,6373,2,0,B|44:156|56:92|56:92|108:68,2,180
100,240,7245,6,0,B|112:280|148:312,1,45
168,320,7419,1,0
344,112,7594,6,0,B|332:152|296:184,1,45
276,192,7768,2,0,B|304:232|296:288,2,90
216,124,8291,5,0
216,124,8379,1,0
216,124,8466,2,0,B|128:156|124:260|124:260|208:332,2,270
288,72,9687,6,0,B|400:112,1,90
432,168,10036,1,0
356,220,10210,1,0
312,296,10384,1,0
240,244,10559,6,0,B|184:244|136:296|212:312|64:248,1,180
48,172,11082,1,0
120,120,11256,5,0
120,120,11344,1,0
120,120,11431,1,0
320,300,11605,6,0,B|352:332,2,45
264,36,11954,5,0
240,88,12041,1,0
264,140,12129,1,0
288,192,12216,1,0
264,244,12303,1,0
240,296,12390,1,0
264,348,12477,2,0,B|316:336|360:300,2,90
212,300,13001,5,0
136,248,13175,1,0
136,248,13262,1,0
136,248,13349,1,0
48,256,13524,1,0
20,172,13698,2,0,B|32:120,2,45
96,128,14047,6,0,B|248:60|396:100|472:276,1,450
468,267,15094,1,0
468,267,15268,1,0
380,280,15442,6,0,B|404:348,2,45
308,16,15792,1,0
308,16,15879,1,0
308,16,15966,1,0
96,180,16140,5,0
152,164,16227,1,0
208,148,16315,1,0
256,180,16402,1,0
264,236,16489,1,0
316,208,16576,1,0
364,176,16663,1,0
416,200,16751,1,0
436,256,16838,6,0,B|424:312|380:352,2,90
456,168,17361,1,0
456,168,17448,1,0
456,168,17536,1,0
396,100,17710,1,0
308,76,17884,1,0
240,136,18059,1,0
184,64,18233,5,0
52,300,18408,1,0
300,192,18582,1,0
36,140,18756,1,0
232,328,18931,2,0,B|268:284|272:244,1,90
140,124,19280,2,0,B|104:168|100:208,1,90
348,308,19629,6,0,B|384:284|344:268|344:268|392:248|344:232|344:232|388:204|344:192|344:192|388:160|336:148|336:148|384:112|360:128,1,270
420,76,20326,6,0,B|432:176,2,90
244,40,21024,5,0
180,104,21198,1,0
96,68,21373,1,0
112,156,21547,1,0
36,208,21722,1,0
88,280,21896,1,0
88,280,21983,1,0
88,280,22070,1,0
140,356,22245,1,0
224,320,22419,2,0,B|312:308,2,90
224,320,22942,1,0
224,320,23117,1,0
488,76,23815,5,0
400,60,23989,1,0
400,60,24076,1,0
400,60,24163,1,0
320,104,24338,2,0,B|272:112|224:108,1,90
52,76,24687,2,0,B|100:68|148:72,1,90
320,104,25036,1,0
64,24,25210,5,0
232,236,25384,1,0
404,24,25559,5,0
172,160,25733,1,0
436,220,25908,5,0
228,48,26082,1,0
64,264,26256,1,0
148,292,26431,1,0
148,292,26518,1,0
148,292,26605,2,0,B|204:284|236:256,1,90
268,176,26954,2,0,B|328:140|408:136,1,135
424,172,27303,2,0,B|460:124|468:56,2,90
360,108,27826,5,0
348,160,27913,1,0
336,212,28001,1,0
260,136,28175,5,0
248,188,28262,1,0
240,240,28349,1,0
148,296,28524,2,0,B|120:188,1,90
48,160,28873,2,0,B|104:132,1,45
204,68,29222,5,0
240,96,29309,1,0
260,136,29396,1,0
240,176,29483,1,0
220,216,29570,1,0
220,260,29658,1,0
244,300,29745,6,0,B|288:312|368:292,1,90
296,124,30094,2,0,B|280:160|304:248,1,90
380,240,30442,1,0
452,184,30617,1,0
452,184,30704,1,0
452,184,30791,1,0
436,96,30966,1,0
356,56,31140,6,0,B|284:68|224:112,1,135
216,148,31489,1,0
224,236,31663,1,0
176,312,31838,1,0
132,320,31925,1,0
92,336,32012,1,0
64,300,32099,1,0
24,276,32187,6,0,B|36:228|36:144,1,90
256,32,32536,2,0,B|268:80|268:164,1,90,0|0
488,276,32884,2,0,B|476:228|476:144,1,90
256,32,33233,1,0
40,196,33408,1,0
256,360,33582,2,0,B|304:336|316:288,1,90
308,204,33931,1,0
116,84,34367,2,0,B|104:128,1,45
68,212,34629,1,0
68,212,34803,1,0
404,344,34977,5,0
428,308,35065,1,0
400,272,35152,1,0
256,44,35326,2,0,B|256:144,1,90
84,344,35675,5,0
56,308,35762,1,0
88,276,35849,1,0
56,244,35937,1,0
68,212,36024,6,0,B|168:212,1,90
468,28,36373,5,0
468,352,36547,1,0
452,352,36634,1,0
468,352,36721,1,0
436,268,36896,1,0
52,32,37070,5,0
52,32,37245,1,0
84,64,37332,1,0
52,96,37419,1,0
84,128,37506,1,0
56,164,37594,2,0,B|48:208|60:260,1,90
88,288,37855,5,0
120,316,37942,1,0
164,328,38030,1,0
204,304,38117,1,0
212,260,38204,1,0
236,224,38291,1,0
280,212,38379,1,0
316,236,38466,6,0,B|372:240|420:216,1,90
468,156,38815,1,0
468,156,38989,1,0
404,96,39163,1,0
320,64,39338,1,0
320,64,39425,1,0
248,116,39599,1,0
248,116,39687,2,0,B|168:168,2,90
404,68,40210,5,0
416,228,40384,1,0
416,228,40472,1,0
416,228,40559,2,0,B|372:248|360:300,1,90
372,332,40820,2,0,B|328:348,1,45
256,88,41082,5,0
168,344,41256,6,0,B|164:288|108:228,1,90
96,280,41518,2,0,B|84:216,1,45
52,152,41780,6,0,B|96:116|152:104,1,90
408,340,42129,1,0
440,308,42216,1,0
452,264,42303,1,0
328,136,42477,5,0
304,316,42652,1,0
432,192,42826,1,0
252,216,43001,1,0
208,212,43088,1,0
168,192,43175,1,0
56,52,43349,5,0
96,112,43437,1,0
96,184,43524,1,0
64,248,43611,1,0
104,308,43698,2,0,B|144:328|200:324,1,90
216,200,44047,6,0,B|252:172|252:172|304:208,1,90
216,200,44396,6,0,B|252:172|252:172|304:208,1,90
376,288,44745,1,0
376,288,44919,2,0,B|424:260,1,45
464,84,45268,1,0
376,64,45442,5,0
332,56,45530,1,0
288,64,45617,1,0
244,76,45704,1,0
200,68,45791,2,0,B|152:68|152:68|124:72|124:72|56:68|56:68|16:72,1,180
60,152,46315,1,0
60,152,46402,1,0
60,152,46489,1,0
56,240,46663,1,0
124,300,46838,6,0,B|168:280|176:228,1,90
175,230,47187,1,0
244,176,47361,2,0,B|276:224|280:308,1,135
292,348,47710,2,0,B|352:328|388:308,1,90
444,256,48059,1,0
376,196,48233,1,0
420,116,48408,1,0
420,116,48582,1,0
248,60,48931,5,0
164,32,49105,1,0
164,32,49192,1,0
164,32,49280,1,0
108,104,49454,1,0
36,160,49629,2,0,B|56:216|56:264|52:312,1,135
24,324,49977,1,0
108,356,50152,1,0
156,280,50326,6,0,B|192:324,2,45
188,156,50675,2,0,B|152:112,2,45,0|0|0
264,108,51024,2,0,B|332:120|376:184,1,135
388,224,51373,2,0,B|468:164,1,90
488,84,51722,1,0
404,52,51896,1,0
404,52,51983,1,0
404,52,52070,6,0,B|356:64|312:80,1,90
228,68,52419,1,0
152,120,52594,2,0,B|112:148,2,45
228,68,52942,6,0,B|252:132|228:204,1,135
188,224,53291,2,0,B|224:308,1,90
300,352,53640,1,0
380,308,53815,1,0
380,308,53902,1,0
380,308,53989,1,0
352,224,54163,1,0
352,224,54338,1,0
420,164,54512,6,0,B|448:128|452:80,2,90
420,164,55036,1,0
256,232,55210,2,0,B|240:268|256:284|256:284|268:296|252:332,2,90
256,232,55733,1,0
84,172,55908,2,0,B|56:136|52:88,2,90,0|0|0
72,260,56431,1,0
72,260,56518,1,0
72,260,56605,1,0
144,316,56780,1,0
216,260,56954,1,0
284,204,57129,1,0
352,260,57303,5,0
392,284,57390,1,0
436,280,57477,1,0
468,248,57565,1,0
448,208,57652,1,0
408,184,57739,1,0
364,180,57826,1,0
320,196,57913,1,0
288,228,58001,1,0
260,264,58088,1,0
216,280,58175,1,0
172,280,58262,1,0
132,260,58349,1,0
104,224,58437,1,0
104,180,58524,1,0
128,140,58611,1,0
168,120,58698,6,0,B|244:104,1,67.4999979883433
292,72,59047,2,0,B|372:56,1,67.4999979883433
412,100,59396,1,0
400,168,59570,1,0
420,232,59745,1,0
372,280,59919,1,0
308,256,60094,6,0,B|288:328,1,67.4999979883433
236,284,60442,2,0,B|200:352,1,67.4999979883433
164,288,60791,1,0
156,220,60966,1,0
208,176,61140,1,0
176,116,61315,1,0
116,84,61489,6,0,B|72:112|56:180,1,101.249996982515
48,196,61838,2,0,B|100:244,1,67.4999979883433
152,280,62187,1,0
220,280,62361,1,0
268,232,62536,1,0
252,168,62710,1,0
292,112,62884,6,0,B|360:120|424:184,1,134.999995976687
224,280,63582,6,0,B|156:272|92:208,1,134.999995976687
76,160,64105,1,0
76,160,64280,6,0,B|136:128,1,67.4999979883433
400,176,64803,1,0
400,176,64977,6,0,B|340:208,1,67.4999979883433
112,356,65501,1,0
112,356,65675,6,0,B|140:296,1,67.4999979883433
328,100,66198,1,0
328,100,66373,6,0,B|300:184,1,67.4999979883433
316,232,66722,1,0
252,256,66896,1,0
252,256,66983,1,0
252,256,67070,2,0,B|180:244|112:192,1,134.999995976687
108,140,67594,1,0
108,140,67768,6,0,B|172:108,1,67.4999979883433
288,140,68117,2,0,B|224:172,1,67.4999979883433,0|0
164,276,68466,1,0
228,292,68640,1,0
292,308,68815,2,0,B|432:256,1,134.999995976687
456,132,69512,1,0
388,144,69687,1,0
320,156,69861,6,0,B|228:172,1,67.4999979883433
253,167,70210,1,0
140,92,70559,2,0,B|124:164,1,67.4999979883433
125,157,70908,1,0
20,244,71256,5,0
24,176,71431,1,0
20,108,71605,2,0,B|8:32,2,67.4999979883433
116,204,72303,6,0,B|176:168,2,67.4999979883433
92,336,73001,2,0,B|32:372,2,67.4999979883433,0|0|0
220,296,73698,1,0
288,288,73873,1,0
352,264,74047,2,0,B|376:224|376:180,1,67.4999979883433
352,136,74396,2,0,B|284:176,1,67.4999979883433
293,170,74745,1,0
232,52,75094,5,0
232,52,75268,1,0
232,52,75442,1,0
116,120,75791,2,0,B|44:120,2,67.4999979883433
128,188,76315,1,0
176,236,76489,1,0
284,152,76838,5,0
348,168,77012,1,0
388,224,77187,2,0,B|456:208|480:124,2,134.999995976687
284,308,78233,5,0
132,212,78582,5,0
132,212,78756,1,0
132,212,78931,1,0
252,80,79280,5,0
252,80,79454,1,0
252,80,79629,2,0,B|300:96|360:96,1,90
400,164,79977,2,0,B|296:188,1,90
356,264,80326,1,0
324,296,80413,1,0
280,312,80501,1,0
236,300,80588,1,0
200,276,80675,1,0
160,260,80762,1,0
116,248,80849,1,0
72,260,80937,1,0
36,288,81024,6,0,B|32:232|48:160,1,90
88,124,81373,2,0,B|80:88,4,22.5
176,144,81722,1,0
220,156,81809,1,0
248,192,81896,1,0
256,236,81983,1,0
240,280,82070,2,0,B|224:316|168:344,1,90
88,312,82419,5,0
20,252,82594,1,0
36,164,82768,2,0,B|44:96|104:36,1,135
128,76,83117,2,0,B|216:52,1,90
304,36,83466,1,0
364,100,83640,5,0
364,100,83727,1,0
364,100,83815,2,0,B|352:144|360:208,1,90
388,244,84076,1,0
348,292,84163,2,0,B|300:288|232:312,1,90
204,332,84425,1,0
148,304,84512,2,0,B|164:256|164:192,1,90
152,152,84774,1,0
152,152,84861,1,0
56,68,85036,1,0
180,68,85210,5,0
268,48,85384,1,0
312,56,85472,1,0
352,80,85559,2,0,B|376:116|384:180,1,90
312,292,85908,6,0,B|288:256|280:192,1,90
336,136,86256,1,0
424,116,86431,5,0
424,116,86518,1,0
424,116,86605,1,0
348,280,86780,2,0,B|320:332,2,45
304,104,87129,2,0,B|332:52,2,45
264,204,87477,1,0
204,292,87652,1,0
96,308,87826,1,0
36,216,88001,6,0,B|60:168|60:88,1,90
144,64,88349,2,0,B|184:92|248:104,1,90
332,84,88698,1,0
428,132,88873,1,0
428,132,88960,1,0
428,132,89047,2,0,B|432:184|400:244,1,90
444,324,89396,6,0,B|328:344|180:296|156:132,1,360
161,160,91140,5,0
100,228,91315,1,0
188,240,91489,2,0,B|252:272|256:352,1,135
292,376,91838,2,0,B|320:328|324:284,1,90
256,192,92099,12,0,93582
36,52,93931,5,0
116,88,94105,1,0
200,60,94280,1,0
200,60,94367,1,0
200,60,94454,1,0
280,100,94629,1,0
336,172,94803,6,0,B|328:220|316:280,1,90
152,320,95152,1,0
108,320,95239,1,0
64,320,95326,2,0,B|-28:320,2,90
388,320,95849,6,0,B|480:320,2,90
352,236,96373,2,0,B|316:204|260:208,1,90
232,232,96634,2,0,B|224:168,1,45
184,108,96896,1,0
100,140,97070,1,0
100,140,97158,1,0
100,140,97245,1,0
40,72,97419,1,0
40,72,97594,1,0
20,232,97768,6,0,B|60:256|140:268,1,90
168,264,98030,1,0
212,220,98117,2,0,B|252:196|332:184,1,90,0|0
356,216,98379,1,0
412,244,98466,2,0,B|456:216|480:168,1,90
464,116,98727,1,0
428,64,98815,1,0
368,52,98902,1,0
316,88,98989,1,0
300,148,99076,1,0
244,120,99163,6,0,B|208:88|172:68,1,90
216,224,99512,2,0,B|252:256|288:276,1,90
368,296,99861,1,0
448,252,100036,1,0
492,172,100210,1,0
484,84,100384,1,0
424,16,100559,1,0
424,16,100646,1,0
424,16,100733,1,0
368,88,100908,5,0
368,88,100995,1,0
368,88,101082,1,0
280,64,101256,2,0,B|240:80|240:80|216:80|160:128,1,135
116,128,101605,2,0,B|132:172|176:220,1,90
244,244,101954,5,0
72,32,102129,1,0
68,300,102303,1,0
232,84,102477,1,0
84,188,102652,5,0
352,156,102826,1,0
156,344,103001,1,0
232,84,103175,1,0
320,340,103349,5,0
356,316,103437,1,0
376,276,103524,1,0
364,232,103611,1,0
408,228,103698,5,0
428,188,103786,1,0
416,144,103873,1,0
380,116,103960,1,0
336,104,104047,6,0,B|260:92|192:108,1,135
160,92,104396,2,0,B|140:152,2,45
232,36,104745,5,0
236,360,104919,2,0,B|236:308,2,45
236,360,105268,1,0
60,192,105443,1,0
100,172,105530,1,0
140,192,105617,1,0
180,216,105704,1,0
216,192,105791,6,0,B|168:168|112:200,2,90
292,240,106315,1,0
292,256,106402,1,0
292,240,106489,1,0
400,100,106663,5,0
204,288,106838,2,0,B|152:284|112:244,1,90
96,220,107099,1,0
76,180,107187,1,0
80,136,107274,1,0
104,100,107361,1,0
404,300,107536,5,0
432,268,107623,1,0
420,256,107710,1,0
404,252,107797,1,0
388,260,107884,2,0,B|340:276|268:260,1,90
56,144,108233,2,0,B|96:128|96:128|144:148,1,90
56,144,108582,6,0,B|96:128|96:128|144:148,1,90
160,232,108931,1,0
196,316,109105,1,0
196,316,109192,1,0
280,280,109367,1,0
280,280,109454,2,0,B|320:248|324:200,2,90
276,188,109977,5,0
336,120,110152,1,0
336,120,110239,1,0
336,120,110326,2,0,B|384:108|448:112,1,90
452,196,110675,2,0,B|464:244,2,45
4,132,111024,6,0,B|52:120|116:124,1,90
132,144,111286,1,0
160,180,111373,1,0
116,260,111547,1,0
44,312,111722,1,0
256,144,111896,6,0,B|256:88,2,45
464,320,112245,6,0,B|420:296|404:248,1,90
364,80,112594,1,0
336,164,112768,2,0,B|320:208,2,45
96,288,113117,5,0
116,248,113204,1,0
128,204,113291,1,0
132,160,113379,1,0
108,124,113466,2,0,B|168:144|240:120,1,135
276,88,113815,6,0,B|296:128|296:128|288:176,1,90
276,88,114163,6,0,B|296:128|296:128|288:176,1,90
252,256,114512,1,0
180,308,114687,1,0
180,308,114774,1,0
180,308,114861,1,0
108,256,115036,1,0
40,196,115210,2,0,B|20:244,2,45
164,88,115559,6,0,B|128:160,1,45
132,144,115733,1,0
184,220,115908,6,0,B|244:232|320:212,1,134.999995976687
400,104,116605,6,0,B|340:92|264:112,1,134.999995976687
216,236,117303,1,0
340,292,117652,1,0
428,188,118001,1,0
336,88,118349,1,0
208,132,118698,6,0,B|188:200|196:292,1,134.999995976687
324,232,119396,6,0,B|344:164|336:72,1,134.999995976687
216,160,120094,1,0
112,76,120442,1,0
56,200,120791,1,0
168,120,121140,1,0
156,256,121489,6,0,B|192:280|260:320,1,101.249996982515
272,328,121838,1,0
336,308,122012,1,0
392,184,122361,2,0,B|464:204,2,67.4999979883433
368,120,122884,6,0,B|324:92|264:104,1,101.249996982515
240,116,123233,1,0
196,168,123408,1,0
68,124,123756,2,0,B|48:96|40:52,2,67.4999979883433
68,124,124280,6,0,B|96:192|92:288,1,134.999995976687
280,364,124977,6,0,B|252:296|256:200,1,134.999995976687
416,84,125675,1,0
440,148,125849,1,0
440,216,126024,1,0
416,280,126198,1,0
356,312,126373,2,0,B|300:320|268:320,1,67.4999979883433
224,304,126722,1,0
176,256,126896,1,0
156,192,127070,5,0
72,160,127245,2,0,B|28:160,2,45
192,80,127594,1,0
236,68,127681,1,0
280,72,127768,1,0
320,92,127855,1,0
344,132,127942,2,0,B|352:180|344:236,1,90
192,308,128466,6,0,B|128:280,1,67.4999979883433
80,172,128815,2,0,B|144:200,1,67.4999979883433
212,300,129163,6,0,B|148:272,1,67.4999979883433
68,180,129512,2,0,B|132:208,1,67.4999979883433
228,280,129861,2,0,B|256:220|260:120,1,134.999995976687
160,76,130384,1,0
160,76,130559,2,0,B|132:136|128:236,1,134.999995976687
129,206,131082,1,0
248,184,131256,6,0,B|344:156,1,101.249996982515
376,144,131605,1,0
400,80,131780,1,0
448,128,131954,6,0,B|452:232,1,101.249996982515
452,264,132303,1,0
416,320,132477,1,0
356,292,132652,6,0,B|304:344,1,67.4999979883433
268,224,133001,2,0,B|320:172,1,67.4999979883433,0|0
328,296,133349,6,0,B|216:328,1,101.249996982515
196,316,133698,1,0
136,344,133873,1,0
84,304,134047,2,0,B|48:240|48:172,1,134.999995976687
156,96,134570,1,0
156,96,134745,2,0,B|168:148|172:176,1,67.4999979883433
268,340,135094,2,0,B|248:264,1,67.4999979883433
304,232,135442,6,0,B|360:196|448:196,1,134.999995976687
432,196,135966,1,0
432,196,136140,1,0
468,64,136489,5,0
468,64,136663,1,0
468,64,136838,2,0,B|396:56|328:84,1,134.999995976687
292,132,137361,2,0,B|240:80,1,67.4999979883433
200,32,137710,2,0,B|164:96,1,67.4999979883433
136,152,138059,1,0
136,152,138146,1,0
136,152,138233,6,0,B|92:192|44:212|-4:208,1,134.999995976687
148,244,138931,6,0,B|192:284|240:304|288:300,1,134.999995976687
324,260,139454,1,0
324,260,139629,6,0,B|352:232|384:224,1,67.4999979883433
416,168,139977,2,0,B|444:196|452:228,1,67.4999979883433
476,288,140326,2,0,B|424:336|344:348,1,134.999995976687
292,324,140849,1,0
252,268,141024,5,0
192,240,141198,1,0
148,292,141373,1,0
104,344,141547,1,0
48,304,141722,2,0,B|16:260|16:200,1,101.249996982515
28,180,142070,2,0,B|52:148|52:108,1,67.4999979883433
36,52,142419,6,0,B|100:40|196:64,1,134.999995976687
248,168,143117,6,0,B|184:180|88:156,2,134.999995976687
304,128,143989,1,0
368,104,144163,1,0
420,144,144338,1,0
420,212,144512,1,0
380,268,144687,1,0
380,268,144774,1,0
380,268,144861,1,0
344,324,145036,1,0
288,288,145210,6,0,B|248:280|216:296|216:296|172:316|128:292,1,134.999995976687
155,302,145733,1,0
155,302,145908,1,0
64,208,146256,1,0
64,208,146605,6,0,B|104:200|136:216|136:216|180:236|224:212,1,134.999995976687
196,222,147129,1,0
196,222,147303,1,0
156,96,147652,1,0
216,68,147826,1,0
276,100,148001,6,0,B|320:108|368:88,1,90
292,216,148349,2,0,B|324:208|336:216|336:216|368:224|408:208,1,90
284,324,148698,2,0,B|328:316|376:336,1,90
456,296,149047,1,0
484,212,149222,1,0
424,144,149396,5,0
396,108,149483,1,0
356,88,149570,1,0
312,100,149658,1,0
288,136,149745,1,0
252,160,149832,1,0
208,164,149919,1,0
164,152,150006,1,0
128,124,150094,5,0
156,88,150181,1,0
200,76,150268,1,0
244,72,150355,1,0
284,92,150442,1,0
320,120,150530,1,0
344,156,150617,1,0
360,200,150704,1,0
360,244,150791,6,0,B|344:292|320:328,1,90
232,340,151140,2,0,B|216:364,4,22.5
176,272,151489,1,0
140,244,151576,1,0
96,232,151663,1,0
52,236,151751,1,0
16,260,151838,2,0,B|20:212|20:152,1,90
80,104,152187,6,0,B|144:72|244:72,1,135
240,108,152536,2,0,B|276:120|336:120,1,90
404,68,152884,1,0
468,132,153059,1,0
468,132,153146,1,0
468,132,153233,1,0
436,216,153408,1,0
372,280,153582,5,0
328,280,153669,1,0
300,244,153756,2,0,B|336:156,1,90
192,48,154105,5,0
148,48,154192,1,0
120,84,154279,2,0,B|156:172,1,90
144,256,154629,1,0
216,308,154803,1,0
204,220,154977,6,0,B|232:176|232:112,1,90
228,88,155239,1,0
272,96,155326,2,0,B|324:96|404:116,1,90
428,168,155675,1,0
448,256,155849,1,0
448,256,155937,1,0
448,256,156024,1,0
392,328,156198,1,0
312,284,156373,6,0,B|268:240,1,45
328,188,156547,2,0,B|276:184,1,45
308,108,156722,2,0,B|244:128,1,45
260,40,156896,2,0,B|212:72,1,45
140,60,157070,2,0,B|120:104|120:152,1,90
240,256,157419,2,0,B|260:212|260:164,1,90
220,88,157768,5,0
176,164,157942,1,0
176,164,158030,1,0
176,164,158117,6,0,B|132:188|72:188,1,90
360,220,158466,2,0,B|404:244|464:244,1,90
96,324,158815,2,0,B|48:304|24:256,1,90
52,180,159163,1,0
104,108,159338,1,0
144,84,159425,1,0
188,80,159512,2,0,B|236:80|280:112,1,90
284,152,159774,1,0
328,156,159861,2,0,B|360:192|368:240,1,90
376,280,160123,1,0
360,320,160210,1,0
276,352,160384,1,0
216,284,160559,6,0,B|148:284|100:296,1,90
52,240,160908,2,0,B|72:196|72:148,1,90
32,72,161256,1,0
120,44,161431,1,0
120,44,161518,1,0
120,44,161605,1,0
188,104,161780,1,0
272,72,161954,5,0
316,84,162041,1,0
348,116,162129,1,0
344,160,162216,1,0
320,196,162303,1,0
276,200,162390,1,0
232,188,162477,1,0
272,168,162565,1,0
316,172,162652,5,0
352,200,162739,1,0
368,244,162826,1,0
368,288,162913,1,0
348,328,163001,6,0,B|312:352|264:356,1,90
184,312,163349,1,0
184,312,163524,2,0,B|168:352,2,45
328,72,163873,2,0,B|344:32,2,45
388,144,164222,1,0
388,144,164309,1,0
388,144,164396,2,0,B|324:156|288:156,1,90
232,96,164745,6,0,B|172:68,1,45
168,152,164919,2,0,B|120:104,1,45
92,188,165094,2,0,B|64:136,1,45
20,212,165268,2,0,B|8:160,1,45
32,92,165442,2,0,B|76:72|128:72,1,90
208,92,165791,5,0
284,144,165966,1,0
224,208,166140,2,0,B|180:232|136:240,1,90
248,92,166489,2,0,B|292:68|336:60,1,90
400,120,166838,1,0
400,120,167012,2,0,B|464:104,2,45
360,200,167361,1,0
356,292,167536,5,0
312,304,167623,1,0
268,300,167710,1,0
228,280,167797,1,0
208,240,167884,1,0
208,196,167972,1,0
224,152,168059,1,0
260,128,168146,1,0
304,116,168233,6,0,B|328:152|328:204,1,90
240,216,168582,1,0
172,276,168756,1,0
172,276,168844,1,0
172,276,168931,5,0
96,112,169105,1,0
268,172,169280,1,0
88,196,169454,1,0
256,264,169629,5,0
424,56,169803,1,0
156,100,169977,2,0,B|228:108|296:136,1,135
328,160,170326,1,0
384,228,170501,1,0
376,316,170675,1,0
296,352,170849,1,0
208,340,171024,2,0,B|156:328|136:296|136:296|160:296|200:264|200:264|168:252|132:220|132:220|168:216|208:168|208:136,1,360
160,60,171896,5,0
160,60,171983,1,0
160,60,172070,2,0,B|116:72|72:96,1,90
352,324,172419,2,0,B|396:312|440:288,1,90
480,116,172768,5,0
300,116,172942,1,0
244,288,173117,1,0
200,304,173204,1,0
156,308,173291,1,0
116,288,173379,1,0
88,252,173466,1,0
88,208,173553,1,0
100,164,173640,1,0
132,132,173727,1,0
172,112,173815,2,0,B|252:80|348:80,1,180
460,220,174512,6,0,B|368:244,1,90
372,242,174861,1,0
372,242,175036,1,0
308,136,175210,1,0
212,216,175384,1,0
212,216,175472,1,0
212,216,175559,1,0
136,116,175733,1,0
36,192,175908,6,0,B|16:232|20:284,1,90
68,320,176169,1,0
124,348,176256,2,0,B|168:312|184:256,1,90
196,216,176518,1,0
216,156,176605,2,0,B|240:112|284:80,1,90
400,64,176954,1,0
448,180,177129,1,0
364,272,177303,1,0
256,208,177477,6,0,B|216:240,2,45
324,104,177826,2,0,B|376:64,2,45
200,88,178175,1,0
76,88,178349,1,0
112,140,178437,1,0
112,204,178524,1,0
100,264,178611,1,0
144,312,178698,6,0,B|192:312|256:296,1,90
308,200,179047,1,0
368,88,179222,1,0
368,88,179309,1,0
440,192,179483,1,0
440,192,179570,2,0,B|440:244|424:300,2,90
312,200,180094,5,0
236,100,180268,1,0
188,140,180355,1,0
144,188,180442,2,0,B|112:224|96:272,2,90
168,312,180966,5,0
236,204,181140,1,0
296,316,181315,1,0
420,284,181489,5,0
392,228,181576,1,0
412,168,181663,1,0
396,108,181751,1,0
344,72,181838,2,0,B|296:64|244:76,1,90
136,32,182187,1,0
136,32,182274,1,0
136,32,182361,1,0
56,132,182536,1,0
140,224,182710,1,0
92,340,182884,6,0,B|160:320|240:316,1,135
276,356,183233,2,0,B|288:256,1,90
252,144,183582,1,0
372,180,183756,1,0
372,180,183844,1,0
372,180,183931,2,0,B|468:192,1,90
460,64,184280,5,0
400,52,184367,1,0
336,60,184454,1,0
300,112,184541,1,0
272,168,184629,1,0
232,216,184716,1,0
172,236,184803,1,0
108,232,184890,1,0
52,204,184977,6,0,B|20:164|24:104,1,90
144,152,185326,2,0,B|176:192|172:252,1,90
124,352,185675,1,0
124,352,185849,6,0,B|76:360,2,45
228,280,186198,2,0,B|276:272,2,45
132,196,186547,6,0,B|124:248|160:292,1,90
280,180,186896,2,0,B|288:128|252:84,1,90
180,56,187245,1,0
180,56,187332,1,0
180,56,187419,1,0
92,76,187594,1,0
32,144,187768,6,0,B|12:188|16:240,1,90
140,336,188117,2,0,B|160:292|156:240,1,90
200,172,188466,1,0
264,112,188640,1,0
264,112,188727,1,0
264,112,188815,1,0
352,92,188989,1,0
432,136,189163,6,0,B|436:184|412:240,1,90
388,256,189425,1,0
344,264,189512,2,0,B|340:216|364:160,1,90
428,68,189861,5,0
264,164,190036,2,0,B|208:196,2,45
340,264,190384,1,0
304,292,190472,1,0
264,312,190559,1,0
224,288,190646,1,0
180,284,190733,1,0
140,300,190820,1,0
100,324,190908,2,0,B|56:304|32:268,1,90
52,180,191256,5,0
52,180,191431,2,0,B|72:132,2,45
180,284,191780,2,0,B|200:332,2,45
252,228,192129,2,0,B|268:180|268:140,1,90
244,52,192477,1,0
244,52,192652,1,0
332,68,192826,1,0
404,120,193001,1,0
436,204,193175,1,0
384,276,193349,6,0,B|320:320|256:328,1,135
216,340,193698,2,0,B|176:320|128:316,1,90
44,288,194047,5,0
52,160,194222,1,0
144,76,194396,1,0
256,20,194570,1,0
368,76,194745,1,0
460,160,194919,1,0
468,288,195094,5,0
352,336,195268,1,0
272,236,195442,2,0,B|232:260|208:304,1,90
88,324,195791,2,0,B|100:272|88:232,1,90
16,132,196140,1,0
52,104,196227,1,0
92,84,196315,1,0
136,100,196402,1,0
172,128,196489,1,0
208,156,196576,1,0
252,168,196663,1,0
296,152,196751,1,0
332,128,196838,6,0,B|360:100|388:48,1,90
452,116,197187,2,0,B|468:172|472:216,1,90
420,280,197536,1,0
348,332,197710,1,0
348,332,197797,1,0
348,332,197884,1,0
272,284,198059,1,0
184,288,198233,2,0,B|132:304|96:320,1,90
12,332,198582,2,0,B|24:284|28:236,1,90
40,152,198931,5,0
76,176,199018,1,0
104,212,199105,1,0
124,252,199192,1,0
120,296,199280,1,0
160,320,199367,1,0
204,332,199454,1,0
248,328,199541,1,0
284,304,199629,6,0,B|304:264|304:212,1,90
432,116,199977,2,0,B|412:156|412:208,1,90
428,292,200326,1,0
332,140,200501,5,0
332,140,200588,1,0
332,140,200675,2,0,B|304:56,1,90
112,244,201024,5,0
412,48,201198,1,0
268,376,201373,1,0
116,48,201547,1,0
416,244,201722,5,0
384,212,201809,1,0
340,200,201896,1,0
296,212,201983,1,0
252,200,202070,1,0
220,168,202158,1,0
216,124,202245,1,0
228,80,202332,1,0
268,60,202419,1,0
256,192,202506,12,0,208001
