osu file format v14

[General]
AudioFilename: ginkiha - Oriens-dawn EP - 02 dawn(ginkiha hardcore remix).mp3
AudioLeadIn: 1000
PreviewTime: 107099
Countdown: 0
SampleSet: Soft
StackLeniency: 0.7
Mode: 0
LetterboxInBreaks: 0
WidescreenStoryboard: 0

[Editor]
DistanceSpacing: 1
BeatDivisor: 4
GridSize: 4
TimelineZoom: 1

[Metadata]
Title:dawn(ginkiha hardcore remix)
TitleUnicode:dawn(ginkiha hardcore remix)
Artist:kamome sano
ArtistUnicode:kamome sano
Creator:wendao
Version:Standard
Source:
Tags:tatsuta recordings NIZI-RINGO Oriens sunrise wendao2000 qoot8123 RenzMichael 10nya -_t_e_n_n_y_a_- Harez
BeatmapID:618815
BeatmapSetID:185766

[Difficulty]
HPDrainRate:2.4
CircleSize:3
OverallDifficulty:2.6
ApproachRate:3.2
SliderMultiplier:1
SliderTickRate:1

[Events]
//Background and Video events
0,0,"bg.jpg",0,0
//Break Periods
2,67520,68557
2,88735,95076
//Storyboard Layer 0 (Background)
//Storyboard Layer 1 (Fail)
//Storyboard Layer 2 (Pass)
//Storyboard Layer 3 (Foreground)
//Storyboard Sound Samples

[TimingPoints]
1022,331.491712707182,4,2,1,20,1,0
1022,-100,4,2,1,20,0,0
2016,-100,4,2,1,35,0,0
2347,-100,4,2,1,30,0,0
3673,-100,4,2,1,25,0,0
5662,-100,4,2,1,30,0,0
5994,-100,4,2,1,35,0,0
6325,-100,4,2,1,25,0,0
6988,-100,4,2,1,20,0,0
7983,-100,4,2,1,25,0,0
8314,-100,4,2,1,30,0,0
8646,-100,4,2,1,35,0,0
8977,-100,4,2,1,25,0,0
9640,-100,4,2,1,30,0,0
11298,-100,4,2,1,35,0,0
11629,-100,4,2,1,20,0,0
12624,-100,4,2,1,30,0,0
12955,-100,4,2,1,25,0,0
13950,-100,4,2,1,30,0,0
14281,-100,4,2,1,25,0,0
14944,-100,4,2,1,30,0,0
15939,-100,4,2,1,25,0,0
16270,-100,4,2,1,30,0,0
16602,-100,4,2,1,25,0,0
17596,-100,4,2,1,30,0,0
18591,-100,4,2,1,25,0,0
18922,-100,4,2,1,30,0,0
19254,-100,4,2,1,35,0,0
19585,-100,4,2,1,25,0,0
20248,-100,4,2,1,20,0,0
20580,-100,4,2,1,15,0,0
20911,-100,4,2,1,20,0,0
21242,-100,4,2,1,30,0,0
21574,-100,4,2,1,40,0,0
21905,-100,4,2,1,50,0,0
22237,-100,4,2,1,60,0,0
43452,-100,4,2,1,60,0,1
43784,-100,4,2,1,65,0,0
64834,-100,4,2,1,30,0,0
86049,-100,4,2,1,20,0,0
96491,-100,4,2,1,35,0,0
96823,-100,4,2,1,30,0,0
97817,-100,4,2,1,35,0,0
98149,-100,4,2,1,30,0,0
99143,-100,4,2,1,35,0,0
99475,-100,4,2,1,30,0,0
100469,-100,4,2,1,35,0,0
100801,-100,4,2,1,30,0,0
101795,-100,4,2,1,35,0,0
102789,-100,4,2,1,30,0,0
103121,-100,4,2,1,35,0,0
104115,-100,4,2,1,30,0,0
104447,-100,4,2,1,35,0,0
105773,-100,4,2,1,40,0,0
107099,-100,4,2,1,70,0,1
146878,-100,4,2,1,70,0,0
149530,-100,4,2,1,60,0,1
149861,-100,4,2,1,60,0,0
169585,-100,4,2,1,55,0,0
169917,-100,4,2,1,50,0,0
170248,-100,4,2,1,45,0,0
170580,-100,4,2,1,40,0,0

[Colours]
Combo1 : 240,100,140
Combo2 : 240,160,120
Combo3 : 100,100,200
Combo4 : 180,150,180

[HitObjects]
388,56,1022,6,0,P|300:96|332:268,1,300,4|2,0:0|0:0,0:0:0:0:
408,328,2347,2,0,B|384:280|332:268|332:268|312:316|256:324|256:324|216:288|164:292,1,300,2|2,0:0|0:0,0:0:0:0:
72,332,3673,1,2,0:0:0:0:
32,136,4336,1,2,0:0:0:0:
316,36,5331,6,0,P|380:40|424:72,2,99.9999999999999,2|2|2,0:0|0:0|0:0,0:0:0:0:
344,132,6325,2,0,B|334:190|368:225|368:225|403:259|393:318,1,200,2|2,0:0|0:0,0:0:0:0:
100,360,7983,6,0,L|0:352,2,99.9999999999999,2|2|2,0:0|0:0|0:0,0:0:0:0:
193,325,8977,2,0,L|393:317,1,200,2|2,0:0|0:0,0:0:0:0:
496,36,10635,6,0,L|296:44,1,200,2|2,0:0|0:0,0:0:0:0:
204,84,11629,6,0,B|164:144|196:228|196:228|228:312|188:372,1,300,0|2,0:0|0:0,0:0:0:0:
100,324,12955,2,0,P|200:244|364:272,1,300,2|2,0:0|0:0,0:0:0:0:
432,340,14281,1,2,0:0:0:0:
512,156,14944,1,2,0:0:0:0:
236,40,15939,6,0,L|136:44,1,99.9999999999999,2|2,0:0|0:0,0:0:0:0:
40,72,16602,1,0,0:0:0:0:
112,141,16933,2,0,B|88:193|112:237|112:237|136:281|112:333,1,200,2|2,0:0|0:0,0:0:0:0:
412,304,18591,6,0,P|420:252|396:196,1,99.9999999999999,2|2,0:0|0:0,0:0:0:0:
324,148,19254,1,2,0:0:0:0:
228,180,19585,2,0,P|132:176|76:96,1,200,2|2,0:0|0:0,0:0:0:0:
256,192,20414,12,4,22237,3:2:0:0:
360,164,22900,6,0,L|356:264,1,99.9999999999999,0|8,3:0|3:2,0:0:0:0:
272,316,23563,2,0,P|184:272|84:280,1,200,0|0,3:0|3:0,0:0:0:0:
40,84,24889,6,0,P|124:136|224:132,1,200,0|0,3:0|3:0,0:0:0:0:
308,80,25883,1,8,3:2:0:0:
400,120,26215,2,0,L|396:220,1,99.9999999999999,2|10,3:2|3:2,0:0:0:0:
300,192,26878,2,0,L|296:292,1,99.9999999999999,2|10,3:2|3:2,0:0:0:0:
376,352,27541,6,0,B|348:288|272:268|208:320|208:320|168:288|116:292,1,300,2|8,3:2|3:2,0:0:0:0:
48,368,28867,2,0,P|100:284|76:184,1,200,0|0,3:0|3:0,0:0:0:0:
224,44,30193,6,0,L|324:40,1,99.9999999999999,0|8,3:0|3:2,0:0:0:0:
300,136,30856,2,0,L|400:132,1,99.9999999999999,0|8,3:0|3:2,0:0:0:0:
476,68,31519,2,0,P|500:208|380:284,1,300,2|10,3:2|3:2,0:0:0:0:
284,256,32845,6,0,B|188:228|188:228|132:236|112:284,2,200,6|0|0,3:2|3:0|3:0,0:0:0:0:
460,348,34834,1,0,3:0:0:0:
508,260,35165,1,8,3:2:0:0:
472,168,35497,6,0,B|444:120|456:72|456:72|404:56|360:80,1,200,4|0,3:0|0:0,0:0:0:0:
212,216,36823,2,0,P|160:212|120:188,2,99.9999999999999,2|10|2,3:2|3:2|3:2,0:0:0:0:
296,164,37817,1,8,3:2:0:0:
396,172,38149,6,0,L|404:372,2,200,2|0|2,3:2|3:0|3:2,0:0:0:0:
324,104,39806,1,8,3:2:0:0:
228,128,40138,2,0,B|176:132|176:132|132:112,1,99.9999999999999,0|10,3:0|3:2,0:0:0:0:
68,36,40801,6,0,P|112:124|80:224,1,200,2|0,3:2|0:0,0:0:0:0:
248,332,42126,2,0,P|296:312|344:316,1,99.9999999999999,4|10,3:0|3:2,0:0:0:0:
428,264,42789,2,0,P|455:222|461:173,1,99.9999999999999,2|2,3:2|3:2,0:0:0:0:
424,80,43452,6,0,P|320:148|248:144,1,200,4|2,0:0|3:2,0:0:0:0:
72,48,44778,2,0,P|24:136|32:232,1,200,2|2,3:2|3:2,0:0:0:0:
100,308,45773,1,8,3:2:0:0:
196,280,46104,6,0,B|276:252|336:312|336:312|416:288|408:200,1,300,2|8,3:2|3:2,0:0:0:0:
344,124,47430,2,0,B|316:76|324:28|324:28|268:92|136:72,1,300,2|10,3:2|3:2,0:0:0:0:
52,20,48756,6,0,P|88:112|56:240,1,200,2|2,3:2|3:2,0:0:0:0:
24,296,49751,1,8,3:2:0:0:
124,296,50082,2,0,B|172:280|228:260|228:348|284:328|336:312,1,200,2|2,3:2|3:2,0:0:0:0:
404,136,51408,6,0,P|284:184|284:236,1,200,2|0,3:2|3:0,0:0:0:0:
316,332,52403,2,0,L|416:328,1,99.9999999999999,8|2,3:2|3:2,0:0:0:0:
500,276,53066,2,0,P|512:228|508:176,1,99.9999999999999,10|2,3:2|3:2,0:0:0:0:
448,100,53729,1,10,3:2:0:0:
348,104,54060,6,0,P|276:128|176:68,1,200,6|2,3:2|3:2,0:0:0:0:
28,200,55386,2,0,B|72:176|124:192|124:192|160:236|220:248,1,200,2|0,3:2|3:0,0:0:0:0:
304,220,56381,1,8,3:2:0:0:
384,280,56712,6,0,P|456:212|408:36,1,300,2|8,3:2|3:2,0:0:0:0:
312,64,58038,2,0,B|260:68|260:68|216:48,1,99.9999999999999,2|10,3:2|3:2,0:0:0:0:
120,72,58701,1,2,3:2:0:0:
92,168,59033,1,10,3:2:0:0:
152,248,59364,6,0,B|200:232|200:232|228:280|284:300|336:280,1,200,4|2,3:2|3:2,0:0:0:0:
480,152,60690,2,0,P|386:131|305:184,1,200,2|2,3:2|3:2,0:0:0:0:
256,272,61684,1,10,3:2:0:0:
160,296,62016,6,0,B|84:292|84:292|48:280|28:244,2,150,2|2|0,3:2|3:2|0:0,0:0:0:0:
256,272,63342,2,0,L|356:268,1,99.9999999999999,4|8,3:0|3:2,0:0:0:0:
448,228,64005,2,0,P|468:184|464:132,2,99.9999999999999,0|0|4,3:0|3:0|0:0,0:0:0:0:
256,192,64834,12,2,67320,0:0:0:0:
300,100,69972,6,0,B|376:104|376:104|416:96|436:64,2,150,2|2|2,0:0|0:0|0:0,0:0:0:0:
208,136,71298,2,0,P|184:212|240:312,1,200,0|0,0:0|0:0,0:0:0:0:
336,340,72292,1,0,0:0:0:0:
416,280,72624,6,0,B|452:164|380:204|416:80,2,200,2|0|2,0:0|0:0|0:0,0:0:0:0:
336,340,74281,1,0,0:0:0:0:
236,336,74613,2,0,L|136:332,1,99.9999999999999,2|0,0:0|0:0,0:0:0:0:
44,292,75276,6,0,P|16:220|32:152,1,150,4|2,0:0|0:0,0:0:0:0:
140,48,76270,1,2,0:0:0:0:
236,24,76602,2,0,P|264:112|220:204,1,200,0|0,0:0|0:0,0:0:0:0:
232,304,77596,1,0,0:0:0:0:
320,352,77928,6,0,B|372:348|372:348|424:344|464:304|472:248,2,200,2|0|2,0:0|0:0|0:0,0:0:0:0:
232,304,79585,1,0,0:0:0:0:
132,312,79917,2,0,P|116:264|120:216,1,99.9999999999999,2|0,0:0|0:0,0:0:0:0:
152,120,80580,6,0,B|228:100|228:140|304:120,1,150,2|2,0:0|0:0,0:0:0:0:
436,60,81574,1,2,0:0:0:0:
512,124,81905,2,0,L|504:324,1,200,0|0,0:0|0:0,0:0:0:0:
416,372,82900,1,0,0:0:0:0:
320,344,83231,6,0,B|288:324|280:284|280:284|228:324|160:316,1,200,2|0,0:0|0:0,0:0:0:0:
96,240,84226,1,0,0:0:0:0:
60,148,84557,2,0,P|116:144|184:192,1,99.9999999999999,2|0,0:0|0:0,0:0:0:0:
252,184,85220,2,0,P|289:151|310:106,1,99.9999999999999,2|0,0:0|0:0,0:0:0:0:
288,8,85883,1,4,3:0:0:0:
256,192,86049,12,0,88535,0:0:0:0:
288,20,96491,6,0,P|272:116|332:192,1,200,4|0,3:0|0:0,0:0:0:0:
476,328,97817,2,0,B|384:308|376:380|284:360,1,200,4|0,3:0|0:0,0:0:0:0:
88,320,99143,2,0,P|36:236|40:136,1,200,4|0,3:0|0:0,0:0:0:0:
200,20,100469,2,0,L|400:28,1,200,4|2,3:0|0:0,0:0:0:0:
480,88,101463,1,2,0:0:0:0:
504,184,101795,6,0,P|472:276|384:316,1,200,4|4,3:0|3:0,0:0:0:0:
284,320,102789,1,0,0:0:0:0:
188,292,103121,2,0,P|130:214|154:120,1,200,4|4,3:0|3:0,0:0:0:0:
228,52,104115,1,0,0:0:0:0:
328,68,104448,6,0,B|428:72|428:72|384:100|376:156|408:204|408:204|440:252|432:308|388:336,1,400,4|4,3:0|3:0,0:0:0:0:
292,364,106104,1,8,3:2:0:0:
212,304,106437,2,0,L|220:204,1,99.9999999999999,0|0,3:0|3:0,0:0:0:0:
156,128,107099,6,0,P|244:172|340:152,1,200,4|0,1:2|1:0,0:0:0:0:
416,84,108093,1,8,1:2:0:0:
512,120,108425,2,0,P|508:220|456:304,1,200,0|0,1:0|1:0,0:0:0:0:
360,336,109419,1,8,1:2:0:0:
264,300,109751,6,0,P|176:264|80:300,1,200,0|0,1:0|1:0,0:0:0:0:
4,112,111077,2,0,B|16:60|64:36|64:36|104:64|160:56,1,200,0|0,1:0|1:0,0:0:0:0:
252,16,112071,1,8,1:2:0:0:
336,72,112403,6,0,L|344:272,2,200,0|0|0,1:0|1:0|1:0,0:0:0:0:
252,16,114060,2,0,P|204:16|156:40,2,99.9999999999999,8|0|8,1:2|1:0|1:2,0:0:0:0:
348,44,115055,2,0,L|340:244,2,200,0|0|0,1:0|1:0|1:0,0:0:0:0:
444,12,116712,2,0,P|488:44|508:88,1,99.9999999999999,8|0,1:2|1:0,0:0:0:0:
504,184,117375,1,8,1:2:0:0:
448,268,117707,6,0,P|356:304|204:196,1,300,4|8,1:2|1:2,0:0:0:0:
240,104,119033,2,0,P|160:160|60:152,1,200,0|0,1:0|1:0,0:0:0:0:
36,248,120027,1,8,1:2:0:0:
112,312,120359,6,0,B|208:280|208:280|260:288|292:328,1,200,0|0,1:0|1:0,0:0:0:0:
460,220,121684,2,0,P|476:172|472:124,1,99.9999999999999,0|8,1:0|1:2,0:0:0:0:
412,44,122347,2,0,L|312:40,1,99.9999999999999,0|8,1:0|1:2,0:0:0:0:
236,104,123010,6,0,P|216:224|340:332,1,300,0|8,1:0|1:2,0:0:0:0:
436,300,124336,2,0,L|440:200,2,99.9999999999999,0|8|0,1:0|1:2|1:0,0:0:0:0:
340,332,125331,1,8,1:2:0:0:
252,284,125662,6,0,B|168:220|64:272|64:272|32:228|48:176,1,300,0|8,1:0|1:2,0:0:0:0:
100,92,126988,2,0,L|300:100,1,200,0|0,1:0|1:0,0:0:0:0:
392,140,127983,1,8,1:2:0:0:
436,228,128314,6,0,P|432:324|352:380,1,200,4|0,1:2|1:0,0:0:0:0:
256,348,129309,1,8,1:2:0:0:
159,379,129640,2,0,P|80:324|76:228,1,200,0|0,1:0|1:0,0:0:0:0:
120,140,130635,1,8,1:2:0:0:
212,100,130966,6,0,L|412:92,2,200,0|0|0,1:0|1:0|1:0,0:0:0:0:
120,140,132624,2,0,P|104:188|108:236,1,99.9999999999999,8|0,1:2|1:0,0:0:0:0:
156,324,133287,1,8,1:2:0:0:
256,328,133618,6,0,B|284:280|336:276|336:276|388:272|416:224,1,200,0|0,1:0|1:0,0:0:0:0:
340,40,134944,2,0,L|240:36,2,99.9999999999999,0|8|0,1:0|1:2|1:0,0:0:0:0:
420,100,135939,1,8,1:2:0:0:
332,144,136270,6,0,L|132:136,2,200,0|0|0,1:0|1:0|1:0,0:0:0:0:
400,216,137928,2,0,P|416:264|412:312,1,99.9999999999999,8|0,1:2|1:0,0:0:0:0:
316,336,138591,2,0,P|300:288|304:240,1,99.9999999999999,8|4,1:2|1:2,0:0:0:0:
332,144,139254,5,8,1:2:0:0:
408,80,139585,2,0,P|312:56|212:68,1,200,0|0,1:0|1:0,0:0:0:0:
124,116,140580,1,8,1:2:0:0:
96,212,140911,2,0,P|144:232|192:228,1,99.9999999999999,0|8,1:0|1:2,0:0:0:0:
260,300,141574,6,0,P|348:256|448:272,2,200,0|0|0,1:0|1:0|1:0,0:0:0:0:
176,352,143231,2,0,B|124:356|124:356|80:336,1,99.9999999999999,8|0,1:2|1:0,0:0:0:0:
36,247,143894,1,8,1:2:0:0:
72,152,144226,6,0,B|136:128|208:140|256:192|256:192|304:244|376:256|440:232,1,400,0|0,1:0|1:0,0:0:0:0:
488,144,145883,2,0,L|492:44,1,99.9999999999999,8|0,1:2|1:0,0:0:0:0:
392,52,146546,2,0,L|388:152,1,99.9999999999999,8|0,1:2|1:0,0:0:0:0:
256,192,147044,12,4,149530,1:2:0:0:
108,276,150193,6,0,P|156:260|204:264,1,99.9999999999999,2|10,3:2|3:2,0:0:0:0:
296,304,150856,2,0,P|340:216|320:120,1,200,2|2,3:2|3:2,0:0:0:0:
232,68,151850,1,10,3:2:0:0:
132,92,152182,6,0,P|88:180|108:276,1,200,2|2,3:2|3:2,0:0:0:0:
196,328,153176,1,10,3:2:0:0:
296,304,153508,2,0,P|348:296|400:312,1,99.9999999999999,0|10,3:0|3:2,0:0:0:0:
400,204,154171,2,0,P|348:212|296:196,1,99.9999999999999,2|10,3:2|3:2,0:0:0:0:
212,148,154834,6,0,B|184:104|192:52|192:52|140:56|108:100,1,200,2|2,3:2|3:2,0:0:0:0:
68,192,155828,1,8,3:2:0:0:
108,284,156160,2,0,B|140:328|192:332|192:332|184:280|212:236,1,200,0|2,3:0|3:2,0:0:0:0:
294,180,157154,1,10,3:2:0:0:
392,200,157486,6,0,B|400:148|364:108|364:108|328:68|336:16|336:16|296:56|244:52,1,300,2|8,3:2|3:2,0:0:0:0:
148,32,158812,2,0,P|128:76|132:128,1,99.9999999999999,0|10,3:0|3:2,0:0:0:0:
188,208,159475,2,0,P|208:253|204:302,1,99.9999999999999,2|10,3:2|3:2,0:0:0:0:
132,372,160138,6,0,P|220:328|320:332,1,200,4|2,3:2|3:2,0:0:0:0:
408,376,161132,1,10,3:2:0:0:
504,348,161463,2,0,L|512:148,1,200,2|2,3:2|3:2,0:0:0:0:
456,64,162458,1,10,3:2:0:0:
356,60,162789,6,0,P|268:104|168:96,1,200,2|2,3:2|3:2,0:0:0:0:
80,52,163784,1,8,3:2:0:0:
84,152,164115,2,0,B|120:248|48:248|84:348,1,200,0|2,3:0|3:2,0:0:0:0:
280,312,165441,6,0,L|480:320,2,200,2|2|0,3:2|3:2|3:0,0:0:0:0:
184,284,167099,2,0,P|164:236|168:188,1,99.9999999999999,10|2,3:2|3:2,0:0:0:0:
204,96,167762,1,10,3:2:0:0:
288,44,168093,2,0,B|340:32|380:68|380:68|420:36|476:48,1,200,2|2,3:2|3:2,0:0:0:0:
256,192,168922,12,4,170745,3:0:0:0:
