osu file format v14

[General]
AudioFilename: ginkiha - Oriens-dawn EP - 02 dawn(ginkiha hardcore remix).mp3
AudioLeadIn: 1000
PreviewTime: 107099
Countdown: 0
SampleSet: Soft
StackLeniency: 0.7
Mode: 0
LetterboxInBreaks: 0
WidescreenStoryboard: 0

[Editor]
DistanceSpacing: 1
BeatDivisor: 4
GridSize: 4
TimelineZoom: 1

[Metadata]
Title:dawn(ginkiha hardcore remix)
TitleUnicode:dawn(ginkiha hardcore remix)
Artist:kamome sano
ArtistUnicode:kamome sano
Creator:wendao
Version:Beginner
Source:
Tags:tatsuta recordings NIZI-RINGO Oriens sunrise wendao2000 qoot8123 RenzMichael 10nya -_t_e_n_n_y_a_- Harez
BeatmapID:443939
BeatmapSetID:185766

[Difficulty]
HPDrainRate:1.6
CircleSize:2.8
OverallDifficulty:1.8
ApproachRate:2.4
SliderMultiplier:0.8
SliderTickRate:1

[Events]
//Background and Video events
0,0,"bg.jpg",0,0
//Break Periods
2,64868,65809
2,70172,71113
2,75476,76417
2,80780,81720
2,88735,94980
//Storyboard Layer 0 (Background)
//Storyboard Layer 1 (Fail)
//Storyboard Layer 2 (Pass)
//Storyboard Layer 3 (Foreground)
//Storyboard Sound Samples

[TimingPoints]
1022,331.491712707182,4,2,1,20,1,0
1022,-100,4,2,1,20,0,0
2347,-100,4,2,1,30,0,0
3673,-100,4,2,1,25,0,0
6988,-100,4,2,1,20,0,0
7983,-100,4,2,1,25,0,0
9640,-100,4,2,1,30,0,0
11298,-100,4,2,1,35,0,0
11629,-100,4,2,1,20,0,0
12955,-100,4,2,1,25,0,0
14944,-100,4,2,1,30,0,0
15939,-100,4,2,1,25,0,0
17596,-100,4,2,1,30,0,0
18591,-100,4,2,1,25,0,0
20248,-100,4,2,1,20,0,0
20580,-100,4,2,1,10,0,0
20911,-100,4,2,1,20,0,0
21242,-100,4,2,1,30,0,0
21574,-100,4,2,1,40,0,0
21905,-100,4,2,1,50,0,0
22237,-100,4,2,1,60,0,0
43452,-100,4,2,1,60,0,1
43784,-100,4,2,1,65,0,0
64834,-100,4,2,1,30,0,0
86049,-100,4,2,1,20,0,0
96491,-100,4,2,1,35,0,0
105773,-100,4,2,1,40,0,0
107099,-100,4,2,1,70,0,1
146878,-100,4,2,1,70,0,0
149530,-100,4,2,1,60,0,1
149861,-100,4,2,1,60,0,0
169585,-100,4,2,1,55,0,0
169917,-100,4,2,1,50,0,0
170248,-100,4,2,1,45,0,0
170580,-100,4,2,1,40,0,0

[Colours]
Combo1 : 240,100,140
Combo2 : 240,160,120
Combo3 : 100,100,200
Combo4 : 180,150,180

[HitObjects]
200,140,1022,6,0,B|276:96|352:140|352:140|428:184|504:140,2,320,4|2|2,0:0|0:0|0:0,0:0:0:0:
112,232,4336,1,2,0:0:0:0:
272,340,5331,6,0,P|348:252|336:136,1,240,2|2,0:0|0:0,0:0:0:0:
240,52,6988,1,0,0:0:0:0:
156,224,7983,6,0,L|396:220,1,240,2|2,0:0|0:0,0:0:0:0:
500,292,9640,1,2,0:0:0:0:
456,104,10635,6,0,P|376:112|304:84,1,160,2|2,0:0|0:0,0:0:0:0:
256,40,11629,6,0,P|177:168|31:135,2,320,0|2|2,0:0|0:0|0:0,0:0:0:0:
128,48,14944,1,2,0:0:0:0:
72,232,15939,6,0,B|188:184|188:280|304:232,1,240,2|2,0:0|0:0,0:0:0:0:
384,132,17596,1,2,0:0:0:0:
460,308,18591,6,0,P|396:264|244:288,1,240,2|2,0:0|0:0,0:0:0:0:
156,384,20249,1,0,0:0:0:0:
256,192,20745,12,4,22237,3:2:0:0:
120,120,23563,6,0,B|200:96|200:140|280:120,1,160,0|0,3:0|3:0,0:0:0:0:
380,44,24889,2,0,L|376:204,1,160,0|0,3:0|3:2,0:0:0:0:
432,320,26215,2,0,B|356:276|280:320|280:320|204:364|128:320,1,320,2|2,3:2|3:2,0:0:0:0:
76,68,28867,6,0,L|236:76,1,160,0|0,3:0|3:0,0:0:0:0:
360,44,30193,2,0,P|384:96|360:200,1,160,0|0,3:0|0:0,0:0:0:0:
264,272,31519,6,0,B|148:320|148:224|32:272|32:272|48:236|44:192,1,320,2|6,3:2|3:2,0:0:0:0:
228,16,34171,6,0,B|268:24|300:48|300:48|340:56|380:40,1,160,0|0,3:0|3:0,0:0:0:0:
328,160,35497,2,0,P|316:240|344:312,1,160,0|0,3:0|3:0,0:0:0:0:
452,384,36823,2,0,P|344:312|164:340,1,320,2|2,3:2|3:2,0:0:0:0:
36,116,39475,6,0,B|108:148|108:148|188:136,1,160,2|0,3:2|3:0,0:0:0:0:
288,220,40801,2,0,B|368:208|368:208|440:240,1,160,2|0,3:2|0:0,0:0:0:0:
480,364,42126,2,0,B|436:288|480:212|480:212|524:136|480:60,1,320,4|4,3:0|3:2,0:0:0:0:
356,24,44115,5,2,3:2:0:0:
248,96,44778,2,0,B|176:128|176:128|96:120,1,160,2|2,3:2|3:2,0:0:0:0:
52,240,46104,2,0,B|160:252|160:252|240:316|240:316|348:304,1,320,2|2,3:2|3:2,0:0:0:0:
436,208,48093,1,2,3:2:0:0:
388,88,48756,6,0,P|312:64|232:72,1,160,2|2,3:2|3:2,0:0:0:0:
136,156,50082,2,0,B|132:220|132:220|148:252|148:252|144:316,1,160,2|2,3:2|3:2,0:0:0:0:
264,360,51408,2,0,L|283:41,1,320,2|2,3:2|3:2,0:0:0:0:
408,80,53397,1,2,3:2:0:0:
464,196,54060,6,0,B|416:220|416:220|368:196|312:204,1,160,6|2,3:2|3:2,0:0:0:0:
228,300,55386,2,0,B|172:308|124:284|124:284|76:308,1,160,2|2,3:2|3:2,0:0:0:0:
20,192,56712,2,0,B|92:156|92:156|164:120|184:32|184:32|220:52|268:48,1,320,2|2,3:2|3:2,0:0:0:0:
384,12,58701,1,2,3:2:0:0:
476,100,59364,6,0,P|472:180|464:260,1,160,2|2,3:2|3:2,0:0:0:0:
336,272,60690,2,0,P|340:192|348:112,1,160,2|2,3:2|3:2,0:0:0:0:
256,192,62016,12,4,64668,0:0:0:0:
104,152,67320,6,0,B|132:112|188:92|248:112|248:112|280:160|232:224|264:268|264:268|324:292|380:272|408:232,1,480,2|2,0:2|0:2,0:0:0:0:
436,108,69972,1,0,0:2:0:0:
456,236,72624,6,0,B|388:312|288:280|288:280|256:324|256:324|224:280|224:280|124:312|56:236,1,480,2|2,0:2|0:2,0:0:0:0:
20,112,75276,1,4,0:2:0:0:
180,128,77928,6,0,B|184:180|156:228|156:228|204:252|228:304|228:304|256:296|284:304|284:304|308:252|356:228|356:228|328:180|332:128,1,480,2|2,0:0|0:0,0:0:0:0:
256,24,80580,1,0,0:2:0:0:
64,196,83231,6,0,B|144:212|180:296|180:296|256:252|332:296|332:296|368:212|448:196,1,480,2|2,0:0|0:2,0:0:0:0:
504,80,85883,1,0,0:0:0:0:
256,192,86049,12,0,88535,0:2:0:0:
144,48,96491,5,4,3:0:0:0:
400,80,97817,1,4,3:0:0:0:
368,336,99142,1,4,3:0:0:0:
112,304,100468,1,4,3:0:0:0:
256,192,101795,6,0,L|416:200,1,160,4|4,3:0|3:0,0:0:0:0:
448,76,103121,2,0,L|288:68,1,160,4|4,3:0|3:0,0:0:0:0:
172,124,104447,1,4,3:0:0:0:
340,316,105773,6,0,P|352:276|348:224,1,80,4|8,3:2|3:2,0:0:0:0:
324,180,106436,2,0,P|296:104|304:24,1,160,0|4,3:2|1:2,0:0:0:0:
428,56,107762,5,2,1:2:0:0:
460,180,108425,2,0,L|444:340,1,160,0|2,1:0|1:2,0:0:0:0:
336,268,109751,1,0,1:0:0:0:
216,312,110414,2,0,P|92:284|28:116,1,320,2|2,1:2|1:2,0:0:0:0:
116,24,112403,5,0,1:0:0:0:
236,68,113066,2,0,B|332:80|436:56|436:56|396:108|412:168,1,320,2|2,1:2|1:2,0:0:0:0:
484,276,115055,5,0,1:0:0:0:
355,284,115718,2,0,B|316:300|296:336|296:336|256:324|216:336|216:336|196:300|160:284,1,240,2|10,1:2|1:2,0:0:0:0:
28,276,117375,1,10,1:2:0:0:
4,216,117707,6,0,L|16:56,1,160,4|2,1:2|1:2,0:0:0:0:
144,40,119033,2,0,L|132:200,1,160,0|2,1:2|1:2,0:0:0:0:
184,316,120359,2,0,B|272:256|380:300|380:300|344:248|360:192,1,320,0|0,1:0|1:2,0:0:0:0:
444,92,122347,1,2,1:2:0:0:
315,69,123010,6,0,P|264:136|296:356,1,320,0|0,1:0|1:0,0:0:0:0:
416,312,124999,1,2,1:2:0:0:
448,188,125662,2,0,L|120:188,1,320,0|0,1:2|1:0,0:0:0:0:
12,128,127651,1,2,1:2:0:0:
56,80,127983,1,10,1:2:0:0:
120,80,128314,6,0,B|188:144|184:232|148:300|148:300|180:332|220:328,1,320,4|0,1:2|1:0,0:0:0:0:
332,264,130303,1,2,1:2:0:0:
452,320,130966,2,0,B|468:264|468:264|468:208|432:172|432:172|468:136|468:80|468:80|452:24,1,320,0|0,1:0|1:0,0:0:0:0:
332,80,132955,1,2,1:2:0:0:
220,15,133618,6,0,B|180:12|148:44|148:44|184:112|188:200|120:264,1,320,0|0,1:0|1:0,0:0:0:0:
4,324,135607,1,2,1:2:0:0:
120,264,136270,6,0,B|192:220|296:236|232:332|336:348|408:304,1,320,0|0,1:0|1:2,0:0:0:0:
476,196,138259,2,0,L|472:116,1,80,2|10,1:2|1:2,0:0:0:0:
496,56,138922,6,0,P|400:136|216:112,1,320,4|0,1:2|1:0,0:0:0:0:
108,44,140911,1,2,1:2:0:0:
0,112,141574,6,0,P|-16:156|4:264,1,160,0|2,1:0|1:2,0:0:0:0:
100,348,142900,2,0,L|260:336,1,160,0|2,1:0|1:2,0:0:0:0:
348,240,144226,6,0,P|436:332|460:192,1,320,0|0,1:0|1:0,0:0:0:0:
348,240,146215,1,2,1:2:0:0:
244,164,146878,1,2,1:2:0:0:
256,192,147044,12,4,149530,3:2:0:0:
56,168,150856,6,0,P|128:140|208:156,1,160,2|2,3:2|3:2,0:0:0:0:
304,240,152182,2,0,P|412:252|480:68,1,320,2|0,3:2|3:0,0:0:0:0:
380,12,154171,1,2,3:2:0:0:
257,48,154834,5,2,3:2:0:0:
206,166,155497,2,0,B|212:240|264:276|264:276|288:296|288:296|312:280|312:280|380:264|404:196,1,320,2|2,3:2|3:2,0:0:0:0:
396,68,157486,1,2,3:2:0:0:
276,24,158149,6,0,B|236:32|204:56|204:56|164:64|124:48,1,160,2|0,3:2|3:0,0:0:0:0:
24,128,159475,2,0,P|16:212|56:280,1,160,2|0,3:2|3:0,0:0:0:0:
164,340,160801,5,2,3:2:0:0:
284,296,161463,2,0,B|364:272|364:320|444:296,1,160,2|2,3:2|3:2,0:0:0:0:
492,180,162789,1,2,3:2:0:0:
441,63,163452,6,0,B|364:40|364:88|284:64|284:64|196:92|184:176,1,320,2|2,3:2|3:2,0:0:0:0:
256,284,165441,1,2,3:2:0:0:
328,176,166104,2,0,B|316:92|228:64|228:64|148:88|148:40|70:63,1,320,2|2,3:2|3:2,0:0:0:0:
20,180,168093,1,2,3:2:0:0:
70,296,168756,1,2,3:2:0:0:
256,192,168922,12,4,170745,3:0:0:0:
