osu file format v14

[General]
AudioFilename: kamome sano - Wavuru Mahou Toshokan.mp3
AudioLeadIn: 0
PreviewTime: 48507
Countdown: 0
SampleSet: Normal
StackLeniency: 0.7
Mode: 3
LetterboxInBreaks: 0
SpecialStyle: 0
WidescreenStoryboard: 0

[Editor]
DistanceSpacing: 0.8
BeatDivisor: 8
GridSize: 8
TimelineZoom: 2.899999

[Metadata]
Title:Wavuru Mahou Toshokan
TitleUnicode:ワヴル魔法図書館
Artist:kamome sano
ArtistUnicode:kamome sano
Creator:Lam-
Version:EXHAUST
Source:SOUND VOLTEX II -infinite infection-
Tags:sound voltex ZUN sdvx ii
BeatmapID:768568
BeatmapSetID:348387

[Difficulty]
HPDrainRate:7
CircleSize:4
OverallDifficulty:6
ApproachRate:5
SliderMultiplier:1.4
SliderTickRate:1

[Events]
//Background and Video events
0,0,"Magic Library.jpg",0,0
//Break Periods
//Storyboard Layer 0 (Background)
//Storyboard Layer 1 (Fail)
//Storyboard Layer 2 (Pass)
//Storyboard Layer 3 (Foreground)
//Storyboard Sound Samples

[TimingPoints]
508,333.333333333333,4,1,0,60,1,0
508,-111.111111111111,4,1,0,60,0,0
11174,-105.263157894737,4,1,0,60,0,0
18507,-86.9565217391304,4,1,0,60,0,0
18619,-125,4,1,0,60,0,0
18674,-222.222222222222,4,1,0,60,0,0
18841,-86.9565217391304,4,1,0,60,0,0
18952,-125,4,1,0,60,0,0
19007,-222.222222222222,4,1,0,60,0,0
19174,-105.263157894737,4,1,0,60,0,0
20841,-125,4,1,0,60,0,0
21174,-71.4285714285714,4,1,0,60,0,0
21230,-153.846153846154,4,1,0,60,0,0
21341,-71.4285714285714,4,1,0,60,0,0
21396,-153.846153846154,4,1,0,60,0,0
21507,-71.4285714285714,4,1,0,60,0,0
21563,-153.846153846154,4,1,0,60,0,0
21674,-71.4285714285714,4,1,0,60,0,0
21730,-153.846153846154,4,1,0,60,0,0
21841,-41.6666666666667,4,1,0,60,0,0
21952,-83.3333333333333,4,1,0,60,0,0
22063,-166.666666666667,4,1,0,60,0,0
22174,-333.333333333333,4,1,0,60,0,0
22216,-250,4,1,0,60,0,0
22257,-181.818181818182,4,1,0,60,0,0
22299,-133.333333333333,4,1,0,60,0,0
22341,-100,4,1,0,60,0,0
22382,-83.3333333333333,4,1,0,60,0,0
22424,-74.0740740740741,4,1,0,60,0,0
22466,-68.9655172413793,4,1,0,60,0,0
22507,-100,4,1,0,60,0,0
23841,-60.6060606060606,4,1,0,60,0,0
23924,-83.3333333333333,4,1,0,60,0,0
23966,-133.333333333333,4,1,0,60,0,0
24049,-222.222222222222,4,1,0,60,0,0
24091,-100,4,1,0,60,0,0
24507,-69.4444444444444,4,1,0,60,0,0
24549,-138.888888888889,4,1,0,60,0,0
24591,-100,4,1,0,60,0,0
24757,-69.4444444444444,4,1,0,60,0,0
24799,-138.888888888889,4,1,0,60,0,0
24841,-100,4,1,0,60,0,0
25007,-69.4444444444444,4,1,0,60,0,0
25049,-138.888888888889,4,1,0,60,0,0
25091,-100,4,1,0,60,0,0
26507,-111.111111111111,4,1,0,60,0,0
26841,-100,4,1,0,60,0,0
27174,-66.6666666666667,4,1,0,60,0,0
27257,-133.333333333333,4,1,0,60,0,0
27341,-83.3333333333333,4,1,0,60,0,0
27424,-166.666666666667,4,1,0,60,0,0
27507,-111.111111111111,4,1,0,60,0,0
27591,-222.222222222222,4,1,0,60,0,0
27674,-166.666666666667,4,1,0,60,0,0
27757,-333.333333333333,4,1,0,60,0,0
27841,-100,4,1,0,60,0,0
30174,-111.111111111111,4,1,0,60,0,0
30507,-83.3333333333333,4,1,0,60,0,0
30563,-111.111111111111,4,1,0,60,0,0
30619,-83.3333333333333,4,1,0,60,0,0
30674,-111.111111111111,4,1,0,60,0,0
30730,-83.3333333333333,4,1,0,60,0,0
30785,-111.111111111111,4,1,0,60,0,0
30841,-83.3333333333333,4,1,0,60,0,0
30896,-111.111111111111,4,1,0,60,0,0
30952,-83.3333333333333,4,1,0,60,0,0
31007,-111.111111111111,4,1,0,60,0,0
31063,-83.3333333333333,4,1,0,60,0,0
31119,-111.111111111111,4,1,0,60,0,0
31174,-100,4,1,0,60,0,0
32507,-41.6666666666667,4,1,0,60,0,0
32619,-83.3333333333333,4,1,0,60,0,0
32730,-166.666666666667,4,1,0,60,0,0
32841,-333.333333333333,4,1,0,60,0,0
32882,-250,4,1,0,60,0,0
32924,-181.818181818182,4,1,0,60,0,0
32966,-133.333333333333,4,1,0,60,0,0
33007,-100,4,1,0,60,0,0
33049,-83.3333333333333,4,1,0,60,0,0
33091,-74.0740740740741,4,1,0,60,0,0
33132,-68.9655172413793,4,1,0,60,0,0
33174,-100,4,1,0,60,0,0
34507,-69.4444444444444,4,1,0,60,0,0
34563,-138.888888888889,4,1,0,60,0,0
34619,-69.4444444444444,4,1,0,60,0,0
34674,-138.888888888889,4,1,0,60,0,0
34730,-55.5555555555556,4,1,0,60,0,0
34785,-111.111111111111,4,1,0,60,0,0
34841,-166.666666666667,4,1,0,60,0,0
34924,-100,4,1,0,60,0,0
35841,-55.5555555555556,4,1,0,60,0,0
35952,-166.666666666667,4,1,0,60,0,0
36174,-250,4,1,0,60,0,0
36230,-200,4,1,0,60,0,0
36285,-142.857142857143,4,1,0,60,0,0
36341,-100,4,1,0,60,0,0
36396,-83.3333333333333,4,1,0,60,0,0
36452,-76.9230769230769,4,1,0,60,0,0
36507,-100,4,1,0,60,0,0
37174,-111.111111111111,4,1,0,60,0,0
37507,-100,4,1,0,60,0,0
37841,-41.6666666666667,4,1,0,60,0,0
37952,-83.3333333333333,4,1,0,60,0,0
38063,-166.666666666667,4,1,0,60,0,0
38174,-333.333333333333,4,1,0,60,0,0
38216,-250,4,1,0,60,0,0
38257,-181.818181818182,4,1,0,60,0,0
38299,-133.333333333333,4,1,0,60,0,0
38341,-100,4,1,0,60,0,0
38382,-83.3333333333333,4,1,0,60,0,0
38424,-74.0740740740741,4,1,0,60,0,0
38466,-68.9655172413793,4,1,0,60,0,0
38507,-100,4,1,0,60,0,0
39841,-66.6666666666667,4,1,0,60,0,0
39924,-100,4,1,0,60,0,0
40007,-133.333333333333,4,1,0,60,0,0
40174,-66.6666666666667,4,1,0,60,0,0
40257,-100,4,1,0,60,0,0
40341,-133.333333333333,4,1,0,60,0,0
40507,-100,4,1,0,60,0,0
43174,-66.6666666666667,4,1,0,60,0,0
43216,-133.333333333333,4,1,0,60,0,0
43257,-100,4,1,0,60,0,0
43507,-66.6666666666667,4,1,0,60,0,0
43549,-133.333333333333,4,1,0,60,0,0
43591,-100,4,1,0,60,0,0
46507,-55.5555555555556,4,1,0,60,0,0
46619,-166.666666666667,4,1,0,60,0,0
46841,-250,4,1,0,60,0,0
46896,-200,4,1,0,60,0,0
46952,-142.857142857143,4,1,0,60,0,0
47007,-100,4,1,0,60,0,0
47063,-83.3333333333333,4,1,0,60,0,0
47119,-76.9230769230769,4,1,0,60,0,0
47174,-100,4,1,0,60,0,0
48507,-55.5555555555556,4,1,0,60,0,0
48591,-166.666666666667,4,1,0,60,0,0
48841,-333.333333333333,4,1,0,60,0,0
48924,-100,4,1,0,60,0,0
49007,-86.9565217391304,4,1,0,60,0,0
49091,-80,4,1,0,60,0,0
49174,-100,4,1,0,60,0,0
51174,-83.3333333333333,4,1,0,60,0,0
51285,-166.666666666667,4,1,0,60,0,0
51341,-111.111111111111,4,1,0,60,0,0
51507,-83.3333333333333,4,1,0,60,0,0
51619,-166.666666666667,4,1,0,60,0,0
51674,-111.111111111111,4,1,0,60,0,0
51841,-55.5555555555556,4,1,0,60,0,0
51952,-111.111111111111,4,1,0,60,0,0
52174,-100,4,1,0,60,0,0
53841,-74.0740740740741,4,1,0,60,0,0
53924,-111.111111111111,4,1,0,60,0,0
54007,-74.0740740740741,4,1,0,60,0,0
54091,-111.111111111111,4,1,0,60,0,0
54174,-74.0740740740741,4,1,0,60,0,0
54257,-111.111111111111,4,1,0,60,0,0
54341,-74.0740740740741,4,1,0,60,0,0
54424,-111.111111111111,4,1,0,60,0,0
54507,-100,4,1,0,60,0,0
57174,-166.666666666667,4,1,0,60,0,0
57257,-148.148148148148,4,1,0,60,0,0
57341,-133.333333333333,4,1,0,60,0,0
57424,-114.285714285714,4,1,0,60,0,0
57507,-100,4,1,0,60,0,0
57591,-94.1176470588235,4,1,0,60,0,0
57674,-88.8888888888889,4,1,0,60,0,0
57757,-84.2105263157895,4,1,0,60,0,0
57841,-100,4,1,0,60,0,0
61174,-68.9655172413793,4,1,0,60,0,0
61285,-74.0740740740741,4,1,0,60,0,0
61396,-83.3333333333333,4,1,0,60,0,0
61507,-100,4,1,0,60,0,0
61619,-133.333333333333,4,1,0,60,0,0
61730,-181.818181818181,4,1,0,60,0,0
61841,-100,4,1,0,60,0,0
74424,-222.222222222222,4,1,0,60,0,0
74507,-500,4,1,0,60,0,0
74591,-285.714285714286,4,1,0,60,0,0
74674,-200,4,1,0,60,0,0
74757,-133.333333333333,4,1,0,60,0,0
74841,-111.111111111111,4,1,0,60,0,0
74924,-90.9090909090909,4,1,0,60,0,0
75007,-80,4,1,0,60,0,0
75091,-71.4285714285714,4,1,0,60,0,0
75174,-100,4,1,0,60,0,0

[HitObjects]
448,192,508,128,0,1007:0:0:0:0:
192,192,508,1,0,0:0:0:0:
320,192,1007,128,0,1174:0:0:0:0:
192,192,1174,128,0,1396:0:0:0:0:
64,192,1396,128,0,1619:0:0:0:0:
448,192,1619,128,0,1841:0:0:0:0:
192,192,1799,1,0,0:0:0:0:
64,192,1841,128,0,2341:0:0:0:0:
192,192,2341,128,0,2507:0:0:0:0:
320,192,2507,128,0,2674:0:0:0:0:
192,192,2674,128,0,2841:0:0:0:0:
448,192,2841,128,0,3007:0:0:0:0:
64,192,3007,128,0,3674:0:0:0:0:
448,192,3174,128,0,3674:0:0:0:0:
320,192,3674,1,0,0:0:0:0:
192,192,3757,1,0,0:0:0:0:
64,192,3841,1,0,0:0:0:0:
448,192,4007,1,0,0:0:0:0:
192,192,4174,1,0,0:0:0:0:
64,192,4257,1,0,0:0:0:0:
192,192,4341,1,0,0:0:0:0:
320,192,4424,1,0,0:0:0:0:
448,192,4507,1,0,0:0:0:0:
64,192,4507,1,0,0:0:0:0:
320,192,4619,1,0,0:0:0:0:
192,192,4730,1,0,0:0:0:0:
320,192,4841,1,0,0:0:0:0:
448,192,4841,1,0,0:0:0:0:
192,192,4952,1,0,0:0:0:0:
64,192,5063,1,0,0:0:0:0:
448,192,5174,1,0,0:0:0:0:
192,192,5174,1,0,0:0:0:0:
64,192,5285,1,0,0:0:0:0:
448,192,5396,1,0,0:0:0:0:
320,192,5507,1,0,0:0:0:0:
64,192,5507,1,0,0:0:0:0:
192,192,5619,1,0,0:0:0:0:
64,192,5730,1,0,0:0:0:0:
192,192,5841,128,0,7174:0:0:0:0:
448,192,5841,1,0,0:0:0:0:
64,192,7174,1,0,0:0:0:0:
448,192,7174,1,0,0:0:0:0:
192,192,7841,1,0,0:0:0:0:
448,192,7841,1,0,0:0:0:0:
64,192,8507,128,0,9841:0:0:0:0:
448,192,8507,1,0,0:0:0:0:
320,192,9174,1,0,0:0:0:0:
320,192,9841,128,0,10091:0:0:0:0:
448,192,9841,1,0,0:0:0:0:
192,192,10091,128,0,10341:0:0:0:0:
448,192,10174,1,0,0:0:0:0:
448,192,10341,128,0,10507:0:0:0:0:
64,192,10507,1,0,0:0:0:0:
320,192,10507,128,0,10757:0:0:0:0:
192,192,10757,128,0,11007:0:0:0:0:
64,192,10841,1,0,0:0:0:0:
64,192,11007,128,0,11174:0:0:0:0:
320,192,11174,1,0,0:0:0:0:
192,192,11174,1,0,0:0:0:0:
448,192,11174,1,0,0:0:0:0:
448,192,11507,1,0,0:0:0:0:
320,192,11507,1,0,0:0:0:0:
192,192,11674,1,0,0:0:0:0:
448,192,11841,1,0,0:0:0:0:
320,192,11841,1,0,0:0:0:0:
192,192,12063,1,0,0:0:0:0:
320,192,12174,1,0,0:0:0:0:
448,192,12174,1,0,0:0:0:0:
64,192,12285,1,0,0:0:0:0:
320,192,12466,1,0,0:0:0:0:
192,192,12507,1,0,0:0:0:0:
64,192,12507,1,0,0:0:0:0:
192,192,12841,1,0,0:0:0:0:
64,192,12841,1,0,0:0:0:0:
320,192,13007,1,0,0:0:0:0:
192,192,13174,1,0,0:0:0:0:
64,192,13174,1,0,0:0:0:0:
448,192,13341,1,0,0:0:0:0:
192,192,13507,1,0,0:0:0:0:
64,192,13507,1,0,0:0:0:0:
320,192,13674,1,0,0:0:0:0:
64,192,13841,1,0,0:0:0:0:
448,192,13841,1,0,0:0:0:0:
64,192,14174,1,0,0:0:0:0:
448,192,14174,1,0,0:0:0:0:
320,192,14341,1,0,0:0:0:0:
192,192,14424,1,0,0:0:0:0:
448,192,14507,1,0,0:0:0:0:
64,192,14507,1,0,0:0:0:0:
192,192,14674,1,0,0:0:0:0:
320,192,14841,1,0,0:0:0:0:
64,192,14841,1,0,0:0:0:0:
192,192,14924,1,0,0:0:0:0:
448,192,15007,1,0,0:0:0:0:
192,192,15091,1,0,0:0:0:0:
320,192,15174,1,0,0:0:0:0:
448,192,15174,1,0,0:0:0:0:
192,192,15285,1,0,0:0:0:0:
64,192,15396,1,0,0:0:0:0:
192,192,15507,1,0,0:0:0:0:
448,192,15507,1,0,0:0:0:0:
320,192,15619,1,0,0:0:0:0:
64,192,15730,1,0,0:0:0:0:
320,192,15841,1,0,0:0:0:0:
192,192,15841,1,0,0:0:0:0:
448,192,15952,1,0,0:0:0:0:
320,192,16063,1,0,0:0:0:0:
448,192,16174,1,0,0:0:0:0:
192,192,16174,1,0,0:0:0:0:
64,192,16257,1,0,0:0:0:0:
192,192,16341,1,0,0:0:0:0:
448,192,16507,1,0,0:0:0:0:
64,192,16507,1,0,0:0:0:0:
320,192,16841,1,0,0:0:0:0:
192,192,16841,1,0,0:0:0:0:
448,192,17174,1,0,0:0:0:0:
64,192,17174,1,0,0:0:0:0:
320,192,17507,1,0,0:0:0:0:
192,192,17507,1,0,0:0:0:0:
448,192,17841,1,0,0:0:0:0:
64,192,17841,1,0,0:0:0:0:
320,192,18174,1,0,0:0:0:0:
192,192,18174,1,0,0:0:0:0:
192,192,18507,1,0,0:0:0:0:
64,192,18507,1,0,0:0:0:0:
192,192,18841,1,0,0:0:0:0:
64,192,18841,1,0,0:0:0:0:
320,192,19174,1,0,0:0:0:0:
448,192,19174,1,0,0:0:0:0:
64,192,19174,1,0,0:0:0:0:
192,192,19341,1,0,0:0:0:0:
64,192,19341,1,0,0:0:0:0:
448,192,19341,1,0,0:0:0:0:
320,192,19507,1,0,0:0:0:0:
448,192,19507,1,0,0:0:0:0:
64,192,19507,1,0,0:0:0:0:
192,192,19674,1,0,0:0:0:0:
64,192,19674,1,0,0:0:0:0:
448,192,19674,1,0,0:0:0:0:
448,192,19841,1,0,0:0:0:0:
192,192,19841,1,0,0:0:0:0:
320,192,19841,1,0,0:0:0:0:
320,192,20007,1,0,0:0:0:0:
64,192,20007,1,0,0:0:0:0:
192,192,20007,1,0,0:0:0:0:
448,192,20174,1,0,0:0:0:0:
192,192,20174,1,0,0:0:0:0:
320,192,20174,1,0,0:0:0:0:
320,192,20341,1,0,0:0:0:0:
64,192,20341,1,0,0:0:0:0:
192,192,20341,1,0,0:0:0:0:
64,192,20507,1,0,0:0:0:0:
448,192,20507,1,0,0:0:0:0:
192,192,20591,1,0,0:0:0:0:
320,192,20674,1,0,0:0:0:0:
448,192,20757,1,0,0:0:0:0:
320,192,20841,1,0,0:0:0:0:
192,192,20952,1,0,0:0:0:0:
64,192,21063,1,0,0:0:0:0:
448,192,21174,128,0,21341:0:0:0:0:
192,192,21174,1,0,0:0:0:0:
320,192,21341,128,0,21507:0:0:0:0:
64,192,21341,1,0,0:0:0:0:
192,192,21507,128,0,21674:0:0:0:0:
448,192,21507,1,0,0:0:0:0:
64,192,21674,128,0,21841:0:0:0:0:
320,192,21674,1,0,0:0:0:0:
320,192,21841,128,0,22507:0:0:0:0:
192,192,21841,128,0,22507:0:0:0:0:
448,192,22507,1,0,0:0:0:0:
64,192,22507,1,0,0:0:0:0:
320,192,22674,1,0,0:0:0:0:
64,192,22674,1,0,0:0:0:0:
448,192,22841,1,0,0:0:0:0:
64,192,22841,1,0,0:0:0:0:
448,192,23007,1,0,0:0:0:0:
192,192,23007,1,0,0:0:0:0:
192,192,23174,1,0,0:0:0:0:
64,192,23174,1,0,0:0:0:0:
320,192,23341,1,0,0:0:0:0:
192,192,23341,1,0,0:0:0:0:
448,192,23507,1,0,0:0:0:0:
320,192,23507,1,0,0:0:0:0:
64,192,23674,1,0,0:0:0:0:
448,192,23674,1,0,0:0:0:0:
192,192,23841,128,0,24091:0:0:0:0:
64,192,23841,128,0,24091:0:0:0:0:
320,192,23841,1,0,0:0:0:0:
448,192,24091,128,0,24341:0:0:0:0:
192,192,24341,128,0,24507:0:0:0:0:
448,192,24507,128,0,24674:0:0:0:0:
320,192,24507,128,0,24674:0:0:0:0:
448,192,24757,128,0,24924:0:0:0:0:
192,192,24757,128,0,24924:0:0:0:0:
448,192,25007,128,0,25091:0:0:0:0:
64,192,25007,128,0,25091:0:0:0:0:
64,192,25174,1,0,0:0:0:0:
320,192,25174,1,0,0:0:0:0:
448,192,25174,1,0,0:0:0:0:
192,192,25341,1,0,0:0:0:0:
448,192,25341,1,0,0:0:0:0:
64,192,25424,1,0,0:0:0:0:
192,192,25507,1,0,0:0:0:0:
448,192,25507,1,0,0:0:0:0:
320,192,25591,1,0,0:0:0:0:
448,192,25674,1,0,0:0:0:0:
64,192,25674,128,0,25841:0:0:0:0:
448,192,25841,1,0,0:0:0:0:
320,192,25882,1,0,0:0:0:0:
192,192,25924,1,0,0:0:0:0:
64,192,25966,1,0,0:0:0:0:
448,192,26007,1,0,0:0:0:0:
320,192,26007,1,0,0:0:0:0:
192,192,26091,1,0,0:0:0:0:
64,192,26174,1,0,0:0:0:0:
448,192,26174,1,0,0:0:0:0:
320,192,26257,1,0,0:0:0:0:
192,192,26341,1,0,0:0:0:0:
64,192,26341,1,0,0:0:0:0:
320,192,26507,128,0,26841:0:0:0:0:
64,192,26507,1,0,0:0:0:0:
448,192,26841,1,0,0:0:0:0:
320,192,26952,1,0,0:0:0:0:
192,192,27063,1,0,0:0:0:0:
64,192,27174,128,0,27841:0:0:0:0:
448,192,27174,128,0,27841:0:0:0:0:
320,192,27841,1,0,0:0:0:0:
192,192,27841,1,0,0:0:0:0:
320,192,28007,1,0,0:0:0:0:
64,192,28007,1,0,0:0:0:0:
192,192,28174,1,0,0:0:0:0:
320,192,28174,1,0,0:0:0:0:
192,192,28341,1,0,0:0:0:0:
448,192,28341,1,0,0:0:0:0:
448,192,28507,1,0,0:0:0:0:
320,192,28507,1,0,0:0:0:0:
320,192,28619,1,0,0:0:0:0:
192,192,28619,1,0,0:0:0:0:
192,192,28730,1,0,0:0:0:0:
64,192,28730,1,0,0:0:0:0:
448,192,28841,1,0,0:0:0:0:
192,192,28841,1,0,0:0:0:0:
320,192,28952,1,0,0:0:0:0:
64,192,28952,1,0,0:0:0:0:
192,192,29063,1,0,0:0:0:0:
64,192,29063,1,0,0:0:0:0:
448,192,29174,1,0,0:0:0:0:
320,192,29230,1,0,0:0:0:0:
192,192,29285,1,0,0:0:0:0:
64,192,29341,1,0,0:0:0:0:
448,192,29396,1,0,0:0:0:0:
320,192,29452,1,0,0:0:0:0:
192,192,29507,1,0,0:0:0:0:
64,192,29507,1,0,0:0:0:0:
64,192,29674,1,0,0:0:0:0:
192,192,29674,1,0,0:0:0:0:
448,192,29841,1,0,0:0:0:0:
64,192,29841,1,0,0:0:0:0:
192,192,30007,1,0,0:0:0:0:
320,192,30007,1,0,0:0:0:0:
320,192,30174,128,0,30507:0:0:0:0:
64,192,30174,1,0,0:0:0:0:
448,192,30507,128,0,31174:0:0:0:0:
192,192,30507,1,0,0:0:0:0:
64,192,30619,1,0,0:0:0:0:
192,192,30730,1,0,0:0:0:0:
320,192,30841,1,0,0:0:0:0:
192,192,30952,1,0,0:0:0:0:
64,192,31063,1,0,0:0:0:0:
320,192,31174,128,0,31341:0:0:0:0:
192,192,31174,1,0,0:0:0:0:
64,192,31341,128,0,31841:0:0:0:0:
448,192,31424,1,0,0:0:0:0:
320,192,31424,128,0,31841:0:0:0:0:
448,192,31674,128,0,31841:0:0:0:0:
192,192,31841,128,0,32007:0:0:0:0:
64,192,31924,128,0,32091:0:0:0:0:
320,192,32007,128,0,32174:0:0:0:0:
448,192,32091,128,0,32257:0:0:0:0:
64,192,32174,128,0,32341:0:0:0:0:
192,192,32257,128,0,32424:0:0:0:0:
320,192,32341,128,0,32507:0:0:0:0:
448,192,32424,128,0,32507:0:0:0:0:
192,192,32507,128,0,33174:0:0:0:0:
64,192,32507,128,0,33174:0:0:0:0:
448,192,33174,1,0,0:0:0:0:
320,192,33174,1,0,0:0:0:0:
192,192,33257,128,0,33341:0:0:0:0:
64,192,33341,1,0,0:0:0:0:
448,192,33341,1,0,0:0:0:0:
320,192,33424,128,0,33507:0:0:0:0:
192,192,33507,1,0,0:0:0:0:
64,192,33507,1,0,0:0:0:0:
320,192,33591,128,0,33674:0:0:0:0:
64,192,33674,1,0,0:0:0:0:
448,192,33674,1,0,0:0:0:0:
192,192,33757,128,0,33841:0:0:0:0:
320,192,33841,1,0,0:0:0:0:
448,192,33841,1,0,0:0:0:0:
192,192,34007,1,0,0:0:0:0:
320,192,34007,1,0,0:0:0:0:
64,192,34174,1,0,0:0:0:0:
192,192,34174,1,0,0:0:0:0:
448,192,34341,1,0,0:0:0:0:
64,192,34341,1,0,0:0:0:0:
320,192,34507,1,0,0:0:0:0:
448,192,34507,1,0,0:0:0:0:
320,192,34619,1,0,0:0:0:0:
448,192,34619,1,0,0:0:0:0:
320,192,34730,128,0,34924:0:0:0:0:
448,192,34730,128,0,34924:0:0:0:0:
64,192,34730,1,0,0:0:0:0:
192,192,34924,128,0,35091:0:0:0:0:
64,192,34924,128,0,35091:0:0:0:0:
320,192,35091,1,0,0:0:0:0:
64,192,35174,128,0,35341:0:0:0:0:
448,192,35174,128,0,35591:0:0:0:0:
64,192,35424,128,0,35841:0:0:0:0:
320,192,35424,1,0,0:0:0:0:
448,192,35674,128,0,35841:0:0:0:0:
192,192,35674,1,0,0:0:0:0:
320,192,35841,128,0,36174:0:0:0:0:
448,192,36174,128,0,36507:0:0:0:0:
64,192,36174,1,0,0:0:0:0:
64,192,36507,1,0,0:0:0:0:
192,192,36549,1,0,0:0:0:0:
320,192,36591,1,0,0:0:0:0:
448,192,36632,1,0,0:0:0:0:
64,192,36674,128,0,37007:0:0:0:0:
192,192,36674,128,0,36924:0:0:0:0:
320,192,36757,1,0,0:0:0:0:
448,192,36841,1,0,0:0:0:0:
320,192,36924,1,0,0:0:0:0:
192,192,37007,1,0,0:0:0:0:
448,192,37007,1,0,0:0:0:0:
64,192,37174,128,0,37507:0:0:0:0:
192,192,37174,1,0,0:0:0:0:
448,192,37507,1,0,0:0:0:0:
64,192,37619,1,0,0:0:0:0:
320,192,37730,1,0,0:0:0:0:
64,192,37841,128,0,38507:0:0:0:0:
192,192,37841,128,0,38507:0:0:0:0:
320,192,38507,1,0,0:0:0:0:
448,192,38507,1,0,0:0:0:0:
192,192,38591,128,0,38674:0:0:0:0:
64,192,38674,1,0,0:0:0:0:
320,192,38674,1,0,0:0:0:0:
448,192,38757,128,0,38841:0:0:0:0:
192,192,38841,1,0,0:0:0:0:
64,192,38841,1,0,0:0:0:0:
320,192,38924,128,0,39007:0:0:0:0:
448,192,39007,1,0,0:0:0:0:
192,192,39007,1,0,0:0:0:0:
64,192,39091,128,0,39174:0:0:0:0:
448,192,39174,1,0,0:0:0:0:
192,192,39174,1,0,0:0:0:0:
320,192,39341,1,0,0:0:0:0:
192,192,39341,1,0,0:0:0:0:
320,192,39507,1,0,0:0:0:0:
448,192,39507,1,0,0:0:0:0:
192,192,39674,1,0,0:0:0:0:
64,192,39674,1,0,0:0:0:0:
448,192,39841,128,0,40174:0:0:0:0:
320,192,39841,1,0,0:0:0:0:
64,192,40174,128,0,40507:0:0:0:0:
192,192,40174,1,0,0:0:0:0:
320,192,40507,1,0,0:0:0:0:
192,192,40507,128,0,41174:0:0:0:0:
448,192,41174,1,0,0:0:0:0:
320,192,41174,1,0,0:0:0:0:
448,192,41257,1,0,0:0:0:0:
320,192,41257,1,0,0:0:0:0:
64,192,41341,1,0,0:0:0:0:
192,192,41341,1,0,0:0:0:0:
64,192,41424,1,0,0:0:0:0:
192,192,41424,1,0,0:0:0:0:
448,192,41507,1,0,0:0:0:0:
320,192,41507,1,0,0:0:0:0:
64,192,41674,1,0,0:0:0:0:
448,192,41841,1,0,0:0:0:0:
64,192,41841,1,0,0:0:0:0:
320,192,41924,1,0,0:0:0:0:
192,192,41924,1,0,0:0:0:0:
64,192,42007,1,0,0:0:0:0:
320,192,42091,1,0,0:0:0:0:
448,192,42091,1,0,0:0:0:0:
64,192,42174,1,0,0:0:0:0:
192,192,42257,1,0,0:0:0:0:
448,192,42341,1,0,0:0:0:0:
320,192,42424,1,0,0:0:0:0:
448,192,42507,1,0,0:0:0:0:
64,192,42507,1,0,0:0:0:0:
320,192,42591,1,0,0:0:0:0:
192,192,42591,1,0,0:0:0:0:
64,192,42674,1,0,0:0:0:0:
320,192,42757,1,0,0:0:0:0:
64,192,42841,1,0,0:0:0:0:
192,192,42841,1,0,0:0:0:0:
320,192,42924,1,0,0:0:0:0:
448,192,43007,1,0,0:0:0:0:
64,192,43007,1,0,0:0:0:0:
320,192,43091,1,0,0:0:0:0:
192,192,43091,1,0,0:0:0:0:
64,192,43174,128,0,43341:0:0:0:0:
192,192,43341,1,0,0:0:0:0:
448,192,43341,1,0,0:0:0:0:
448,192,43507,128,0,43674:0:0:0:0:
320,192,43674,1,0,0:0:0:0:
64,192,43674,1,0,0:0:0:0:
448,192,43841,1,0,0:0:0:0:
64,192,43841,1,0,0:0:0:0:
320,192,43924,128,0,44007:0:0:0:0:
448,192,44007,1,0,0:0:0:0:
192,192,44007,1,0,0:0:0:0:
64,192,44091,128,0,44174:0:0:0:0:
192,192,44174,1,0,0:0:0:0:
448,192,44174,1,0,0:0:0:0:
320,192,44257,128,0,44341:0:0:0:0:
192,192,44341,1,0,0:0:0:0:
64,192,44341,1,0,0:0:0:0:
448,192,44424,128,0,44507:0:0:0:0:
320,192,44507,1,0,0:0:0:0:
64,192,44507,1,0,0:0:0:0:
64,192,44674,1,0,0:0:0:0:
448,192,44674,1,0,0:0:0:0:
192,192,44841,1,0,0:0:0:0:
320,192,44841,1,0,0:0:0:0:
64,192,45007,1,0,0:0:0:0:
320,192,45007,1,0,0:0:0:0:
448,192,45174,1,0,0:0:0:0:
192,192,45174,1,0,0:0:0:0:
320,192,45257,1,0,0:0:0:0:
64,192,45341,1,0,0:0:0:0:
192,192,45424,1,0,0:0:0:0:
448,192,45507,1,0,0:0:0:0:
320,192,45507,1,0,0:0:0:0:
64,192,45591,1,0,0:0:0:0:
448,192,45674,1,0,0:0:0:0:
320,192,45757,1,0,0:0:0:0:
192,192,45841,128,0,46174:0:0:0:0:
448,192,45841,1,0,0:0:0:0:
448,192,46174,128,0,46507:0:0:0:0:
320,192,46174,1,0,0:0:0:0:
192,192,46341,128,0,46507:0:0:0:0:
64,192,46341,1,0,0:0:0:0:
64,192,46507,128,0,46841:0:0:0:0:
320,192,46507,1,0,0:0:0:0:
448,192,46841,128,0,47174:0:0:0:0:
192,192,46841,1,0,0:0:0:0:
192,192,47174,128,0,47341:0:0:0:0:
64,192,47174,1,0,0:0:0:0:
448,192,47257,1,0,0:0:0:0:
64,192,47341,128,0,47841:0:0:0:0:
320,192,47341,1,0,0:0:0:0:
192,192,47424,1,0,0:0:0:0:
448,192,47507,1,0,0:0:0:0:
320,192,47591,1,0,0:0:0:0:
192,192,47674,128,0,47841:0:0:0:0:
448,192,47674,1,0,0:0:0:0:
448,192,47841,128,0,48507:0:0:0:0:
320,192,47841,1,0,0:0:0:0:
320,192,48174,1,0,0:0:0:0:
192,192,48285,1,0,0:0:0:0:
64,192,48396,1,0,0:0:0:0:
320,192,48507,1,0,0:0:0:0:
192,192,48507,1,0,0:0:0:0:
448,192,49174,1,0,0:0:0:0:
320,192,49174,1,0,0:0:0:0:
192,192,49174,1,0,0:0:0:0:
64,192,49174,1,0,0:0:0:0:
320,192,49341,1,0,0:0:0:0:
64,192,49341,1,0,0:0:0:0:
192,192,49507,1,0,0:0:0:0:
448,192,49507,1,0,0:0:0:0:
64,192,49674,1,0,0:0:0:0:
320,192,49674,1,0,0:0:0:0:
448,192,49841,1,0,0:0:0:0:
320,192,49841,1,0,0:0:0:0:
320,192,49952,1,0,0:0:0:0:
192,192,49952,1,0,0:0:0:0:
192,192,50063,1,0,0:0:0:0:
64,192,50063,1,0,0:0:0:0:
448,192,50174,1,0,0:0:0:0:
192,192,50174,1,0,0:0:0:0:
320,192,50285,1,0,0:0:0:0:
64,192,50285,1,0,0:0:0:0:
192,192,50396,1,0,0:0:0:0:
64,192,50396,1,0,0:0:0:0:
448,192,50507,1,0,0:0:0:0:
64,192,50507,1,0,0:0:0:0:
320,192,50549,1,0,0:0:0:0:
192,192,50591,1,0,0:0:0:0:
64,192,50632,1,0,0:0:0:0:
448,192,50674,1,0,0:0:0:0:
320,192,50757,1,0,0:0:0:0:
448,192,50896,1,0,0:0:0:0:
192,192,50896,1,0,0:0:0:0:
64,192,51174,128,0,51424:0:0:0:0:
448,192,51174,1,0,0:0:0:0:
64,192,51507,128,0,51757:0:0:0:0:
192,192,51507,1,0,0:0:0:0:
320,192,51841,128,0,52507:0:0:0:0:
64,192,51841,1,0,0:0:0:0:
448,192,51841,1,0,0:0:0:0:
64,192,52507,128,0,52674:0:0:0:0:
448,192,52507,1,0,0:0:0:0:
192,192,52591,128,0,52757:0:0:0:0:
320,192,52674,128,0,52841:0:0:0:0:
448,192,52757,128,0,52924:0:0:0:0:
64,192,52841,128,0,53007:0:0:0:0:
192,192,52924,128,0,53091:0:0:0:0:
448,192,53007,128,0,53174:0:0:0:0:
320,192,53091,128,0,53257:0:0:0:0:
192,192,53174,128,0,53341:0:0:0:0:
64,192,53257,128,0,53424:0:0:0:0:
320,192,53341,128,0,53507:0:0:0:0:
192,192,53424,128,0,53591:0:0:0:0:
448,192,53507,128,0,53674:0:0:0:0:
320,192,53591,128,0,53757:0:0:0:0:
192,192,53674,128,0,53841:0:0:0:0:
64,192,53757,128,0,53841:0:0:0:0:
448,192,53841,128,0,54091:0:0:0:0:
320,192,53841,1,0,0:0:0:0:
64,192,54007,128,0,54257:0:0:0:0:
192,192,54007,1,0,0:0:0:0:
448,192,54174,128,0,54424:0:0:0:0:
320,192,54174,1,0,0:0:0:0:
64,192,54341,128,0,54507:0:0:0:0:
192,192,54341,1,0,0:0:0:0:
448,192,54507,1,0,0:0:0:0:
192,192,54507,1,0,0:0:0:0:
320,192,54674,1,0,0:0:0:0:
64,192,54674,1,0,0:0:0:0:
448,192,54841,1,0,0:0:0:0:
64,192,54841,1,0,0:0:0:0:
320,192,55007,1,0,0:0:0:0:
192,192,55007,1,0,0:0:0:0:
64,192,55174,1,0,0:0:0:0:
320,192,55174,1,0,0:0:0:0:
192,192,55285,1,0,0:0:0:0:
320,192,55341,1,0,0:0:0:0:
448,192,55396,1,0,0:0:0:0:
192,192,55507,1,0,0:0:0:0:
64,192,55507,1,0,0:0:0:0:
448,192,55619,1,0,0:0:0:0:
192,192,55674,1,0,0:0:0:0:
320,192,55730,1,0,0:0:0:0:
448,192,55841,1,0,0:0:0:0:
192,192,55841,1,0,0:0:0:0:
64,192,55952,1,0,0:0:0:0:
448,192,56007,1,0,0:0:0:0:
320,192,56063,1,0,0:0:0:0:
192,192,56174,1,0,0:0:0:0:
448,192,56174,1,0,0:0:0:0:
320,192,56285,1,0,0:0:0:0:
192,192,56341,1,0,0:0:0:0:
64,192,56396,1,0,0:0:0:0:
320,192,56507,1,0,0:0:0:0:
448,192,56507,128,0,56841:0:0:0:0:
64,192,56841,128,0,57007:0:0:0:0:
192,192,56841,1,0,0:0:0:0:
320,192,57007,128,0,57174:0:0:0:0:
448,192,57007,1,0,0:0:0:0:
192,192,57174,128,0,57757:0:0:0:0:
64,192,57174,128,0,57757:0:0:0:0:
448,192,57507,128,0,57841:0:0:0:0:
320,192,57841,128,0,58257:0:0:0:0:
64,192,57841,1,0,0:0:0:0:
192,192,57841,1,0,0:0:0:0:
64,192,58007,1,0,0:0:0:0:
192,192,58091,128,0,58507:0:0:0:0:
448,192,58091,1,0,0:0:0:0:
64,192,58174,1,0,0:0:0:0:
448,192,58257,1,0,0:0:0:0:
320,192,58341,128,0,58507:0:0:0:0:
64,192,58341,1,0,0:0:0:0:
448,192,58507,1,0,0:0:0:0:
64,192,58507,1,0,0:0:0:0:
320,192,58619,1,0,0:0:0:0:
192,192,58730,1,0,0:0:0:0:
448,192,58841,1,0,0:0:0:0:
320,192,58841,1,0,0:0:0:0:
192,192,58952,1,0,0:0:0:0:
320,192,58952,1,0,0:0:0:0:
192,192,59063,1,0,0:0:0:0:
64,192,59063,1,0,0:0:0:0:
320,192,59174,1,0,0:0:0:0:
448,192,59174,1,0,0:0:0:0:
192,192,59257,1,0,0:0:0:0:
64,192,59257,1,0,0:0:0:0:
320,192,59341,1,0,0:0:0:0:
448,192,59341,1,0,0:0:0:0:
64,192,59424,1,0,0:0:0:0:
192,192,59424,1,0,0:0:0:0:
320,192,59507,1,0,0:0:0:0:
448,192,59549,1,0,0:0:0:0:
192,192,59591,1,0,0:0:0:0:
64,192,59632,1,0,0:0:0:0:
320,192,59674,1,0,0:0:0:0:
448,192,59716,1,0,0:0:0:0:
192,192,59757,1,0,0:0:0:0:
64,192,59799,1,0,0:0:0:0:
448,192,59841,1,0,0:0:0:0:
320,192,59841,1,0,0:0:0:0:
192,192,59924,128,0,60007:0:0:0:0:
320,192,60007,1,0,0:0:0:0:
64,192,60007,1,0,0:0:0:0:
448,192,60091,128,0,60174:0:0:0:0:
192,192,60174,1,0,0:0:0:0:
64,192,60174,1,0,0:0:0:0:
320,192,60257,128,0,60341:0:0:0:0:
192,192,60341,1,0,0:0:0:0:
448,192,60341,1,0,0:0:0:0:
64,192,60424,128,0,60507:0:0:0:0:
448,192,60507,1,0,0:0:0:0:
320,192,60507,1,0,0:0:0:0:
448,192,60730,1,0,0:0:0:0:
192,192,60730,1,0,0:0:0:0:
448,192,60952,1,0,0:0:0:0:
64,192,60952,1,0,0:0:0:0:
448,192,61174,128,0,61841:0:0:0:0:
320,192,61174,128,0,61841:0:0:0:0:
64,192,61841,128,0,62341:0:0:0:0:
192,192,61841,1,0,0:0:0:0:
320,192,62007,1,0,0:0:0:0:
448,192,62174,128,0,62507:0:0:0:0:
192,192,62174,1,0,0:0:0:0:
192,192,62507,128,0,63174:0:0:0:0:
320,192,62507,1,0,0:0:0:0:
448,192,62591,1,0,0:0:0:0:
320,192,62674,1,0,0:0:0:0:
64,192,62757,1,0,0:0:0:0:
320,192,62841,1,0,0:0:0:0:
64,192,62924,1,0,0:0:0:0:
448,192,63007,1,0,0:0:0:0:
320,192,63091,1,0,0:0:0:0:
64,192,63174,128,0,63341:0:0:0:0:
192,192,63257,128,0,63424:0:0:0:0:
320,192,63341,128,0,63507:0:0:0:0:
448,192,63424,128,0,63591:0:0:0:0:
192,192,63507,128,0,63674:0:0:0:0:
320,192,63591,128,0,63757:0:0:0:0:
64,192,63674,128,0,63841:0:0:0:0:
192,192,63757,128,0,63924:0:0:0:0:
448,192,63841,128,0,64007:0:0:0:0:
320,192,63924,128,0,64091:0:0:0:0:
192,192,64007,128,0,64174:0:0:0:0:
64,192,64091,128,0,64257:0:0:0:0:
320,192,64174,128,0,64341:0:0:0:0:
192,192,64257,128,0,64424:0:0:0:0:
448,192,64341,128,0,64507:0:0:0:0:
320,192,64424,128,0,64507:0:0:0:0:
64,192,64507,1,0,0:0:0:0:
192,192,64507,1,0,0:0:0:0:
448,192,64674,1,0,0:0:0:0:
192,192,64674,1,0,0:0:0:0:
448,192,64757,1,0,0:0:0:0:
320,192,64841,1,0,0:0:0:0:
448,192,64924,1,0,0:0:0:0:
64,192,65007,1,0,0:0:0:0:
448,192,65049,1,0,0:0:0:0:
320,192,65174,1,0,0:0:0:0:
192,192,65174,1,0,0:0:0:0:
448,192,65341,1,0,0:0:0:0:
320,192,65341,1,0,0:0:0:0:
64,192,65507,1,0,0:0:0:0:
192,192,65507,1,0,0:0:0:0:
192,192,65674,1,0,0:0:0:0:
320,192,65674,1,0,0:0:0:0:
64,192,65841,1,0,0:0:0:0:
448,192,65841,1,0,0:0:0:0:
320,192,65841,1,0,0:0:0:0:
192,192,66007,1,0,0:0:0:0:
64,192,66091,1,0,0:0:0:0:
320,192,66091,1,0,0:0:0:0:
192,192,66174,1,0,0:0:0:0:
448,192,66174,1,0,0:0:0:0:
64,192,66257,1,0,0:0:0:0:
448,192,66341,1,0,0:0:0:0:
64,192,66341,1,0,0:0:0:0:
320,192,66424,1,0,0:0:0:0:
448,192,66424,1,0,0:0:0:0:
64,192,66507,1,0,0:0:0:0:
192,192,66507,1,0,0:0:0:0:
320,192,66507,1,0,0:0:0:0:
448,192,66674,1,0,0:0:0:0:
192,192,66674,1,0,0:0:0:0:
64,192,66674,1,0,0:0:0:0:
448,192,66841,1,0,0:0:0:0:
320,192,66882,1,0,0:0:0:0:
192,192,66924,1,0,0:0:0:0:
64,192,66966,1,0,0:0:0:0:
448,192,67007,1,0,0:0:0:0:
320,192,67049,1,0,0:0:0:0:
192,192,67091,1,0,0:0:0:0:
64,192,67132,1,0,0:0:0:0:
320,192,67174,1,0,0:0:0:0:
448,192,67174,1,0,0:0:0:0:
192,192,67257,1,0,0:0:0:0:
64,192,67341,1,0,0:0:0:0:
320,192,67424,1,0,0:0:0:0:
448,192,67507,1,0,0:0:0:0:
192,192,67591,1,0,0:0:0:0:
64,192,67674,1,0,0:0:0:0:
320,192,67757,1,0,0:0:0:0:
192,192,67841,1,0,0:0:0:0:
448,192,67841,1,0,0:0:0:0:
320,192,67841,128,0,68007:0:0:0:0:
448,192,68007,128,0,68174:0:0:0:0:
64,192,68174,128,0,68341:0:0:0:0:
192,192,68341,128,0,68507:0:0:0:0:
448,192,68507,1,0,0:0:0:0:
320,192,68507,1,0,0:0:0:0:
192,192,68591,1,0,0:0:0:0:
64,192,68674,5,0,0:0:0:0:
192,192,68757,5,0,0:0:0:0:
448,192,68841,1,0,0:0:0:0:
320,192,68841,1,0,0:0:0:0:
448,192,68924,1,0,0:0:0:0:
320,192,68924,1,0,0:0:0:0:
192,192,69007,1,0,0:0:0:0:
64,192,69007,1,0,0:0:0:0:
64,192,69091,1,0,0:0:0:0:
192,192,69091,1,0,0:0:0:0:
448,192,69174,1,0,0:0:0:0:
320,192,69216,1,0,0:0:0:0:
192,192,69257,1,0,0:0:0:0:
64,192,69299,1,0,0:0:0:0:
448,192,69341,1,0,0:0:0:0:
320,192,69382,1,0,0:0:0:0:
192,192,69424,1,0,0:0:0:0:
64,192,69466,1,0,0:0:0:0:
448,192,69507,1,0,0:0:0:0:
320,192,69674,1,0,0:0:0:0:
64,192,69841,5,0,0:0:0:0:
192,192,69841,1,0,0:0:0:0:
448,192,69841,1,0,0:0:0:0:
320,192,70007,1,0,0:0:0:0:
64,192,70174,1,0,0:0:0:0:
320,192,70174,1,0,0:0:0:0:
448,192,70174,1,0,0:0:0:0:
192,192,70341,1,0,0:0:0:0:
192,192,70507,1,0,0:0:0:0:
320,192,70507,1,0,0:0:0:0:
448,192,70507,1,0,0:0:0:0:
448,192,70674,1,0,0:0:0:0:
64,192,70841,1,0,0:0:0:0:
192,192,70841,1,0,0:0:0:0:
320,192,70841,1,0,0:0:0:0:
320,192,71007,1,0,0:0:0:0:
448,192,71174,1,0,0:0:0:0:
192,192,71174,1,0,0:0:0:0:
64,192,71174,1,0,0:0:0:0:
192,192,71341,1,0,0:0:0:0:
64,192,71507,1,0,0:0:0:0:
192,192,71507,1,0,0:0:0:0:
448,192,71507,1,0,0:0:0:0:
64,192,71674,1,0,0:0:0:0:
448,192,71841,1,0,0:0:0:0:
320,192,71841,1,0,0:0:0:0:
64,192,71841,1,0,0:0:0:0:
192,192,72007,1,0,0:0:0:0:
320,192,72174,1,0,0:0:0:0:
448,192,72174,1,0,0:0:0:0:
64,192,72257,1,0,0:0:0:0:
192,192,72257,1,0,0:0:0:0:
448,192,72341,1,0,0:0:0:0:
320,192,72341,1,0,0:0:0:0:
192,192,72424,1,0,0:0:0:0:
64,192,72424,1,0,0:0:0:0:
448,192,72507,1,0,0:0:0:0:
320,192,72507,1,0,0:0:0:0:
64,192,72507,1,0,0:0:0:0:
64,192,72674,1,0,0:0:0:0:
192,192,72674,1,0,0:0:0:0:
448,192,72674,1,0,0:0:0:0:
320,192,72841,1,0,0:0:0:0:
192,192,72841,1,0,0:0:0:0:
448,192,72841,1,0,0:0:0:0:
64,192,73007,1,0,0:0:0:0:
192,192,73007,1,0,0:0:0:0:
320,192,73007,1,0,0:0:0:0:
448,192,73174,1,0,0:0:0:0:
320,192,73174,1,0,0:0:0:0:
64,192,73174,1,0,0:0:0:0:
448,192,73341,1,0,0:0:0:0:
320,192,73341,1,0,0:0:0:0:
64,192,73341,1,0,0:0:0:0:
320,192,73507,1,0,0:0:0:0:
192,192,73507,1,0,0:0:0:0:
448,192,73507,1,0,0:0:0:0:
192,192,73674,1,0,0:0:0:0:
448,192,73674,1,0,0:0:0:0:
64,192,73757,1,0,0:0:0:0:
320,192,73757,1,0,0:0:0:0:
448,192,73841,1,0,0:0:0:0:
192,192,73841,1,0,0:0:0:0:
320,192,74007,1,0,0:0:0:0:
448,192,74007,1,0,0:0:0:0:
192,192,74007,1,0,0:0:0:0:
320,192,74174,1,0,0:0:0:0:
192,192,74174,1,0,0:0:0:0:
64,192,74174,1,0,0:0:0:0:
320,192,74341,1,0,0:0:0:0:
192,192,74341,1,0,0:0:0:0:
64,192,74341,1,0,0:0:0:0:
320,192,75174,1,0,0:0:0:0:
448,192,75174,1,0,0:0:0:0:
192,192,75174,1,0,0:0:0:0:
64,192,75174,1,0,0:0:0:0:
192,192,75257,1,0,0:0:0:0:
64,192,75257,1,0,0:0:0:0:
320,192,75341,1,0,0:0:0:0:
448,192,75341,1,0,0:0:0:0:
192,192,75424,1,0,0:0:0:0:
64,192,75424,1,0,0:0:0:0:
320,192,75507,1,0,0:0:0:0:
448,192,75507,1,0,0:0:0:0:
64,192,75591,1,0,0:0:0:0:
192,192,75591,1,0,0:0:0:0:
320,192,75674,1,0,0:0:0:0:
448,192,75674,1,0,0:0:0:0:
64,192,75757,1,0,0:0:0:0:
192,192,75757,1,0,0:0:0:0:
448,192,75841,1,0,0:0:0:0:
320,192,75841,1,0,0:0:0:0:
192,192,75924,1,0,0:0:0:0:
64,192,75924,1,0,0:0:0:0:
448,192,76007,1,0,0:0:0:0:
320,192,76007,1,0,0:0:0:0:
192,192,76091,1,0,0:0:0:0:
64,192,76091,1,0,0:0:0:0:
320,192,76174,1,0,0:0:0:0:
448,192,76174,1,0,0:0:0:0:
64,192,76257,1,0,0:0:0:0:
192,192,76257,1,0,0:0:0:0:
320,192,76341,1,0,0:0:0:0:
448,192,76341,1,0,0:0:0:0:
64,192,76424,1,0,0:0:0:0:
192,192,76424,1,0,0:0:0:0:
320,192,76507,1,0,0:0:0:0:
448,192,76507,1,0,0:0:0:0:
192,192,76757,1,0,0:0:0:0:
64,192,76841,1,0,0:0:0:0:
64,192,77007,1,0,0:0:0:0:
448,192,77091,1,0,0:0:0:0:
320,192,77091,1,0,0:0:0:0:
192,192,77174,1,0,0:0:0:0:
64,192,77257,1,0,0:0:0:0:
320,192,77341,1,0,0:0:0:0:
192,192,77424,1,0,0:0:0:0:
448,192,77507,1,0,0:0:0:0:
64,192,77507,1,0,0:0:0:0:
320,192,77507,1,0,0:0:0:0:
448,192,77674,1,0,0:0:0:0:
64,192,77674,1,0,0:0:0:0:
320,192,77730,1,0,0:0:0:0:
192,192,77785,1,0,0:0:0:0:
448,192,77841,1,0,0:0:0:0:
320,192,77841,1,0,0:0:0:0:
64,192,77841,1,0,0:0:0:0:
64,192,78007,1,0,0:0:0:0:
320,192,78007,1,0,0:0:0:0:
192,192,78174,1,0,0:0:0:0:
320,192,78174,1,0,0:0:0:0:
448,192,78174,1,0,0:0:0:0:
64,192,78341,1,0,0:0:0:0:
192,192,78341,1,0,0:0:0:0:
64,192,78507,1,0,0:0:0:0:
320,192,78507,1,0,0:0:0:0:
192,192,78674,1,0,0:0:0:0:
320,192,78674,1,0,0:0:0:0:
192,192,78841,1,0,0:0:0:0:
448,192,78841,1,0,0:0:0:0:
64,192,79007,1,0,0:0:0:0:
448,192,79007,1,0,0:0:0:0:
192,192,79091,1,0,0:0:0:0:
320,192,79091,1,0,0:0:0:0:
448,192,79174,1,0,0:0:0:0:
64,192,79174,1,0,0:0:0:0:
64,192,79341,1,0,0:0:0:0:
320,192,79341,1,0,0:0:0:0:
192,192,79507,1,0,0:0:0:0:
448,192,79507,1,0,0:0:0:0:
320,192,79674,1,0,0:0:0:0:
448,192,79674,1,0,0:0:0:0:
448,192,79841,1,0,0:0:0:0:
192,192,79841,1,0,0:0:0:0:
320,192,79924,1,0,0:0:0:0:
192,192,80007,1,0,0:0:0:0:
448,192,80007,1,0,0:0:0:0:
64,192,80091,1,0,0:0:0:0:
320,192,80174,1,0,0:0:0:0:
448,192,80174,1,0,0:0:0:0:
192,192,80257,1,0,0:0:0:0:
320,192,80341,1,0,0:0:0:0:
448,192,80396,1,0,0:0:0:0:
320,192,80452,1,0,0:0:0:0:
192,192,80507,1,0,0:0:0:0:
64,192,80563,1,0,0:0:0:0:
192,192,80674,1,0,0:0:0:0:
64,192,80785,1,0,0:0:0:0:
192,192,80841,1,0,0:0:0:0:
320,192,80896,1,0,0:0:0:0:
448,192,80952,1,0,0:0:0:0:
320,192,81007,1,0,0:0:0:0:
192,192,81091,1,0,0:0:0:0:
64,192,81174,1,0,0:0:0:0:
64,192,81341,1,0,0:0:0:0:
64,192,81424,1,0,0:0:0:0:
320,192,81507,1,0,0:0:0:0:
192,192,81591,1,0,0:0:0:0:
320,192,81674,1,0,0:0:0:0:
448,192,81757,1,0,0:0:0:0:
320,192,81841,128,0,82174:0:0:0:0:
192,192,81841,1,0,0:0:0:0:
64,192,81952,1,0,0:0:0:0:
192,192,82063,1,0,0:0:0:0:
448,192,82174,1,0,0:0:0:0:
320,192,82285,1,0,0:0:0:0:
192,192,82396,1,0,0:0:0:0:
448,192,82507,1,0,0:0:0:0:
320,192,82507,1,0,0:0:0:0:
448,192,82619,1,0,0:0:0:0:
192,192,82619,1,0,0:0:0:0:
448,192,82730,1,0,0:0:0:0:
64,192,82730,1,0,0:0:0:0:
320,192,82841,1,0,0:0:0:0:
192,192,82952,1,0,0:0:0:0:
64,192,83063,1,0,0:0:0:0:
448,192,83174,1,0,0:0:0:0:
320,192,83174,1,0,0:0:0:0:
192,192,83257,1,0,0:0:0:0:
64,192,83341,1,0,0:0:0:0:
192,192,83424,1,0,0:0:0:0:
320,192,83507,1,0,0:0:0:0:
448,192,83507,1,0,0:0:0:0:
64,192,83674,1,0,0:0:0:0:
320,192,83674,1,0,0:0:0:0:
192,192,83757,1,0,0:0:0:0:
448,192,83841,1,0,0:0:0:0:
320,192,83841,1,0,0:0:0:0:
64,192,83924,1,0,0:0:0:0:
192,192,84007,1,0,0:0:0:0:
320,192,84007,1,0,0:0:0:0:
448,192,84091,1,0,0:0:0:0:
64,192,84174,1,0,0:0:0:0:
320,192,84174,1,0,0:0:0:0:
192,192,84257,1,0,0:0:0:0:
64,192,84341,1,0,0:0:0:0:
320,192,84341,1,0,0:0:0:0:
448,192,84424,1,0,0:0:0:0:
192,192,84424,1,0,0:0:0:0:
320,192,84507,1,0,0:0:0:0:
64,192,84507,1,0,0:0:0:0:
448,192,84674,1,0,0:0:0:0:
192,192,84674,1,0,0:0:0:0:
320,192,84841,1,0,0:0:0:0:
448,192,84841,1,0,0:0:0:0:
320,192,85007,1,0,0:0:0:0:
64,192,85007,1,0,0:0:0:0:
192,192,85174,1,0,0:0:0:0:
64,192,85174,128,0,85674:0:0:0:0:
320,192,85341,1,0,0:0:0:0:
448,192,85507,1,0,0:0:0:0:
320,192,85507,1,0,0:0:0:0:
448,192,85674,1,0,0:0:0:0:
192,192,85674,1,0,0:0:0:0:
448,192,85841,1,0,0:0:0:0:
192,192,85841,1,0,0:0:0:0:
320,192,86007,1,0,0:0:0:0:
64,192,86007,1,0,0:0:0:0:
320,192,86174,1,0,0:0:0:0:
64,192,86174,1,0,0:0:0:0:
64,192,86341,1,0,0:0:0:0:
192,192,86424,1,0,0:0:0:0:
320,192,86507,1,0,0:0:0:0:
192,192,86674,1,0,0:0:0:0:
64,192,86757,1,0,0:0:0:0:
448,192,86841,1,0,0:0:0:0:
320,192,86841,1,0,0:0:0:0:
192,192,86924,1,0,0:0:0:0:
64,192,86924,1,0,0:0:0:0:
448,192,87007,1,0,0:0:0:0:
320,192,87007,1,0,0:0:0:0:
192,192,87091,1,0,0:0:0:0:
64,192,87091,1,0,0:0:0:0:
448,192,87174,1,0,0:0:0:0:
320,192,87285,1,0,0:0:0:0:
192,192,87396,1,0,0:0:0:0:
320,192,87507,1,0,0:0:0:0:
448,192,87507,1,0,0:0:0:0:
320,192,87619,1,0,0:0:0:0:
192,192,87619,1,0,0:0:0:0:
64,192,87730,1,0,0:0:0:0:
192,192,87730,1,0,0:0:0:0:
448,192,87841,1,0,0:0:0:0:
320,192,87952,1,0,0:0:0:0:
192,192,88063,1,0,0:0:0:0:
448,192,88174,1,0,0:0:0:0:
320,192,88174,1,0,0:0:0:0:
448,192,88257,1,0,0:0:0:0:
320,192,88257,1,0,0:0:0:0:
448,192,88341,1,0,0:0:0:0:
320,192,88341,1,0,0:0:0:0:
448,192,88424,1,0,0:0:0:0:
320,192,88424,1,0,0:0:0:0:
192,192,88507,1,0,0:0:0:0:
64,192,88507,1,0,0:0:0:0:
64,192,88674,1,0,0:0:0:0:
448,192,88841,1,0,0:0:0:0:
320,192,88841,1,0,0:0:0:0:
64,192,89007,1,0,0:0:0:0:
448,192,89007,1,0,0:0:0:0:
192,192,89174,1,0,0:0:0:0:
320,192,89174,1,0,0:0:0:0:
320,192,89341,1,0,0:0:0:0:
192,192,89341,1,0,0:0:0:0:
64,192,89507,1,0,0:0:0:0:
448,192,89507,1,0,0:0:0:0:
320,192,89507,1,0,0:0:0:0:
64,192,89674,1,0,0:0:0:0:
192,192,89674,1,0,0:0:0:0:
448,192,89757,1,0,0:0:0:0:
64,192,89757,1,0,0:0:0:0:
320,192,89757,1,0,0:0:0:0:
448,192,89841,1,0,0:0:0:0:
192,192,89841,1,0,0:0:0:0:
192,192,90007,1,0,0:0:0:0:
448,192,90007,1,0,0:0:0:0:
320,192,90174,1,0,0:0:0:0:
448,192,90174,1,0,0:0:0:0:
64,192,90341,1,0,0:0:0:0:
320,192,90341,1,0,0:0:0:0:
192,192,90507,1,0,0:0:0:0:
64,192,90507,1,0,0:0:0:0:
448,192,90619,1,0,0:0:0:0:
320,192,90730,1,0,0:0:0:0:
192,192,90841,1,0,0:0:0:0:
64,192,90924,1,0,0:0:0:0:
192,192,91007,1,0,0:0:0:0:
448,192,91063,1,0,0:0:0:0:
320,192,91119,1,0,0:0:0:0:
192,192,91174,1,0,0:0:0:0:
64,192,91230,1,0,0:0:0:0:
320,192,91341,1,0,0:0:0:0:
64,192,91396,1,0,0:0:0:0:
192,192,91452,1,0,0:0:0:0:
320,192,91507,1,0,0:0:0:0:
448,192,91563,1,0,0:0:0:0:
320,192,91674,1,0,0:0:0:0:
192,192,91757,1,0,0:0:0:0:
64,192,91841,1,0,0:0:0:0:
448,192,92007,1,0,0:0:0:0:
320,192,92091,1,0,0:0:0:0:
192,192,92174,1,0,0:0:0:0:
448,192,92174,1,0,0:0:0:0:
64,192,92257,1,0,0:0:0:0:
448,192,92341,1,0,0:0:0:0:
320,192,92424,1,0,0:0:0:0:
192,192,92507,128,0,92841:0:0:0:0:
448,192,92507,1,0,0:0:0:0:
320,192,92619,1,0,0:0:0:0:
64,192,92730,1,0,0:0:0:0:
320,192,92841,1,0,0:0:0:0:
192,192,92952,1,0,0:0:0:0:
64,192,93063,1,0,0:0:0:0:
448,192,93174,1,0,0:0:0:0:
320,192,93174,1,0,0:0:0:0:
320,192,93285,1,0,0:0:0:0:
192,192,93285,1,0,0:0:0:0:
192,192,93396,1,0,0:0:0:0:
64,192,93396,1,0,0:0:0:0:
320,192,93507,1,0,0:0:0:0:
192,192,93619,1,0,0:0:0:0:
64,192,93730,1,0,0:0:0:0:
448,192,93841,1,0,0:0:0:0:
320,192,93841,1,0,0:0:0:0:
192,192,93924,1,0,0:0:0:0:
64,192,94007,1,0,0:0:0:0:
192,192,94091,1,0,0:0:0:0:
320,192,94174,1,0,0:0:0:0:
448,192,94174,1,0,0:0:0:0:
448,192,94341,1,0,0:0:0:0:
320,192,94341,1,0,0:0:0:0:
64,192,94424,1,0,0:0:0:0:
320,192,94507,1,0,0:0:0:0:
192,192,94507,1,0,0:0:0:0:
64,192,94591,1,0,0:0:0:0:
320,192,94674,1,0,0:0:0:0:
192,192,94674,1,0,0:0:0:0:
448,192,94757,1,0,0:0:0:0:
64,192,94841,128,0,94924:0:0:0:0:
192,192,94841,128,0,94924:0:0:0:0:
448,192,94924,1,0,0:0:0:0:
64,192,95007,1,0,0:0:0:0:
192,192,95007,1,0,0:0:0:0:
192,192,95174,1,0,0:0:0:0:
320,192,95174,1,0,0:0:0:0:
64,192,95341,1,0,0:0:0:0:
192,192,95341,1,0,0:0:0:0:
320,192,95507,1,0,0:0:0:0:
448,192,95507,1,0,0:0:0:0:
320,192,95674,1,0,0:0:0:0:
192,192,95674,1,0,0:0:0:0:
192,192,95841,1,0,0:0:0:0:
64,192,95841,1,0,0:0:0:0:
320,192,95924,1,0,0:0:0:0:
192,192,96007,1,0,0:0:0:0:
64,192,96091,1,0,0:0:0:0:
448,192,96174,128,0,96257:0:0:0:0:
320,192,96174,128,0,96257:0:0:0:0:
192,192,96257,1,0,0:0:0:0:
448,192,96341,1,0,0:0:0:0:
320,192,96341,1,0,0:0:0:0:
64,192,96507,1,0,0:0:0:0:
192,192,96507,1,0,0:0:0:0:
64,192,96674,1,0,0:0:0:0:
192,192,96674,1,0,0:0:0:0:
320,192,96841,1,0,0:0:0:0:
448,192,96841,1,0,0:0:0:0:
64,192,97007,1,0,0:0:0:0:
192,192,97091,1,0,0:0:0:0:
320,192,97174,1,0,0:0:0:0:
448,192,97341,1,0,0:0:0:0:
448,192,97507,1,0,0:0:0:0:
320,192,97591,1,0,0:0:0:0:
192,192,97674,1,0,0:0:0:0:
64,192,97757,1,0,0:0:0:0:
448,192,97841,1,0,0:0:0:0:
320,192,97952,1,0,0:0:0:0:
192,192,98063,1,0,0:0:0:0:
64,192,98174,1,0,0:0:0:0:
320,192,98174,1,0,0:0:0:0:
192,192,98285,1,0,0:0:0:0:
448,192,98285,1,0,0:0:0:0:
320,192,98396,1,0,0:0:0:0:
64,192,98396,1,0,0:0:0:0:
192,192,98507,1,0,0:0:0:0:
64,192,98619,1,0,0:0:0:0:
192,192,98730,1,0,0:0:0:0:
448,192,98841,1,0,0:0:0:0:
320,192,98952,1,0,0:0:0:0:
64,192,98952,128,0,99174:0:0:0:0:
192,192,99063,1,0,0:0:0:0:
192,192,99174,1,0,0:0:0:0:
320,192,99174,1,0,0:0:0:0:
448,192,99174,1,0,0:0:0:0:
64,192,99341,1,0,0:0:0:0:
448,192,99507,1,0,0:0:0:0:
192,192,99674,1,0,0:0:0:0:
320,192,99674,1,0,0:0:0:0:
448,192,99841,1,0,0:0:0:0:
64,192,99841,1,0,0:0:0:0:
448,192,100007,1,0,0:0:0:0:
64,192,100007,1,0,0:0:0:0:
192,192,100174,1,0,0:0:0:0:
320,192,100174,1,0,0:0:0:0:
64,192,100341,1,0,0:0:0:0:
192,192,100341,1,0,0:0:0:0:
448,192,100424,1,0,0:0:0:0:
320,192,100424,1,0,0:0:0:0:
192,192,100507,128,0,101174:0:0:0:0:
64,192,100507,1,0,0:0:0:0:
320,192,100674,1,0,0:0:0:0:
448,192,100841,1,0,0:0:0:0:
320,192,101007,1,0,0:0:0:0:
448,192,101174,128,0,101507:0:0:0:0:
64,192,101174,1,0,0:0:0:0:
192,192,101341,1,0,0:0:0:0:
64,192,101507,128,0,101841:0:0:0:0:
320,192,101507,1,0,0:0:0:0:
448,192,101841,1,0,0:0:0:0:
192,192,101841,1,0,0:0:0:0:
320,192,101924,1,0,0:0:0:0:
64,192,101924,1,0,0:0:0:0:
448,192,102007,1,0,0:0:0:0:
192,192,102007,1,0,0:0:0:0:
320,192,102091,1,0,0:0:0:0:
64,192,102091,1,0,0:0:0:0:
448,192,102174,128,0,102341:0:0:0:0:
192,192,102174,128,0,102507:0:0:0:0:
448,192,102507,1,0,0:0:0:0:
320,192,102507,1,0,0:0:0:0:
320,192,102619,1,0,0:0:0:0:
192,192,102619,1,0,0:0:0:0:
192,192,102730,1,0,0:0:0:0:
64,192,102730,1,0,0:0:0:0:
320,192,102841,128,0,103174:0:0:0:0:
64,192,102841,128,0,103007:0:0:0:0:
448,192,103174,1,0,0:0:0:0:
64,192,103174,1,0,0:0:0:0:
320,192,103257,1,0,0:0:0:0:
192,192,103257,1,0,0:0:0:0:
448,192,103341,1,0,0:0:0:0:
64,192,103341,1,0,0:0:0:0:
320,192,103424,1,0,0:0:0:0:
192,192,103424,1,0,0:0:0:0:
448,192,103507,1,0,0:0:0:0:
64,192,103507,1,0,0:0:0:0:
320,192,103674,1,0,0:0:0:0:
64,192,103674,1,0,0:0:0:0:
192,192,103841,1,0,0:0:0:0:
64,192,103841,1,0,0:0:0:0:
64,192,104007,1,0,0:0:0:0:
448,192,104174,1,0,0:0:0:0:
320,192,104285,1,0,0:0:0:0:
192,192,104396,1,0,0:0:0:0:
448,192,104507,1,0,0:0:0:0:
320,192,104507,1,0,0:0:0:0:
64,192,104507,1,0,0:0:0:0:
192,192,104591,1,0,0:0:0:0:
64,192,104674,1,0,0:0:0:0:
192,192,104757,1,0,0:0:0:0:
320,192,104841,1,0,0:0:0:0:
448,192,104841,1,0,0:0:0:0:
64,192,105007,1,0,0:0:0:0:
320,192,105007,1,0,0:0:0:0:
192,192,105091,1,0,0:0:0:0:
64,192,105174,1,0,0:0:0:0:
448,192,105174,1,0,0:0:0:0:
320,192,105257,1,0,0:0:0:0:
448,192,105341,1,0,0:0:0:0:
192,192,105341,1,0,0:0:0:0:
320,192,105424,1,0,0:0:0:0:
448,192,105507,1,0,0:0:0:0:
64,192,105507,1,0,0:0:0:0:
192,192,105591,1,0,0:0:0:0:
320,192,105674,1,0,0:0:0:0:
448,192,105674,1,0,0:0:0:0:
64,192,105757,1,0,0:0:0:0:
448,192,105841,128,0,106507:0:0:0:0:
192,192,105841,1,0,0:0:0:0:
64,192,106007,1,0,0:0:0:0:
192,192,106174,1,0,0:0:0:0:
320,192,106341,1,0,0:0:0:0:
192,192,106507,128,0,106841:0:0:0:0:
64,192,106674,128,0,107007:0:0:0:0:
448,192,106841,128,0,107174:0:0:0:0:
320,192,106841,1,0,0:0:0:0:
320,192,107007,128,0,107174:0:0:0:0:
192,192,107174,1,0,0:0:0:0:
64,192,107174,1,0,0:0:0:0:
192,192,107341,1,0,0:0:0:0:
64,192,107341,1,0,0:0:0:0:
192,192,107507,128,0,107841:0:0:0:0:
64,192,107507,128,0,107841:0:0:0:0:
448,192,107507,1,0,0:0:0:0:
448,192,107841,1,0,0:0:0:0:
320,192,107841,1,0,0:0:0:0:
192,192,107952,1,0,0:0:0:0:
64,192,107952,1,0,0:0:0:0:
448,192,108063,1,0,0:0:0:0:
320,192,108063,1,0,0:0:0:0:
448,192,108174,128,0,108507:0:0:0:0:
320,192,108174,128,0,108507:0:0:0:0:
64,192,108174,1,0,0:0:0:0:
64,192,108507,1,0,0:0:0:0:
192,192,108507,1,0,0:0:0:0:
320,192,108591,1,0,0:0:0:0:
448,192,108591,1,0,0:0:0:0:
64,192,108674,1,0,0:0:0:0:
192,192,108674,1,0,0:0:0:0:
320,192,108757,1,0,0:0:0:0:
448,192,108757,1,0,0:0:0:0:
64,192,108841,1,0,0:0:0:0:
192,192,108841,1,0,0:0:0:0:
320,192,109007,1,0,0:0:0:0:
192,192,109174,1,0,0:0:0:0:
64,192,109341,1,0,0:0:0:0:
448,192,109507,1,0,0:0:0:0:
320,192,109619,1,0,0:0:0:0:
192,192,109730,1,0,0:0:0:0:
448,192,109841,1,0,0:0:0:0:
320,192,109841,128,0,110341:0:0:0:0:
192,192,110007,1,0,0:0:0:0:
64,192,110091,1,0,0:0:0:0:
448,192,110174,1,0,0:0:0:0:
192,192,110341,128,0,110507:0:0:0:0:
448,192,110507,128,0,110757:0:0:0:0:
320,192,110757,128,0,111007:0:0:0:0:
64,192,110841,1,0,0:0:0:0:
448,192,111007,128,0,111174:0:0:0:0:
192,192,111132,1,0,0:0:0:0:
64,192,111174,128,0,113841:0:0:0:0:
320,192,111341,1,0,0:0:0:0:
192,192,111424,1,0,0:0:0:0:
448,192,111507,1,0,0:0:0:0:
192,192,111674,1,0,0:0:0:0:
192,192,112007,1,0,0:0:0:0:
448,192,112174,1,0,0:0:0:0:
192,192,112341,1,0,0:0:0:0:
448,192,112507,1,0,0:0:0:0:
320,192,112619,1,0,0:0:0:0:
192,192,112730,1,0,0:0:0:0:
448,192,112841,1,0,0:0:0:0:
320,192,112952,1,0,0:0:0:0:
192,192,113063,1,0,0:0:0:0:
448,192,113119,1,0,0:0:0:0:
192,192,113230,1,0,0:0:0:0:
320,192,113341,1,0,0:0:0:0:
448,192,113452,1,0,0:0:0:0:
192,192,113563,1,0,0:0:0:0:
448,192,113674,1,0,0:0:0:0:
192,192,113757,1,0,0:0:0:0:
448,192,113841,128,0,114507:0:0:0:0:
320,192,113841,1,0,0:0:0:0:
192,192,114007,1,0,0:0:0:0:
320,192,114091,1,0,0:0:0:0:
192,192,114174,1,0,0:0:0:0:
64,192,114341,1,0,0:0:0:0:
320,192,114507,1,0,0:0:0:0:
192,192,114507,128,0,115174:0:0:0:0:
64,192,114674,1,0,0:0:0:0:
320,192,114841,1,0,0:0:0:0:
64,192,115007,1,0,0:0:0:0:
448,192,115174,1,0,0:0:0:0:
320,192,115174,1,0,0:0:0:0:
64,192,115174,1,0,0:0:0:0:
64,192,115341,1,0,0:0:0:0:
448,192,115507,1,0,0:0:0:0:
320,192,115507,1,0,0:0:0:0:
64,192,115507,1,0,0:0:0:0:
192,192,115674,1,0,0:0:0:0:
448,192,115841,1,0,0:0:0:0:
64,192,115841,1,0,0:0:0:0:
192,192,115841,1,0,0:0:0:0:
320,192,116007,1,0,0:0:0:0:
64,192,116174,1,0,0:0:0:0:
192,192,116174,1,0,0:0:0:0:
448,192,116174,1,0,0:0:0:0:
320,192,116341,1,0,0:0:0:0:
64,192,116507,1,0,0:0:0:0:
192,192,116507,1,0,0:0:0:0:
320,192,116507,1,0,0:0:0:0:
448,192,116674,1,0,0:0:0:0:
64,192,116841,1,0,0:0:0:0:
192,192,116841,1,0,0:0:0:0:
320,192,116841,1,0,0:0:0:0:
448,192,117007,1,0,0:0:0:0:
448,192,117174,1,0,0:0:0:0:
320,192,117174,1,0,0:0:0:0:
192,192,117174,1,0,0:0:0:0:
192,192,117341,1,0,0:0:0:0:
64,192,117341,1,0,0:0:0:0:
320,192,117341,1,0,0:0:0:0:
320,192,117507,1,0,0:0:0:0:
448,192,117507,1,0,0:0:0:0:
192,192,117507,1,0,0:0:0:0:
192,192,117674,1,0,0:0:0:0:
64,192,117674,1,0,0:0:0:0:
320,192,117674,1,0,0:0:0:0:
448,192,117841,1,0,0:0:0:0:
192,192,117841,1,0,0:0:0:0:
320,192,117924,1,0,0:0:0:0:
64,192,117924,1,0,0:0:0:0:
448,192,118007,1,0,0:0:0:0:
192,192,118007,1,0,0:0:0:0:
320,192,118091,1,0,0:0:0:0:
64,192,118091,1,0,0:0:0:0:
448,192,118174,1,0,0:0:0:0:
192,192,118174,1,0,0:0:0:0:
320,192,118257,1,0,0:0:0:0:
64,192,118257,1,0,0:0:0:0:
448,192,118341,1,0,0:0:0:0:
192,192,118341,1,0,0:0:0:0:
320,192,118424,1,0,0:0:0:0:
64,192,118424,1,0,0:0:0:0:
448,192,118507,1,0,0:0:0:0:
64,192,118507,1,0,0:0:0:0:
320,192,118591,1,0,0:0:0:0:
192,192,118591,1,0,0:0:0:0:
448,192,118674,1,0,0:0:0:0:
64,192,118674,1,0,0:0:0:0:
320,192,118757,1,0,0:0:0:0:
192,192,118757,1,0,0:0:0:0:
448,192,118841,1,0,0:0:0:0:
64,192,118841,1,0,0:0:0:0:
320,192,118924,1,0,0:0:0:0:
192,192,118924,1,0,0:0:0:0:
448,192,119007,1,0,0:0:0:0:
64,192,119007,1,0,0:0:0:0:
192,192,119091,1,0,0:0:0:0:
320,192,119091,1,0,0:0:0:0:
448,192,119174,1,0,0:0:0:0:
192,192,119174,1,0,0:0:0:0:
320,192,119257,1,0,0:0:0:0:
64,192,119257,1,0,0:0:0:0:
448,192,119341,1,0,0:0:0:0:
192,192,119341,1,0,0:0:0:0:
320,192,119424,1,0,0:0:0:0:
64,192,119424,1,0,0:0:0:0:
448,192,119507,1,0,0:0:0:0:
192,192,119507,1,0,0:0:0:0:
320,192,119591,1,0,0:0:0:0:
64,192,119591,1,0,0:0:0:0:
448,192,119674,1,0,0:0:0:0:
192,192,119674,1,0,0:0:0:0:
320,192,119757,1,0,0:0:0:0:
64,192,119757,1,0,0:0:0:0:
448,192,119841,1,0,0:0:0:0:
320,192,119841,1,0,0:0:0:0:
192,192,119924,1,0,0:0:0:0:
64,192,119924,1,0,0:0:0:0:
448,192,120007,1,0,0:0:0:0:
320,192,120007,1,0,0:0:0:0:
192,192,120091,1,0,0:0:0:0:
64,192,120091,1,0,0:0:0:0:
320,192,120174,1,0,0:0:0:0:
448,192,120174,1,0,0:0:0:0:
192,192,120257,1,0,0:0:0:0:
64,192,120257,1,0,0:0:0:0:
320,192,120341,1,0,0:0:0:0:
448,192,120341,1,0,0:0:0:0:
64,192,120424,1,0,0:0:0:0:
192,192,120424,1,0,0:0:0:0:
