osu file format v14

[General]
AudioFilename: kimio mite ita - kamome sano.mp3
AudioLeadIn: 0
PreviewTime: 112826
Countdown: 0
SampleSet: Soft
StackLeniency: 0.7
Mode: 0
LetterboxInBreaks: 0
WidescreenStoryboard: 1

[Editor]
Bookmarks: 7189,8519,8732,10220,21709,31923,41337,62560,82188,84423,84743,85062,85381,85540,86977,88094,89530,90647,93200,94636,95753,97189,98306,102454,102774,103094,103411,108519,112030,112189,112349,112509,112668,112987,113626,114902,134051,153519,154477,163891,164689,185115,204264,204902,225966,229796,232349,233626,251498,271923
DistanceSpacing: 0.8
BeatDivisor: 4
GridSize: 4
TimelineZoom: 2.4

[Metadata]
Title:Kimio Mite Ita (ft. Mikanjiru)
TitleUnicode:きみを見ていた (ft. みかん汁)
Artist:kamome sano
ArtistUnicode:kamome sano
Creator:a_point
Version:Insane
Source:
Tags:
BeatmapID:1447227
BeatmapSetID:680187

[Difficulty]
HPDrainRate:6
CircleSize:4
OverallDifficulty:7.5
ApproachRate:9
SliderMultiplier:1.55
SliderTickRate:1

[Events]
//Background and Video events
0,0,"BG.jpg",0,0
//Break Periods
//Storyboard Layer 0 (Background)
//Storyboard Layer 1 (Fail)
//Storyboard Layer 2 (Pass)
//Storyboard Layer 3 (Foreground)
//Storyboard Sound Samples

[TimingPoints]
9,319.148936170213,4,2,0,40,1,0
9,-166.666666666667,4,2,1,40,0,0
647,-166.666666666667,4,2,1,80,0,0
806,-166.666666666667,4,2,1,40,0,0
1285,-166.666666666667,4,2,1,100,0,0
1604,-166.666666666667,4,2,1,40,0,0
1923,-166.666666666667,4,2,1,80,0,0
2083,-166.666666666667,4,2,1,40,0,0
3200,-166.666666666667,4,2,1,80,0,0
3360,-166.666666666667,4,2,1,40,0,0
3838,-166.666666666667,4,2,1,100,0,0
4636,-166.666666666667,4,2,1,40,0,0
4796,-166.666666666667,4,2,1,80,0,0
4955,-166.666666666667,4,2,1,100,0,0
5594,-166.666666666667,4,2,1,40,0,0
5753,-166.666666666667,4,2,1,100,0,0
6391,-166.666666666667,4,2,1,100,0,0
7030,-166.666666666667,4,2,1,40,0,0
7243,-166.666666666667,4,2,1,80,0,0
8945,-166.666666666667,4,2,1,100,0,0
10062,-166.666666666667,4,2,1,100,0,0
10221,-166.666666666667,4,2,1,40,0,0
11498,-125,4,1,1,100,0,0
11977,-125,4,1,1,40,0,0
14051,-125,4,1,1,100,0,0
14530,-125,4,1,1,40,0,0
15168,-125,4,1,1,100,0,0
15487,-125,4,1,1,40,0,0
16604,-125,4,1,1,100,0,0
17083,-125,4,1,1,40,0,0
19157,-125,4,1,1,100,0,0
19317,-125,4,1,1,45,0,0
19636,-125,4,1,1,50,0,0
19955,-125,4,1,1,55,0,0
20274,-125,4,1,1,60,0,0
20594,-125,4,1,1,70,0,0
20913,-125,4,1,1,80,0,0
21232,-125,4,1,1,90,0,0
21551,-125,4,1,1,100,0,0
21711,-100,4,1,2,100,0,0
21790,-100,4,1,3,100,0,1
41338,-100,4,1,3,100,0,0
62562,-100,4,1,2,100,0,1
62721,-100,4,1,3,100,0,1
82189,-100,4,1,3,100,0,0
84743,-100,4,3,4,100,0,0
84902,-100,4,1,3,100,0,0
85381,-100,4,3,4,100,0,0
85540,-100,4,1,3,100,0,0
87296,-100,4,3,4,100,0,0
87455,-100,4,1,3,100,0,0
87615,-100,4,3,4,100,0,0
87774,-100,4,1,3,100,0,0
87934,-100,4,3,4,100,0,0
88014,-100,4,1,3,100,0,0
113626,-100,4,1,0,100,0,1
134051,-100,4,1,0,100,0,0
164689,-100,4,1,0,100,0,1
185115,-100,4,1,0,100,0,0
233626,-100,4,1,0,100,0,1
250221,-100,4,1,0,100,0,0
251498,-100,4,1,0,100,0,1
271923,-100,4,1,0,100,0,0

[Colours]
Combo1 : 255,234,170
Combo2 : 170,255,170
Combo3 : 170,170,255
Combo4 : 251,174,186

[HitObjects]
176,104,487,6,8,L|124:100,1,46.4999985809327,8|10,0:0|0:0,0:0:0:0:
244,176,806,2,8,L|296:180,1,46.4999985809327
384,188,1126,1,8,0:0:0:0:
464,124,1285,6,0,B|472:196|472:196|468:228,1,92.9999971618653,2|0,0:0|0:0,0:0:0:0:
416,300,1764,1,0,0:0:0:0:
328,280,1923,2,8,L|324:340,2,46.4999985809327,10|8|8,0:0|0:0|0:0,0:0:0:0:
236,184,2402,2,8,B|240:92|240:92|272:48,1,139.499995742798,8|0,0:0|0:0,0:0:0:0:
320,116,3040,6,8,L|376:112,1,46.4999985809327,8|10,0:0|0:0,0:0:0:0:
416,192,3360,2,8,L|476:188,1,46.4999985809327
462,188,3679,1,8,0:0:0:0:
448,268,3838,6,0,B|388:260|388:260|291:286|291:286|215:266,1,232.499992904663,10|0,0:0|0:0,0:0:0:0:
292,184,4796,5,2,0:0:0:0:
292,184,4955,2,0,B|276:76|276:76|304:112|344:124,1,185.999994323731,2|0,0:0|0:0,0:0:0:0:
376,52,5753,5,2,0:0:0:0:
216,80,6391,2,0,B|168:96|96:80|96:80|132:100|152:128,1,185.999994323731,2|0,0:0|0:0,0:0:0:0:
204,200,7243,5,10,0:0:0:0:
204,200,7349,2,10,L|208:216,2,15.4999995269776
360,248,7668,2,0,P|391:250|426:244,1,61.9999981079102,10|10,0:0|0:0,0:0:0:0:
448,80,8094,2,0,L|449:17,1,61.9999981079102,10|10,0:0|0:0,0:0:0:0:
304,112,8519,2,0,P|266:109|233:115,1,61.9999981079102,10|10,0:0|0:0,0:0:0:0:
103,213,8945,5,10,0:0:0:0:
103,213,10062,5,10,0:0:0:0:
216,144,10221,6,0,L|268:144,1,46.4999985809327,0|0,3:0|3:0,0:0:0:0:
436,212,10700,1,0,3:0:0:0:
436,212,10860,2,0,L|496:212,1,46.4999985809327,0|0,3:0|3:0,0:0:0:0:
508,128,11179,1,2,0:0:0:0:
472,44,11338,1,2,0:0:0:0:
400,104,11498,6,0,B|344:92|344:92|276:108|276:108|212:88,1,186,2|0,2:0|0:0,0:0:0:0:
280,28,12136,2,0,P|328:16|356:24,1,62,0|0,3:0|0:0,3:0:0:0:
220,168,12455,1,8,0:0:0:0:
375,219,12615,2,0,P|411:219|443:207,1,62,0|0,3:0|0:0,0:0:0:0:
400,104,12934,5,0,3:0:0:0:
248,96,13094,2,0,L|168:88,1,62,8|0,0:0|0:0,0:0:0:0:
56,196,13413,1,0,3:0:0:0:
136,304,13572,1,0,0:0:0:0:
225,229,13732,2,0,L|219:167,1,62,8|0,0:0|3:0,0:0:0:0:
252,300,14051,6,0,B|368:296|368:296|440:328,1,186,2|0,2:0|0:0,0:0:0:0:
344,372,14689,2,0,L|264:376,1,62,0|0,3:0|0:0,0:0:0:0:
84,260,15168,6,0,L|92:176,1,62,2|0,2:0|0:0,0:0:0:0:
216,100,15487,2,0,L|208:24,1,62,0|0,3:0|0:0,0:0:0:0:
209,38,15806,1,0,0:0:0:0:
336,36,15966,2,0,P|376:36|400:44,1,62,0|0,3:0|3:0,0:0:0:0:
360,116,16285,1,8,0:0:0:0:
260,68,16445,1,0,3:0:0:0:
284,192,16604,6,0,B|300:284|300:284|232:360,1,186,2|0,2:0|0:0,0:0:0:0:
172,240,17243,2,0,L|108:232,1,62,0|0,3:0|0:0,0:0:0:0:
32,128,17562,1,8,0:0:0:0:
180,104,17721,2,0,L|248:100,1,62,0|0,3:0|0:0,0:0:0:0:
320,116,18040,6,0,L|256:120,1,62,0|8,3:0|0:0,0:0:0:0:
172,240,18360,1,0,0:0:0:0:
336,256,18519,2,0,P|380:248|408:256,1,62,0|0,3:0|0:0,0:0:0:0:
208,336,18838,2,0,P|176:344|144:336,1,62,8|0,0:0|3:0,0:0:0:0:
364,116,19157,5,2,2:0:0:0:
256,192,19317,12,0,21551,0:0:0:0:
368,192,21711,6,0,L|456:184,2,77.5,4|0|8,0:0|0:0|0:0,0:0:0:0:
240,136,22189,1,0,0:0:0:0:
211,124,22269,1,0,2:0:0:0:
179,125,22349,1,0,0:0:0:0:
203,209,22509,1,0,3:0:0:0:
376,102,22828,2,0,P|381:64|371:27,1,77.5,8|0,0:0|0:0,0:0:0:0:
260,58,23147,6,0,P|204:46|156:62,1,77.5,0|8,3:0|0:0,0:0:0:0:
39,122,23466,1,0,0:0:0:0:
70,121,23546,1,0,0:0:0:0:
97,136,23626,1,0,3:0:0:0:
47,256,23785,2,0,P|94:265|146:256,1,77.5,0|8,3:0|0:0,0:0:0:0:
218,293,24104,2,0,L|262:291,1,38.75,0|0,0:0|2:0,0:0:0:0:
272,292,24264,5,0,3:0:0:0:
200,192,24423,1,0,0:0:0:0:
148,344,24583,1,8,0:0:0:0:
272,292,24743,1,0,0:0:0:0:
304,288,24822,2,0,L|368:284,1,38.75
368,304,24982,2,0,L|424:312,1,38.75,0|0,0:0|3:0,0:0:0:0:
365,105,25381,1,8,0:0:0:0:
241,73,25540,6,0,P|185:64|142:88,1,77.5,0|0,3:0|3:0,0:0:0:0:
54,197,25860,1,8,0:0:0:0:
224,200,26019,6,0,P|265:205|317:190,1,77.5,0|0,3:0|3:0,0:0:0:0:
144,80,26338,1,8,0:0:0:0:
140,252,26498,1,0,0:0:0:0:
232,136,26657,1,8,0:0:0:0:
232,136,26737,1,8,0:0:0:0:
232,136,26817,5,0,3:0:0:0:
232,136,26977,2,0,L|324:136,1,77.5,2|8,2:0|0:0,0:0:0:0:
464,264,27296,1,2,2:0:0:0:
464,264,27455,2,0,L|368:264,1,77.5,0|0,2:0|3:0,0:0:0:0:
416,140,27774,5,2,2:0:0:0:
416,140,27934,2,0,L|416:60,1,77.5,8|2,0:0|2:0,0:0:0:0:
288,212,28253,1,0,3:0:0:0:
288,212,28413,2,0,L|284:296,1,77.5,8|2,0:0|2:0,0:0:0:0:
136,340,28732,2,0,P|128:300|140:252,1,77.5,0|0,3:0|3:0,0:0:0:0:
88,104,29051,2,0,L|92:64,2,38.75,8|0|0,0:0|2:0|0:0,0:0:0:0:
164,212,29370,5,0,3:0:0:0:
164,212,29530,2,0,L|168:316,1,77.5,2|8,2:0|0:0,0:0:0:0:
256,176,29849,1,2,2:0:0:0:
328,312,30009,1,2,2:0:0:0:
392,148,30168,1,0,3:0:0:0:
444,276,30328,2,0,P|452:316|440:364,1,77.5,2|8,2:0|0:0,0:0:0:0:
328,312,30647,6,0,P|272:324|236:312,1,77.5,0|0,3:0|3:0,0:0:0:0:
120,192,30966,1,8,0:0:0:0:
300,168,31126,6,0,P|356:160|400:176,1,77.5,0|0,3:0|3:0,0:0:0:0:
292,324,31445,1,8,0:0:0:0:
216,236,31604,1,0,0:0:0:0:
368,248,31764,1,8,0:0:0:0:
368,248,31844,1,8,0:0:0:0:
368,248,31923,5,0,3:0:0:0:
