osu file format v14

[General]
AudioFilename: kimio mite ita - kamome sano.mp3
AudioLeadIn: 0
PreviewTime: 112826
Countdown: 0
SampleSet: Normal
StackLeniency: 0.7
Mode: 0
LetterboxInBreaks: 0
WidescreenStoryboard: 1

[Editor]
Bookmarks: 7189,8519,8732,10220,21709,31923,41337,62560,82188,84423,84743,85062,85381,85540,86977,88094,89530,90647,93200,94636,95753,97189,98306,102454,102774,103094,103411,108519,112030,112189,112349,112509,112668,112987,113626,114902,134051,153519,154477,163891,164689,185115,204264,204902,225966,229796,232349,233626,251498,271923
DistanceSpacing: 1.5
BeatDivisor: 4
GridSize: 4
TimelineZoom: 2.4

[Metadata]
Title:Kimio Mite Ita (ft. Mikanjiru)
TitleUnicode:きみを見ていた (ft. みかん汁)
Artist:kamome sano
ArtistUnicode:kamome sano
Creator:a_point
Version:Hyper
Source:
Tags:
BeatmapID:1448239
BeatmapSetID:680187

[Difficulty]
HPDrainRate:5
CircleSize:3.7
OverallDifficulty:6.5
ApproachRate:8
SliderMultiplier:1.4
SliderTickRate:1

[Events]
//Background and Video events
0,0,"BG.jpg",0,0
//Break Periods
//Storyboard Layer 0 (Background)
//Storyboard Layer 1 (Fail)
//Storyboard Layer 2 (Pass)
//Storyboard Layer 3 (Foreground)
//Storyboard Sound Samples

[TimingPoints]
9,319.148936170213,4,2,0,40,1,0
9,-166.666666666667,4,2,1,40,0,0
647,-166.666666666667,4,2,1,80,0,0
806,-166.666666666667,4,2,1,40,0,0
1285,-166.666666666667,4,2,1,100,0,0
1604,-166.666666666667,4,2,1,40,0,0
1923,-166.666666666667,4,2,1,80,0,0
2083,-166.666666666667,4,2,1,40,0,0
3200,-166.666666666667,4,2,1,80,0,0
3360,-166.666666666667,4,2,1,40,0,0
3838,-166.666666666667,4,2,1,100,0,0
4636,-166.666666666667,4,2,1,40,0,0
4796,-166.666666666667,4,2,1,80,0,0
4955,-166.666666666667,4,2,1,100,0,0
5594,-166.666666666667,4,2,1,40,0,0
5753,-166.666666666667,4,2,1,100,0,0
6391,-166.666666666667,4,2,1,100,0,0
7030,-166.666666666667,4,2,1,40,0,0
7243,-166.666666666667,4,2,1,80,0,0
8945,-166.666666666667,4,2,1,100,0,0
10062,-166.666666666667,4,2,1,100,0,0
10221,-166.666666666667,4,2,1,40,0,0
11498,-125,4,1,1,100,0,0
11977,-125,4,1,1,40,0,0
14051,-125,4,1,1,100,0,0
14530,-125,4,1,1,40,0,0
15168,-125,4,1,1,100,0,0
15487,-125,4,1,1,40,0,0
16604,-125,4,1,1,100,0,0
17083,-125,4,1,1,40,0,0
19157,-125,4,1,1,100,0,0
19317,-125,4,1,1,45,0,0
19636,-125,4,1,1,50,0,0
19955,-125,4,1,1,55,0,0
20274,-125,4,1,1,60,0,0
20594,-125,4,1,1,70,0,0
20913,-125,4,1,1,80,0,0
21232,-125,4,1,1,90,0,0
21551,-125,4,1,1,100,0,0
21711,-100,4,1,2,100,0,0
21790,-100,4,1,3,100,0,1
41338,-100,4,1,3,100,0,0
62562,-100,4,1,2,100,0,1
62721,-100,4,1,3,100,0,1
82189,-100,4,1,3,100,0,0
84743,-100,4,3,4,100,0,0
84902,-100,4,1,3,100,0,0
85381,-100,4,3,4,100,0,0
85540,-100,4,1,3,100,0,0
87296,-100,4,3,4,100,0,0
87455,-100,4,1,3,100,0,0
87615,-100,4,3,4,100,0,0
87774,-100,4,1,3,100,0,0
87934,-100,4,3,4,100,0,0
88014,-100,4,1,3,100,0,0
113626,-100,4,1,0,100,0,1
134051,-100,4,1,0,100,0,0
164689,-100,4,1,0,100,0,1
185115,-100,4,1,0,100,0,0
233626,-100,4,1,0,100,0,1
250221,-100,4,1,0,100,0,0
251498,-100,4,1,0,100,0,1
271923,-100,4,1,0,100,0,0

[Colours]
Combo1 : 255,234,170
Combo2 : 170,255,170
Combo3 : 170,170,255
Combo4 : 251,174,186

[HitObjects]
360,96,487,6,8,L|412:96,3,41.9999987182618,8|10|8|8,0:0|0:0|0:0|0:0,0:0:0:0:
468,148,1126,1,0,0:0:0:0:
452,232,1285,2,0,P|460:284|448:316,1,83.9999974365235,2|0,0:0|0:0,0:0:0:0:
376,276,1764,1,8,0:0:0:0:
292,264,1923,2,8,L|232:260,1,41.9999987182618,10|8,0:0|0:0,0:0:0:0:
184,312,2243,1,8,0:0:0:0:
108,348,2402,2,8,B|96:264|96:264|104:220,1,125.999996154785,8|0,0:0|0:0,0:0:0:0:
172,176,3040,6,8,L|168:124,1,41.9999987182618,8|10,0:0|0:0,0:0:0:0:
168,134,3360,1,8,0:0:0:0:
220,68,3519,2,8,L|216:12,1,41.9999987182618
292,68,3838,2,0,B|368:64|368:64|424:84|424:84|504:76,1,209.999993591309,2|0,0:0|0:0,0:0:0:0:
484,160,4796,1,2,0:0:0:0:
484,160,4955,2,0,P|504:224|432:288,1,167.999994873047,2|0,0:0|0:0,0:0:0:0:
412,208,5753,1,2,0:0:0:0:
84,288,6391,6,0,B|120:216|56:180|100:108,1,167.999994873047,2|0,0:0|0:0,0:0:0:0:
168,164,7243,1,10,0:0:0:0:
168,164,7349,2,10,L|192:164,2,13.9999995727539
280,164,7668,2,0,L|344:160,1,55.9999982910157,10|10,0:0|0:0,0:0:0:0:
444,192,8094,2,0,P|448:156|440:128,1,55.9999982910157,10|10,0:0|0:0,0:0:0:0:
364,56,8519,2,0,L|300:60,1,55.9999982910157,10|10,0:0|0:0,0:0:0:0:
196,68,8945,5,10,0:0:0:0:
196,68,10062,1,10,0:0:0:0:
136,128,10221,6,0,L|76:124,1,41.9999987182618,0|0,3:0|3:0,0:0:0:0:
28,180,10540,1,8,0:0:0:0:
48,260,10700,2,0,L|40:312,2,41.9999987182618,0|0|0,3:0|3:0|3:0,0:0:0:0:
120,216,11179,1,2,0:0:0:0:
200,236,11338,1,2,0:0:0:0:
296,176,11498,6,0,B|312:116|312:116|296:60|296:60|304:4,1,168,2|0,2:0|0:0,0:0:0:0:
392,60,12136,2,0,L|456:60,1,56,0|0,3:0|0:0,0:0:0:0:
416,156,12455,1,8,0:0:0:0:
416,156,12615,2,0,L|408:232,1,56,0|0,3:0|0:0,0:0:0:0:
364,300,12934,2,0,L|372:220,1,56,0|8,3:0|0:0,0:0:0:0:
232,96,13413,1,0,3:0:0:0:
136,272,13732,2,0,L|60:268,1,56,8|0,0:0|3:0,0:0:0:0:
40,176,14051,6,0,B|48:44|48:44|88:84,1,168,2|0,2:0|0:0,0:0:0:0:
136,148,14689,2,0,L|208:144,1,56,0|0,3:0|0:0,0:0:0:0:
384,80,15168,2,0,P|400:152|380:208,1,112,2|0,2:0|3:0,0:0:0:0:
440,276,15647,1,0,0:0:0:0:
356,328,15806,1,0,0:0:0:0:
256,312,15966,2,0,L|184:308,1,56,0|0,3:0|3:0,0:0:0:0:
104,280,16285,2,0,L|172:288,1,56,0|0,0:0|3:0,0:0:0:0:
136,188,16604,6,0,B|124:100|124:100|168:16,1,168,2|0,2:0|0:0,0:0:0:0:
220,112,17243,2,0,L|280:112,1,56,0|0,3:0|0:0,0:0:0:0:
364,60,17562,1,8,0:0:0:0:
440,124,17721,2,0,L|452:200,1,56,0|0,3:0|0:0,0:0:0:0:
440,280,18040,1,0,3:0:0:0:
348,320,18200,2,0,L|340:256,1,56,8|0,0:0|0:0,0:0:0:0:
292,176,18519,2,0,L|300:248,1,56,0|0,3:0|0:0,0:0:0:0:
212,288,18838,1,8,0:0:0:0:
136,224,18998,1,0,3:0:0:0:
188,124,19157,5,2,2:0:0:0:
256,192,19317,12,0,21551,0:0:0:0:
324,128,21711,6,0,L|420:120,2,70,4|0|8,0:0|0:0|0:0,0:0:0:0:
228,84,22189,1,0,0:0:0:0:
228,84,22269,1,0,2:0:0:0:
228,84,22349,1,0,0:0:0:0:
124,84,22509,2,0,P|84:76|28:100,1,70,0|0,3:0|0:0,0:0:0:0:
12,184,22828,2,0,P|56:192|96:184,1,70,8|0,0:0|0:0,0:0:0:0:
184,164,23147,5,0,3:0:0:0:
280,204,23306,1,8,0:0:0:0:
368,144,23466,2,0,L|424:136,2,35,0|0|0,0:0|2:0|3:0,0:0:0:0:
368,144,23785,1,0,3:0:0:0:
272,96,23945,2,0,P|224:80|180:92,1,70,8|0,0:0|0:0,0:0:0:0:
100,72,24264,6,0,L|88:160,1,70,0|0,3:0|0:0,0:0:0:0:
124,240,24583,1,8,0:0:0:0:
