osu file format v14

[General]
AudioFilename: kimio mite ita - kamome sano.mp3
AudioLeadIn: 0
PreviewTime: 112826
Countdown: 0
SampleSet: Normal
StackLeniency: 0.7
Mode: 0
LetterboxInBreaks: 0
WidescreenStoryboard: 1

[Editor]
Bookmarks: 7189,10220,21709,31923,41337,62560,82188,84423,84743,85062,85381,85540,86977,88094,89530,90647,93200,94636,95753,97189,98306,102454,102774,103094,103411,104530,105966,106923,107562,108519,112030,112189,112349,112509,112668,112987,113626,114902,122562,123200,123838,130860,131498,134051,153519,154477,163891,164689,185115,204264,204902,225966,229796,232349,233626,251498,271923
DistanceSpacing: 0.8
BeatDivisor: 4
GridSize: 4
TimelineZoom: 2

[Metadata]
Title:Kimio Mite Ita (ft. Mikanjiru)
TitleUnicode:きみを見ていた (ft. みかん汁)
Artist:kamome sano
ArtistUnicode:kamome sano
Creator:a_point
Version:C8H11O2N
Source:
Tags:
BeatmapID:1438252
BeatmapSetID:680187

[Difficulty]
HPDrainRate:6
CircleSize:4.2
OverallDifficulty:8
ApproachRate:9.3
SliderMultiplier:1.75
SliderTickRate:1

[Events]
//Background and Video events
0,0,"BG.jpg",0,0
//Break Periods
//Storyboard Layer 0 (Background)
//Storyboard Layer 1 (Fail)
//Storyboard Layer 2 (Pass)
//Storyboard Layer 3 (Foreground)
Sprite,Foreground,Centre,"SB/ring.png",320,240 M,0,1285,,445,343 C,0,1285,,170,170,255 S,1,1285,1923,0.3,0.9 F,0,1923,2562,1,0
Sprite,Foreground,Centre,"SB/ring.png",320,240 M,0,3838,,310,210 C,0,3838,,251,174,186 S,1,3838,4477,0.3,0.9 F,0,4477,5115,1,0
Sprite,Foreground,Centre,"SB/highlight.png",320,240 M,0,112987,,404,114 S,0,112987,,1 C,0,112987,,170,170,225 F,0,112987,113147,1 F,0,113147,113626,1,0
Sprite,Foreground,Centre,"SB/highlight.png",320,240 M,0,113147,,448,118 S,0,113147,,1 C,0,113147,,170,170,225 F,0,113147,113306,1 F,0,113306,113785,1,0
Sprite,Foreground,Centre,"SB/highlight.png",320,240 M,0,113306,,266,198 S,0,113306,,1 C,0,113306,,170,170,225 F,0,113306,113466,1 F,0,113466,113945,1,0
Sprite,Foreground,Centre,"SB/highlight.png",320,240 S,0,113466,,1 C,0,113466,,170,170,225 F,0,113466,113626,1 M,0,113466,113705,266,198,303,183 F,0,113626,114104,1,0
//Storyboard Sound Samples

[TimingPoints]
9,319.148936170213,4,2,0,40,1,0
9,-166.666666666667,4,2,1,40,0,0
647,-166.666666666667,4,2,1,80,0,0
806,-166.666666666667,4,2,1,40,0,0
1285,-166.666666666667,4,2,1,100,0,0
1684,-166.666666666667,4,2,1,40,0,0
1923,-166.666666666667,4,2,1,80,0,0
2083,-166.666666666667,4,2,1,40,0,0
3200,-166.666666666667,4,2,1,80,0,0
3360,-166.666666666667,4,2,1,40,0,0
3838,-166.666666666667,4,2,1,100,0,0
4636,-166.666666666667,4,2,1,40,0,0
4796,-166.666666666667,4,2,1,80,0,0
4955,-166.666666666667,4,2,1,100,0,0
5594,-166.666666666667,4,2,1,40,0,0
5753,-166.666666666667,4,2,1,100,0,0
6391,-166.666666666667,4,2,1,100,0,0
7030,-166.666666666667,4,2,1,40,0,0
7243,-166.666666666667,4,2,1,80,0,0
8945,-166.666666666667,4,2,1,100,0,0
10062,-166.666666666667,4,2,1,100,0,0
10221,-166.666666666667,4,2,1,40,0,0
11498,-125,4,1,1,100,0,0
11977,-125,4,1,1,40,0,0
14051,-125,4,1,1,100,0,0
14530,-125,4,1,1,40,0,0
15168,-125,4,1,1,100,0,0
15487,-125,4,1,1,40,0,0
16604,-125,4,1,1,100,0,0
17083,-125,4,1,1,40,0,0
19157,-125,4,1,1,100,0,0
19317,-125,4,1,1,45,0,0
19636,-125,4,1,1,50,0,0
19955,-125,4,1,1,55,0,0
20274,-125,4,1,1,60,0,0
20594,-125,4,1,1,70,0,0
20913,-125,4,1,1,80,0,0
21232,-125,4,1,1,90,0,0
21551,-125,4,1,1,100,0,0
21711,-100,4,1,2,100,0,0
21790,-100,4,1,3,100,0,1
41338,-100,4,1,3,100,0,0
62562,-100,4,1,2,100,0,1
62721,-100,4,1,3,100,0,1
82189,-100,4,1,3,100,0,0
84743,-100,4,3,4,100,0,0
84902,-100,4,1,3,100,0,0
85381,-100,4,3,4,100,0,0
85540,-100,4,1,3,100,0,0
87615,-100,4,3,4,100,0,0
87774,-100,4,1,3,100,0,0
87934,-100,4,3,4,100,0,0
88014,-100,4,1,3,100,0,0
89849,-100,4,3,4,100,0,0
90009,-100,4,1,3,100,0,0
90487,-100,4,3,4,100,0,0
90647,-100,4,1,3,100,0,0
94955,-100,4,3,4,100,0,0
95115,-100,4,1,3,100,0,0
95594,-100,4,3,4,100,0,0
95753,-100,4,1,3,100,0,0
99423,-100,4,3,4,100,0,0
99583,-100,4,1,3,100,0,0
99902,-100,4,3,4,100,0,0
100062,-100,4,1,3,100,0,0
100540,-100,4,3,4,100,0,0
100700,-100,4,1,3,100,0,0
103413,-166.666666666667,4,1,1,100,0,0
107562,-200,4,1,1,100,0,0
112030,-83.3333333333333,4,1,5,100,0,0
112987,-200,4,1,1,100,0,0
113626,-83.3333333333333,4,2,10,100,0,1
113705,-83.3333333333333,4,1,3,100,0,1
121126,-66.6666666666667,4,1,3,100,0,1
121285,-83.3333333333333,4,1,3,100,0,1
134051,-100,4,1,0,100,0,0
164689,-100,4,1,0,100,0,1
185115,-100,4,1,0,100,0,0
233626,-100,4,1,0,100,0,1
250221,-100,4,1,0,100,0,0
251498,-100,4,1,0,100,0,1
271923,-100,4,1,0,100,0,0

[Colours]
Combo1 : 255,234,170
Combo2 : 170,255,170
Combo3 : 170,170,255
Combo4 : 251,174,186

[HitObjects]
207,79,487,6,8,L|212:146,1,52.4999983978272,8|10,0:0|0:0,0:0:0:0:
304,179,806,2,8,L|298:242,1,52.4999983978272
263,331,1126,1,8,0:0:0:0:
381,287,1285,6,0,B|416:281|437:266|437:266|470:282|509:284,1,131.249995994568,2|0,0:0|0:0,0:0:0:0:
444,356,1764,1,8,0:0:0:0:
444,356,1923,2,0,L|380:360,1,52.4999983978272,10|8,0:0|0:0,0:0:0:0:
292,272,2243,2,8,L|236:272,1,52.4999983978272
134,331,2562,2,0,L|63:340,2,52.4999983978272,8|0|0,0:0|0:0|0:0,0:0:0:0:
171,233,3040,5,8,0:0:0:0:
86,175,3200,2,0,L|82:115,1,52.4999983978272,10|8,0:0|0:0,0:0:0:0:
165,58,3519,2,8,L|222:53,1,52.4999983978272
246,154,3838,2,0,B|332:133|332:133|431:161|431:161|507:147,1,262.499991989136,2|0,0:0|0:0,0:0:0:0:
331,257,4796,5,2,0:0:0:0:
331,257,4955,2,0,B|171:239|171:239|109:270,1,209.999993591309,2|0,0:0|0:0,0:0:0:0:
254,358,5753,5,2,0:0:0:0:
50,269,6391,2,0,B|103:171|-8:154|57:59,1,209.999993591309,2|0,2:0|0:0,0:0:0:0:
148,110,7243,5,10,0:0:0:0:
148,110,7349,2,10,L|178:107,2,17.4999994659424
132,220,7668,1,10,0:0:0:0:
216,296,7881,1,10,0:0:0:0:
324,252,8094,1,10,0:0:0:0:
336,140,8306,1,10,0:0:0:0:
252,68,8519,1,10,0:0:0:0:
148,110,8732,1,10,0:0:0:0:
236,180,8945,5,10,0:0:0:0:
236,180,10062,5,10,0:0:0:0:
327,71,10221,5,0,3:0:0:0:
334,240,10381,2,0,L|335:278,1,26.2499991989136,0|0,3:0|0:0,0:0:0:0:
414,150,10700,5,0,3:0:0:0:
236,180,10860,2,0,L|197:187,1,26.2499991989136,0|0,3:0|0:0,0:0:0:0:
168,196,11019,5,2,0:0:0:0:
212,72,11179,1,2,0:0:0:0:
304,160,11338,1,2,0:0:0:0:
244,300,11498,6,0,B|172:284|172:284|108:304|108:304|32:288,1,210,2|0,2:0|0:0,0:0:0:0:
104,224,12136,2,0,P|101:174|109:140,1,70,0|0,3:0|0:0,0:0:0:0:
242,231,12455,1,8,0:0:0:0:
242,231,12615,2,0,P|247:284|240:310,1,70,0|0,3:0|0:0,0:0:0:0:
164,268,12934,6,0,L|119:268,1,35,0|0,3:0|0:0,0:0:0:0:
129,268,13094,1,8,0:0:0:0:
373,132,13413,2,0,B|421:126|421:126|466:139,1,70,0|0,3:0|0:0,0:0:0:0:
428,251,13732,1,2,2:0:0:0:
428,251,13891,2,0,L|426:297,1,35,0|0,3:0|0:0,0:0:0:0:
354,309,14051,6,0,B|296:317|254:294|254:294|210:316|148:292,1,210,2|0,2:0|0:0,0:0:0:0:
208,225,14689,2,0,P|203:175|214:147,1,70,0|0,3:0|0:0,0:0:0:0:
208,156,15009,1,8,0:0:0:0:
297,195,15168,6,0,B|372:186|372:186|446:206,1,140,2|0,2:0|3:0,0:0:0:0:
434,113,15647,2,0,L|427:25,1,70,2|2,2:0|2:0,2:0:0:0:
340,82,15966,1,0,3:0:0:0:
471,131,16126,1,0,3:0:0:0:
367,256,16285,1,8,0:0:0:0:
367,256,16445,2,0,L|312:257,1,35,0|0,3:0|0:0,0:0:0:0:
246,252,16604,6,0,B|218:220|203:178|203:178|224:252|166:305,1,210,2|0,2:0|0:0,0:0:0:0:
128,224,17243,2,0,P|88:216|48:232,1,70,0|0,3:0|0:0,0:0:0:0:
96,304,17562,1,8,0:0:0:0:
96,304,17721,2,0,P|128:312|168:304,1,70,0|0,3:0|0:0,0:0:0:0:
248,160,18040,5,0,3:0:0:0:
248,160,18200,2,0,L|244:76,1,70,8|0,0:0|0:0,0:0:0:0:
332,60,18519,2,0,B|340:172|340:172|324:208,1,140,0|0,3:0|0:0,0:0:0:0:
244,90,18998,1,0,3:0:0:0:
412,216,19157,5,2,2:0:0:0:
256,192,19317,12,0,21551,0:0:0:0:
360,84,21711,5,4,0:0:0:0:
360,84,21870,2,0,L|416:80,1,43.75,0|0,0:0|2:0,0:0:0:0:
290,159,22030,6,0,L|233:157,1,43.75,8|0,0:0|0:0,0:0:0:0:
173,156,22189,1,0,0:0:0:0:
173,156,22269,1,0,2:0:0:0:
173,156,22349,1,0,0:0:0:0:
312,38,22509,2,0,P|363:27|415:42,1,87.5,0|0,3:0|0:0,0:0:0:0:
370,167,22828,1,8,0:0:0:0:
223,72,22987,5,0,0:0:0:0:
191,56,23067,1,0,2:0:0:0:
155,56,23147,1,0,3:0:0:0:
48,133,23306,1,8,0:0:0:0:
57,245,23466,5,0,0:0:0:0:
88,229,23546,1,0,2:0:0:0:
123,233,23626,1,0,3:0:0:0:
102,297,23785,1,0,3:0:0:0:
211,218,23945,6,0,L|274:213,1,43.75,8|0,0:0|0:0,0:0:0:0:
346,276,24104,2,0,L|294:275,2,43.75,0|0|0,0:0|2:0|3:0,0:0:0:0:
451,239,24423,5,0,0:0:0:0:
354,146,24583,1,8,0:0:0:0:
346,276,24743,2,0,L|298:272,1,43.75
280,304,24902,2,0,L|215:298,1,43.75,0|0,0:0|2:0,0:0:0:0:
200,296,25062,5,0,3:0:0:0:
92,228,25221,2,0,L|160:224,1,43.75
156,196,25381,2,0,L|225:193,1,43.75,8|0,0:0|0:0,0:0:0:0:
354,146,25540,5,0,3:0:0:0:
354,146,25700,1,0,3:0:0:0:
291,29,25860,1,8,0:0:0:0:
211,218,26019,5,0,3:0:0:0:
211,218,26179,1,0,3:0:0:0:
232,104,26338,1,8,0:0:0:0:
120,48,26498,2,0,L|76:48,1,43.75,0|0,0:0|2:0,0:0:0:0:
43,141,26657,1,8,0:0:0:0:
38,175,26737,1,8,0:0:0:0:
47,208,26817,5,0,3:0:0:0:
193,266,26977,2,0,L|256:264,1,43.75,2|0,2:0|0:0,0:0:0:0:
303,222,27136,1,8,0:0:0:0:
259,373,27296,2,0,L|309:376,1,43.75,2|0,2:0|0:0,0:0:0:0:
311,299,27455,6,0,P|368:293|411:313,1,87.5,0|0,0:0|3:0,0:0:0:0:
477,196,27774,5,2,2:0:0:0:
308,102,27934,2,0,L|310:42,1,43.75,8|0,0:0|0:0,0:0:0:0:
398,58,28094,1,2,2:0:0:0:
474,152,28253,2,0,L|477:196,1,43.75,0|0,3:0|0:0,0:0:0:0:
394,142,28413,6,0,P|406:100|395:53,1,87.5,8|0,0:0|0:0,0:0:0:0:
310,59,28732,5,0,3:0:0:0:
310,59,28891,1,0,3:0:0:0:
199,124,29051,2,0,L|148:118,1,43.75,8|0,0:0|0:0,0:0:0:0:
174,148,29211,2,0,L|141:144,2,29.1666666666667,0|0|0,0:0|2:0|0:0,0:0:0:0:
160,168,29370,5,0,3:0:0:0:
224,34,29530,1,2,2:0:0:0:
73,91,29689,1,8,0:0:0:0:
183,259,29849,1,2,2:0:0:0:
174,148,30009,6,0,P|224:136|272:156,1,87.5,2|0,2:0|3:0,0:0:0:0:
114,262,30328,2,0,P|74:270|22:254,1,87.5,2|8,2:0|0:0,0:0:0:0:
74,174,30647,6,0,P|61:132|72:90,1,87.5,0|0,3:0|3:0,0:0:0:0:
174,148,30966,1,8,0:0:0:0:
312,296,31126,6,0,P|323:347|311:379,1,87.5,0|0,3:0|3:0,0:0:0:0:
264,184,31445,1,8,0:0:0:0:
412,216,31604,2,0,L|472:208,1,43.75,0|0,0:0|2:0,0:0:0:0:
464,112,31764,1,8,0:0:0:0:
467,77,31844,1,8,0:0:0:0:
456,43,31923,5,0,3:0:0:0:
384,84,32083,2,0,L|336:88,2,43.75,0|0|8,0:0|2:0|0:0,0:0:0:0:
264,184,32402,1,0,0:0:0:0:
229,179,32482,1,0,2:0:0:0:
194,187,32562,1,0,0:0:0:0:
169,211,32641,1,0,2:0:0:0:
153,242,32721,2,0,P|203:262|241:249,2,87.5,0|0|8,3:0|0:0|0:0,0:0:0:0:
313,339,33200,5,0,0:0:0:0:
154,323,33360,2,0,P|110:335|61:326,1,87.5,0|8,3:0|0:0,0:0:0:0:
100,170,33679,1,0,0:0:0:0:
100,170,33759,1,0,2:0:0:0:
100,170,33838,2,0,L|199:166,1,87.5,0|0,3:0|3:0,0:0:0:0:
296,106,34157,2,0,L|396:102,1,87.5,8|0,0:0|0:0,0:0:0:0:
495,245,34477,6,0,L|485:365,2,87.5,0|0|8,3:0|0:0|0:0,0:0:0:0:
383,102,34955,1,0,0:0:0:0:
373,68,35035,1,0,2:0:0:0:
378,33,35115,1,0,0:0:0:0:
460,69,35274,2,0,B|462:147|462:147|394:233,1,175,0|8,3:0|0:0,0:0:0:0:
383,102,35753,5,0,3:0:0:0:
383,102,35913,1,0,3:0:0:0:
495,245,36072,1,8,0:0:0:0:
305,176,36232,5,0,3:0:0:0:
305,176,36391,1,0,3:0:0:0:
459,145,36551,1,8,0:0:0:0:
380,252,36711,6,0,L|382:311,1,43.75,0|0,0:0|2:0,0:0:0:0:
422,355,36870,1,8,0:0:0:0:
389,367,36950,1,8,0:0:0:0:
354,363,37030,5,0,3:0:0:0:
250,244,37189,2,0,L|188:238,1,43.75,2|0,2:0|0:0,0:0:0:0:
223,317,37349,1,8,0:0:0:0:
305,176,37509,2,0,L|348:175,1,43.75,2|0,2:0|0:0,0:0:0:0:
459,145,37668,6,0,P|465:188|453:230,1,87.5,0|0,0:0|3:0,0:0:0:0:
351,109,37987,5,2,2:0:0:0:
313,262,38147,2,0,L|308:323,1,43.75,8|0,0:0|0:0,0:0:0:0:
276,377,38306,1,2,2:0:0:0:
172,257,38466,2,0,L|162:208,1,43.75,0|0,3:0|0:0,0:0:0:0:
138,138,38626,6,0,P|180:133|218:156,1,87.5,8|0,0:0|0:0,0:0:0:0:
238,22,38945,5,0,3:0:0:0:
238,22,39104,1,0,3:0:0:0:
428,66,39264,2,0,L|481:62,1,43.75,8|0,0:0|2:0,0:0:0:0:
453,92,39423,2,0,L|489:90,2,29.1666666666667,0|0|0,3:0|2:0|0:0,0:0:0:0:
468,108,39583,5,0,3:0:0:0:
337,166,39743,2,0,L|290:164,1,43.75,2|0,2:0|0:0,0:0:0:0:
209,135,39902,1,8,0:0:0:0:
393,243,40062,2,0,L|444:238,1,43.75,2|0,2:0|0:0,0:0:0:0:
489,189,40221,6,0,P|508:238|489:292,1,87.5,0|0,0:0|3:0,0:0:0:0:
345,331,40540,5,8,0:0:0:0:
214,289,40700,2,0,L|156:285,1,43.75,2|0,2:0|0:0,0:0:0:0:
90,246,40860,1,0,3:0:0:0:
260,210,41019,2,0,L|328:206,1,43.75,0|0,3:0|0:0,0:0:0:0:
334,120,41179,6,0,B|326:48|326:48|345:13,1,87.5,8|0,0:0|3:0,0:0:0:0:
444,102,41498,5,0,3:0:0:0:
393,243,41657,1,0,3:0:0:0:
320,108,41817,1,8,0:0:0:0:
480,200,41977,1,8,0:0:0:0:
490,233,42056,1,8,0:0:0:0:
486,267,42136,5,0,3:0:0:0:
393,243,42296,1,0,0:0:0:0:
393,243,42376,1,0,2:0:0:0:
393,243,42455,1,0,0:0:0:0:
244,312,42615,1,0,0:0:0:0:
213,329,42695,1,0,2:0:0:0:
179,336,42774,1,0,0:0:0:0:
144,331,42854,1,0,2:0:0:0:
110,319,42934,1,0,3:0:0:0:
165,171,43094,2,0,L|169:72,1,87.5,0|8,0:0|0:0,0:0:0:0:
277,52,43413,5,0,0:0:0:0:
311,43,43493,1,0,2:0:0:0:
342,57,43572,1,0,3:0:0:0:
305,133,43732,2,0,B|297:207|297:207|271:233,1,87.5,8|0,0:0|0:0,0:0:0:0:
165,171,44051,1,0,3:0:0:0:
277,52,44211,1,0,3:0:0:0:
287,216,44370,1,8,0:0:0:0:
197,95,44530,2,0,L|197:31,2,43.75,0|0|0,0:0|2:0|3:0,0:0:0:0:
156,200,44849,5,0,0:0:0:0:
324,96,45009,1,8,0:0:0:0:
412,240,45168,2,0,L|472:240,2,43.75,0|0|0,0:0|2:0|0:0,0:0:0:0:
292,192,45487,2,0,P|280:252|292:280,1,87.5,0|0,3:0|0:0,0:0:0:0:
412,240,45806,1,8,0:0:0:0:
324,96,45966,5,0,3:0:0:0:
324,96,46126,1,0,3:0:0:0:
292,192,46285,1,8,0:0:0:0:
208,104,46445,5,0,3:0:0:0:
208,104,46604,1,0,3:0:0:0:
232,264,46764,1,8,0:0:0:0:
152,196,46923,2,0,L|100:196,1,43.75,0|0,0:0|2:0,0:0:0:0:
36,159,47083,1,8,0:0:0:0:
31,193,47163,1,8,0:0:0:0:
35,227,47243,5,0,3:0:0:0:
151,276,47402,2,0,P|196:282|236:258,1,87.5,0|8,0:0|0:0,0:0:0:0:
290,111,47721,1,0,0:0:0:0:
323,100,47801,1,0,2:0:0:0:
357,104,47881,1,0,0:0:0:0:
389,116,47961,1,0,2:0:0:0:
412,141,48040,1,0,3:0:0:0:
339,182,48200,1,0,0:0:0:0:
211,158,48360,2,0,P|205:102|209:70,2,87.5,8|0|0,0:0|0:0|3:0,0:0:0:0:
302,267,48838,6,0,P|359:276|391:262,1,87.5,8|0,0:0|0:0,0:0:0:0:
385,265,49078,1,0,2:0:0:0:
385,265,49157,1,0,3:0:0:0:
357,104,49317,1,0,3:0:0:0:
211,158,49477,1,8,0:0:0:0:
339,182,49636,2,0,L|393:180,1,43.75,0|0,3:0|2:0,0:0:0:0:
459,104,49796,6,0,P|487:171|444:276,1,175,0|8,3:0|0:0,0:0:0:0:
339,182,50274,2,0,L|277:182,2,43.75,0|0|0,0:0|2:0|0:0,0:0:0:0:
251,76,50594,2,0,P|202:66|148:93,1,87.5,0|8,3:0|0:0,0:0:0:0:
211,158,50913,2,0,P|212:211|212:212,1,43.75,8|0,0:0|0:0,0:0:0:0:
215,236,51072,5,0,3:0:0:0:
215,236,51232,1,0,3:0:0:0:
340,76,51391,1,8,0:0:0:0:
161,78,51551,5,0,3:0:0:0:
161,78,51711,1,0,3:0:0:0:
300,160,51870,1,8,0:0:0:0:
212,160,52030,2,0,L|152:160,1,43.75,0|0,0:0|2:0,0:0:0:0:
100,204,52189,1,8,0:0:0:0:
92,169,52269,1,8,0:0:0:0:
95,134,52349,6,0,P|103:84|90:44,2,87.5,0|0|8,3:0|0:0|0:0,0:0:0:0:
159,282,52828,1,0,0:0:0:0:
191,294,52907,1,0,2:0:0:0:
226,295,52987,1,0,0:0:0:0:
260,292,53067,1,0,2:0:0:0:
293,281,53147,1,0,3:0:0:0:
394,216,53306,2,0,L|396:121,1,87.5,0|8,0:0|0:0,0:0:0:0:
223,209,53626,5,0,0:0:0:0:
223,209,53705,1,0,2:0:0:0:
223,209,53785,1,0,3:0:0:0:
299,73,53945,1,8,0:0:0:0:
177,91,54104,2,0,L|121:85,1,43.75,0|0,0:0|2:0,0:0:0:0:
133,86,54264,1,0,3:0:0:0:
223,209,54423,1,0,3:0:0:0:
320,40,54583,1,8,0:0:0:0:
408,136,54743,2,0,L|408:192,1,43.75,0|0,0:0|2:0,0:0:0:0:
436,204,54902,6,0,B|464:168|464:168|452:40,1,175,0|8,3:0|0:0,0:0:0:0:
363,40,55381,2,0,L|303:40,1,43.75,0|0,0:0|2:0,0:0:0:0:
288,28,55540,2,0,L|216:32,1,43.75,0|0,0:0|2:0,0:0:0:0:
221,117,55700,1,0,3:0:0:0:
221,117,55860,2,0,P|166:110|119:124,1,87.5,0|8,0:0|0:0,0:0:0:0:
179,189,56179,5,0,3:0:0:0:
179,189,56338,1,0,3:0:0:0:
230,37,56498,1,8,0:0:0:0:
285,231,56657,5,0,3:0:0:0:
285,231,56817,1,0,3:0:0:0:
125,84,56977,1,8,0:0:0:0:
221,117,57136,2,0,L|276:115,1,43.75,0|0,0:0|2:0,0:0:0:0:
337,78,57296,1,8,0:0:0:0:
350,110,57376,1,8,0:0:0:0:
346,144,57455,5,0,3:0:0:0:
221,117,57615,1,0,0:0:0:0:
285,231,57774,1,8,0:0:0:0:
188,300,57934,1,0,0:0:0:0:
164,276,58014,1,0,2:0:0:0:
153,242,58094,1,0,0:0:0:0:
155,207,58173,1,0,2:0:0:0:
165,173,58253,1,0,3:0:0:0:
360,324,58413,2,0,L|412:330,1,43.75,0|0,3:0|0:0,0:0:0:0:
474,254,58572,2,0,L|431:250,1,43.75,8|0,0:0|2:0,0:0:0:0:
364,243,58732,5,0,0:0:0:0:
364,243,58812,1,0,2:0:0:0:
364,243,58891,2,0,P|304:252|256:228,1,87.5,0|8,3:0|0:0,0:0:0:0:
324,159,59211,1,0,0:0:0:0:
324,159,59290,1,0,2:0:0:0:
324,159,59370,1,0,3:0:0:0:
431,250,59530,1,0,3:0:0:0:
236,268,59689,1,8,0:0:0:0:
460,248,59849,1,0,3:0:0:0:
324,159,60009,6,0,B|224:136|224:136|148:172,1,175,0|8,3:0|0:0,0:0:0:0:
236,268,60487,2,0,L|240:335,1,43.75,0|0,0:0|2:0,0:0:0:0:
297,359,60647,2,0,B|318:324|318:324|314:254,1,87.5,0|0,0:0|3:0,0:0:0:0:
161,348,60966,1,0,0:0:0:0:
328,272,61126,1,8,0:0:0:0:
440,344,61285,5,0,3:0:0:0:
440,344,61445,1,0,3:0:0:0:
376,160,61604,1,8,0:0:0:0:
328,272,61764,5,0,3:0:0:0:
328,272,61923,1,0,3:0:0:0:
480,104,62083,1,8,0:0:0:0:
388,40,62243,2,0,L|340:48,1,43.75,0|0,0:0|2:0,0:0:0:0:
260,32,62402,1,8,0:0:0:0:
262,66,62482,1,8,0:0:0:0:
278,97,62562,5,4,1:0:0:0:
216,236,62721,2,0,L|212:288,2,43.75,0|0|8,0:0|2:0|0:0,0:0:0:0:
44,154,63040,1,0,2:0:0:0:
70,128,63120,1,0,0:0:0:0:
105,115,63200,1,0,2:0:0:0:
142,112,63280,1,0,0:0:0:0:
178,121,63360,1,0,3:0:0:0:
124,192,63519,2,0,P|128:248|108:300,1,87.5,0|8,0:0|0:0,0:0:0:0:
44,154,63838,5,0,0:0:0:0:
216,236,63998,2,0,P|271:239|317:221,1,87.5,0|8,3:0|0:0,0:0:0:0:
360,88,64317,1,0,0:0:0:0:
397,84,64397,1,0,2:0:0:0:
431,98,64477,1,0,3:0:0:0:
379,250,64636,2,0,L|365:337,1,87.5,0|8,3:0|0:0,0:0:0:0:
303,182,64955,1,0,3:0:0:0:
476,189,65115,6,0,L|479:233,1,43.75,0|0,3:0|2:0,0:0:0:0:
379,250,65274,1,0,0:0:0:0:
373,214,65354,1,0,2:0:0:0:
386,179,65434,1,8,0:0:0:0:
230,108,65594,2,0,L|235:47,2,43.75,0|0|0,0:0|2:0|0:0,0:0:0:0:
87,179,65913,2,0,L|81:298,1,87.5,0|0,3:0|0:0,0:0:0:0:
344,180,66232,2,0,L|349:82,1,87.5,8|0,0:0|3:0,0:0:0:0:
348,92,66551,5,0,3:0:0:0:
207,187,66711,2,0,P|219:235|204:272,1,87.5,8|0,0:0|3:0,0:0:0:0:
205,269,67030,5,0,3:0:0:0:
136,104,67189,1,8,0:0:0:0:
304,140,67349,2,0,L|350:136,1,43.75,0|0,0:0|2:0,0:0:0:0:
420,92,67509,1,8,0:0:0:0:
431,127,67588,1,8,0:0:0:0:
429,164,67668,5,0,3:0:0:0:
280,228,67828,2,0,L|232:228,1,43.75,2|0,2:0|2:0,0:0:0:0:
156,191,67987,1,8,0:0:0:0:
318,302,68147,2,0,L|365:302,1,43.75,2|0,2:0|2:0,0:0:0:0:
455,259,68306,6,0,P|464:301|458:345,1,87.5,0|0,0:0|3:0,0:0:0:0:
318,302,68626,5,2,2:0:0:0:
164,336,68785,2,0,L|104:332,1,43.75,8|0,0:0|0:0,0:0:0:0:
46,283,68945,1,2,2:0:0:0:
236,228,69104,2,0,L|312:228,1,43.75,0|0,3:0|0:0,0:0:0:0:
365,169,69264,6,0,B|357:92|357:92|366:67,1,87.5,8|0,0:0|0:0,0:0:0:0:
472,142,69583,5,0,3:0:0:0:
472,142,69743,1,0,3:0:0:0:
247,105,69902,1,8,0:0:0:0:
344,236,70062,1,0,3:0:0:0:
344,236,70221,6,0,L|344:340,1,87.5,0|2,3:0|2:0,0:0:0:0:
208,212,70540,1,8,0:0:0:0:
344,40,70700,1,2,2:0:0:0:
344,40,70780,1,0,2:0:0:0:
344,40,70860,5,2,2:0:0:0:
384,156,71019,1,0,3:0:0:0:
247,105,71179,1,2,2:0:0:0:
472,142,71338,1,8,0:0:0:0:
344,236,71498,6,0,P|296:228|256:248,1,87.5,0|0,3:0|3:0,0:0:0:0:
472,336,71817,1,8,0:0:0:0:
472,142,71977,6,0,P|479:79|459:35,1,87.5,0|0,3:0|3:0,0:0:0:0:
247,105,72296,1,8,0:0:0:0:
344,236,72455,2,0,L|396:236,1,43.75,0|0,0:0|2:0,0:0:0:0:
464,196,72615,1,8,0:0:0:0:
471,232,72695,1,8,0:0:0:0:
468,268,72774,5,0,3:0:0:0:
332,340,72934,2,0,B|276:324|276:324|216:336,1,87.5,0|8,0:0|0:0,0:0:0:0:
128,288,73253,1,0,0:0:0:0:
124,252,73333,1,0,2:0:0:0:
120,216,73413,1,0,0:0:0:0:
116,180,73493,1,0,2:0:0:0:
112,144,73572,1,0,3:0:0:0:
244,18,73732,2,0,P|252:61|247:105,1,87.5,0|8,0:0|0:0,0:0:0:0:
164,60,74051,5,0,0:0:0:0:
324,108,74211,2,0,L|368:108,1,43.75,0|0,3:0|0:0,0:0:0:0:
448,160,74370,2,0,L|496:160,1,43.75,8|0,0:0|0:0,0:0:0:0:
468,268,74530,1,0,0:0:0:0:
486,300,74610,1,0,2:0:0:0:
481,336,74689,1,0,3:0:0:0:
323,303,74849,2,0,P|264:299|233:311,1,87.5,0|8,3:0|0:0,0:0:0:0:
392,368,75168,1,0,3:0:0:0:
356,220,75328,6,0,P|368:172|340:116,1,87.5,0|0,3:0|0:0,0:0:0:0:
357,136,75567,1,0,2:0:0:0:
357,136,75647,1,8,0:0:0:0:
196,184,75806,1,0,0:0:0:0:
160,168,75886,1,0,0:0:0:0:
124,168,75966,1,0,0:0:0:0:
96,192,76046,1,0,2:0:0:0:
72,220,76126,2,0,L|12:232,1,43.75,0|0,3:0|2:0,0:0:0:0:
32,152,76285,2,0,P|24:96|40:64,1,87.5,0|8,0:0|0:0,0:0:0:0:
196,184,76604,6,0,L|285:182,1,87.5,0|0,3:0|3:0,0:0:0:0:
283,182,76923,1,8,0:0:0:0:
103,321,77083,6,0,L|8:324,1,87.5,0|0,3:0|3:0,0:0:0:0:
15,323,77402,1,8,0:0:0:0:
74,173,77562,2,0,L|79:126,1,43.75,0|0,0:0|2:0,0:0:0:0:
56,58,77721,1,8,0:0:0:0:
92,52,77801,1,8,0:0:0:0:
124,69,77881,5,0,3:0:0:0:
297,102,78040,2,0,L|351:99,1,43.75,2|0,2:0|0:0,0:0:0:0:
419,139,78200,1,8,0:0:0:0:
258,210,78360,2,0,L|194:216,1,43.75,2|0,2:0|0:0,0:0:0:0:
137,174,78519,6,0,P|126:219|156:278,1,87.5,0|0,0:0|3:0,0:0:0:0:
295,335,78838,5,2,2:0:0:0:
380,181,78998,2,0,L|376:116,1,43.75,8|0,0:0|2:0,0:0:0:0:
297,102,79157,1,2,2:0:0:0:
372,261,79317,2,0,L|383:333,1,43.75,0|0,3:0|0:0,0:0:0:0:
432,371,79477,6,0,P|389:386|331:378,1,87.5,8|0,0:0|0:0,0:0:0:0:
258,210,79796,5,0,3:0:0:0:
372,261,79955,1,0,3:0:0:0:
157,281,80115,2,0,L|104:280,1,43.75,8|0,0:0|0:0,0:0:0:0:
143,326,80274,2,0,L|106:324,2,29.1666666666667,0|0|0,0:0|2:0|0:0,0:0:0:0:
136,352,80434,5,0,3:0:0:0:
42,164,80594,2,0,L|49:100,1,43.75,2|0,2:0|0:0,0:0:0:0:
96,48,80753,1,8,0:0:0:0:
148,215,80913,2,0,L|156:288,1,43.75,2|0,2:0|2:0,0:0:0:0:
194,318,81072,6,0,P|155:335|113:324,1,87.5,2|0,2:0|3:0,0:0:0:0:
134,122,81391,5,2,2:0:0:0:
307,150,81551,2,0,L|367:148,1,43.75,8|0,0:0|0:0,0:0:0:0:
419,204,81711,1,0,3:0:0:0:
251,252,81870,2,0,L|186:255,1,43.75,0|0,3:0|0:0,0:0:0:0:
132,301,82030,6,0,P|116:251|152:194,1,87.5,8|0,0:0|3:0,0:0:0:0:
276,264,82349,5,0,3:0:0:0:
112,316,82509,1,8,0:0:0:0:
168,204,82668,2,0,L|168:160,1,43.75,0|0,0:0|2:0,0:0:0:0:
212,84,82828,1,8,0:0:0:0:
180,64,82907,1,8,0:0:0:0:
144,72,82987,5,0,3:0:0:0:
72,176,83147,2,0,L|24:172,2,43.75,0|0|8,0:0|0:0|0:0,0:0:0:0:
231,196,83466,1,0,0:0:0:0:
262,181,83546,1,0,2:0:0:0:
296,183,83626,1,0,0:0:0:0:
322,204,83705,1,0,2:0:0:0:
347,228,83785,2,0,P|391:244|435:232,1,87.5,0|0,3:0|0:0,0:0:0:0:
444,128,84104,2,0,P|452:80|444:32,1,87.5,8|0,0:0|0:0,0:0:0:0:
336,88,84423,5,8,3:0:0:0:
380,264,84583,1,8,0:0:0:0:
236,204,84743,5,0,0:0:0:0:
360,176,84902,1,0,3:0:0:0:
196,320,85062,6,0,L|144:320,2,43.75,8|0|8,3:0|2:0|0:0,0:0:0:0:
408,256,85381,1,0,0:0:0:0:
408,256,85540,5,0,3:0:0:0:
279,207,85700,2,0,L|231:203,2,43.75,0|0|8,0:0|2:0|0:0,0:0:0:0:
450,175,86019,1,0,0:0:0:0:
472,148,86099,1,0,0:0:0:0:
470,112,86179,1,0,0:0:0:0:
457,79,86259,1,0,2:0:0:0:
428,59,86338,2,0,L|424:3,1,43.75,0|0,3:0|2:0,0:0:0:0:
348,36,86498,2,0,P|300:28|256:52,1,87.5,0|8,0:0|0:0,0:0:0:0:
220,112,86817,5,0,3:0:0:0:
284,216,86977,1,8,3:0:0:0:
344,44,87136,1,8,0:0:0:0:
212,120,87296,5,8,3:0:0:0:
292,224,87455,1,0,3:0:0:0:
348,36,87615,1,8,0:0:0:0:
204,128,87774,6,0,L|144:128,1,43.75,0|0,0:0|2:0,0:0:0:0:
88,92,87934,1,8,0:0:0:0:
80,124,88014,1,8,0:0:0:0:
84,160,88094,5,0,3:0:0:0:
132,311,88253,2,0,L|126:360,2,43.75,0|0|8,0:0|2:0|0:0,0:0:0:0:
292,224,88572,1,0,0:0:0:0:
303,190,88652,1,0,2:0:0:0:
304,154,88732,1,0,0:0:0:0:
299,119,88812,1,0,2:0:0:0:
288,86,88891,1,0,3:0:0:0:
217,153,89051,2,0,L|169:159,1,43.75,0|0,0:0|2:0,0:0:0:0:
111,228,89211,2,0,L|59:227,1,43.75,8|0,0:0|2:0,0:0:0:0:
32,228,89370,1,0,0:0:0:0:
80,124,89530,5,8,3:0:0:0:
132,311,89689,1,8,0:0:0:0:
217,153,89849,5,0,0:0:0:0:
111,228,90009,1,0,3:0:0:0:
293,266,90168,6,0,L|341:266,2,43.75,8|0|8,3:0|0:0|0:0,0:0:0:0:
120,316,90487,1,0,0:0:0:0:
120,316,90647,5,0,3:0:0:0:
88,140,90806,2,0,L|88:76,2,43.75,0|0|8,0:0|2:0|0:0,0:0:0:0:
204,240,91126,1,0,0:0:0:0:
233,222,91205,1,0,2:0:0:0:
267,228,91285,1,0,0:0:0:0:
432,96,91445,6,0,L|368:100,1,43.75,8|0,3:0|0:0,0:0:0:0:
288,72,91604,2,2,L|252:68,3,29.1666666666667,2|2|2|10,2:0|2:0|2:0|2:0,2:0:0:0:
340,228,91923,5,8,3:0:0:0:
452,76,92083,1,8,3:0:0:0:
352,144,92243,1,8,0:0:0:0:
464,208,92402,1,8,3:0:0:0:
452,288,92562,5,8,3:0:0:0:
320,224,92721,1,8,0:0:0:0:
496,200,92881,1,2,2:0:0:0:
300,220,93040,1,8,0:0:0:0:
288,188,93120,1,8,0:0:0:0:
296,152,93200,6,0,P|304:96|288:56,2,87.5,0|0|8,3:0|0:0|0:0,0:0:0:0:
112,184,93679,1,0,0:0:0:0:
108,220,93759,1,0,2:0:0:0:
104,256,93838,1,0,0:0:0:0:
100,292,93918,1,0,2:0:0:0:
96,328,93998,2,0,L|92:376,2,43.75,0|0|0,3:0|0:0|0:0,0:0:0:0:
208,152,94317,2,0,P|196:104|208:64,1,87.5
360,248,94636,5,8,3:0:0:0:
188,140,94796,1,8,0:0:0:0:
324,76,94955,5,0,0:0:0:0:
252,236,95115,1,0,3:0:0:0:
216,16,95274,5,8,3:0:0:0:
348,104,95434,2,0,P|389:111|437:103,1,87.5,8|0,0:0|0:0,1:0:0:0:
433,104,95753,5,0,3:0:0:0:
264,140,95913,2,0,L|188:136,2,43.75,0|0|8,0:0|2:0|0:0,0:0:0:0:
404,220,96232,1,0,0:0:0:0:
418,252,96312,1,0,2:0:0:0:
420,286,96391,1,0,0:0:0:0:
415,320,96471,1,0,2:0:0:0:
392,346,96551,1,0,3:0:0:0:
217,268,96711,2,0,P|169:278|114:264,1,87.5,8|8,0:0|0:0,0:0:0:0:
167,90,97030,6,2,L|166:53,3,29.1666666666667,2|2|2|2,2:0|2:0|2:0|2:0,2:0:0:0:
350,38,97349,5,8,0:0:0:0:
248,164,97509,1,8,3:0:0:0:
128,60,97668,5,8,3:0:0:0:
244,72,97828,1,0,0:0:0:0:
80,220,97987,5,8,3:0:0:0:
216,268,98147,1,8,0:0:0:0:
248,280,98227,1,8,0:0:0:0:
282,274,98306,5,0,3:0:0:0:
248,164,98466,1,0,0:0:0:0:
64,228,98626,1,8,0:0:0:0:
152,148,98785,1,0,0:0:0:0:
184,136,98865,1,0,0:0:0:0:
220,144,98945,1,0,0:0:0:0:
248,164,99024,1,0,2:0:0:0:
276,184,99104,2,0,L|385:186,1,87.5,8|0,3:0|0:0,0:0:0:0:
467,230,99423,6,0,P|478:290|465:327,1,87.5,8|0,0:0|0:0,1:0:0:0:
325,266,99743,1,0,3:0:0:0:
293,251,99822,1,0,0:0:0:0:
258,257,99902,1,8,0:0:0:0:
64,228,100062,5,0,0:0:0:0:
96,215,100141,1,0,0:0:0:0:
130,221,100221,1,8,3:0:0:0:
37,344,100381,5,0,3:0:0:0:
26,122,100540,1,8,0:0:0:0:
130,221,100700,2,0,L|181:224,1,43.75,0|0,3:0|0:0,0:0:0:0:
261,151,100860,6,0,P|319:149|356:173,2,87.5,8|0|8,3:0|0:0|0:0,0:0:0:0:
146,77,101338,1,0,0:0:0:0:
142,113,101418,1,0,2:0:0:0:
138,149,101498,1,0,0:0:0:0:
134,185,101578,1,0,2:0:0:0:
130,221,101657,1,0,3:0:0:0:
280,140,101817,1,0,0:0:0:0:
52,120,101977,1,8,0:0:0:0:
124,256,102136,5,0,3:0:0:0:
220,84,102296,1,0,3:0:0:0:
32,128,102455,1,8,0:0:0:0:
172,192,102615,5,0,3:0:0:0:
88,20,102774,1,0,3:0:0:0:
44,220,102934,2,0,P|36:272|56:308,1,87.5,8|0,0:0|0:0,0:0:0:0:
208,264,103253,1,8,0:0:0:0:
244,256,103333,1,8,0:0:0:0:
276,272,103413,6,0,B|308:289|337:277|363:264|363:264|386:280|424:286|456:277|474:247|474:247|442:288|437:333|466:374,1,341.249989585877,4|0,0:0|0:0,0:0:0:0:
370,349,104530,6,0,B|362:315|372:277|392:260|392:260|368:234|337:201|322:159|349:87|410:71|490:80|522:137|504:208|488:220,1,446.249986381531,2|0,2:0|0:0,0:0:0:0:
425,180,105966,6,0,B|409:153|412:109|412:109|384:136|352:170|281:137|281:137|243:150|243:150|201:140,1,288.74999118805,2|0,2:0|0:0,0:0:0:0:
145,22,106923,6,0,B|135:82|135:82|104:127|104:127|95:196,1,183.749994392395,2|0,2:0|0:0,0:0:0:0:
183,220,107562,6,0,L|182:274,1,43.75,2|0,2:0|0:0,0:0:0:0:
96,311,107881,2,0,L|101:366,1,43.75,2|0,2:0|0:0,0:0:0:0:
241,333,108200,2,0,L|238:378,1,43.75,2|0,2:0|0:0,0:0:0:0:
328,252,108519,6,0,L|332:200,1,43.75,4|0,0:0|0:0,0:0:0:0:
448,112,108838,1,2,2:0:0:0:
448,112,108998,2,0,L|440:32,1,65.625
236,108,109317,1,0,0:0:0:0:
236,108,109477,2,2,L|168:104,1,65.625,2|0,2:0|2:0,2:0:0:0:
280,192,109796,6,0,B|300:176|300:176|376:184,1,87.5,2|2,2:0|2:0,2:0:0:0:
256,32,110434,2,0,L|312:28,1,43.75
144,112,110753,2,0,L|96:116,1,43.75
80,240,111072,6,0,P|64:280|76:336,1,87.5,2|2,2:0|2:0,0:0:0:0:
164,288,111551,1,0,0:0:0:0:
56,156,111711,2,0,L|56:104,1,43.75,2|0,2:0|0:0,0:0:0:0:
264,40,112030,6,0,L|260:104,1,52.4999983978272,8|0,0:0|0:0,0:0:0:0:
304,120,112189,2,0,L|304:180,1,52.4999983978272,8|0,0:0|0:0,0:0:0:0:
400,264,112349,5,2,0:0:0:0:
404,224,112429,1,2,0:0:0:0:
408,184,112509,2,0,L|412:128,1,52.4999983978272,8|0,0:0|0:0,0:0:0:0:
452,116,112668,6,0,L|456:46,1,52.4999983978272,2|0,0:0|0:0,0:0:0:0:
332,44,112828,6,8,L|296:40,2,26.2499991989136
340,60,112987,6,0,L|384:64,1,43.75,2|0,2:0|0:0,0:0:0:0:
206,148,113306,1,2,2:0:0:0:
206,148,113466,2,0,L|174:142,1,21.875
120,200,113626,6,0,L|60:196,1,52.4999983978272,4|0,0:0|0:0,0:0:0:0:
32,120,113785,1,0,0:0:0:0:
28,76,113865,1,0,0:0:0:0:
24,36,113945,1,8,0:0:0:0:
232,64,114104,5,0,0:0:0:0:
272,48,114184,1,0,2:0:0:0:
312,52,114264,1,0,0:0:0:0:
348,76,114344,1,0,2:0:0:0:
384,96,114423,2,0,L|440:96,2,52.4999983978272
256,188,114743,1,8,0:0:0:0:
120,108,114902,5,0,0:0:0:0:
112,68,114982,1,0,2:0:0:0:
132,32,115062,1,0,3:0:0:0:
256,188,115221,1,8,0:0:0:0:
156,288,115381,5,0,0:0:0:0:
116,304,115461,1,0,2:0:0:0:
76,292,115540,2,0,L|20:288,1,52.4999983978272,0|0,3:0|0:0,0:0:0:0:
120,216,115700,6,0,L|172:212,1,52.4999983978272,0|0,3:0|0:0,0:0:0:0:
280,288,115860,2,0,P|336:304|384:284,1,104.999996795654,8|0,0:0|0:0,0:0:0:0:
348,100,116179,5,0,3:0:0:0:
176,144,116338,2,0,L|120:140,2,52.4999983978272,0|0|8,0:0|2:0|0:0,0:0:0:0:
352,224,116657,1,0,0:0:0:0:
392,236,116737,1,0,2:0:0:0:
436,236,116817,1,0,0:0:0:0:
476,224,116897,1,0,2:0:0:0:
500,192,116977,1,0,3:0:0:0:
348,100,117136,2,0,P|280:84|244:100,1,104.999996795654,0|8,0:0|0:0,0:0:0:0:
148,228,117455,5,0,3:0:0:0:
96,52,117615,1,0,3:0:0:0:
252,148,117774,1,8,0:0:0:0:
56,160,117934,5,0,3:0:0:0:
204,48,118094,1,0,3:0:0:0:
140,260,118253,1,8,0:0:0:0:
148,160,118413,2,0,L|152:104,1,52.4999983978272,0|0,0:0|2:0,0:0:0:0:
112,40,118572,1,8,0:0:0:0:
150,25,118652,1,8,0:0:0:0:
188,40,118732,5,0,3:0:0:0:
372,68,118891,2,0,L|432:64,2,52.4999983978272,0|0|8,0:0|2:0|0:0,0:0:0:0:
200,168,119211,1,0,0:0:0:0:
168,144,119290,1,0,2:0:0:0:
124,144,119370,1,0,0:0:0:0:
84,160,119450,1,0,2:0:0:0:
56,192,119530,2,0,L|44:312,1,104.999996795654,0|0,3:0|0:0,0:0:0:0:
256,188,119849,1,8,0:0:0:0:
56,100,120009,5,4,2:0:0:0:
96,216,120168,2,0,L|148:216,1,52.4999983978272,0|0,3:0|0:0,0:0:0:0:
188,132,120328,5,12,2:0:0:0:
236,252,120487,2,0,L|296:252,1,52.4999983978272,2|0,2:0|0:0,0:0:0:0:
328,168,120647,5,4,2:0:0:0:
388,280,120806,2,0,L|440:280,1,52.4999983978272,0|0,3:0|0:0,0:0:0:0:
464,192,120966,5,12,2:0:0:0:
408,72,121126,2,0,L|324:72,1,65.6250025033952
236,44,121285,6,0,P|160:40|112:56,2,104.999996795654,0|0|8,3:0|0:0|0:0,0:0:0:0:
332,192,121764,1,0,0:0:0:0:
316,232,121844,1,0,0:0:0:0:
324,272,121923,1,0,0:0:0:0:
348,308,122003,1,0,2:0:0:0:
380,332,122083,2,0,L|368:396,2,52.4999983978272,0|0|0,3:0|0:0|0:0,0:0:0:0:
412,104,122402,1,8,0:0:0:0:
224,76,122562,5,0,3:0:0:0:
424,108,122721,1,0,3:0:0:0:
216,184,122881,1,8,0:0:0:0:
328,52,123040,5,0,3:0:0:0:
340,232,123200,1,0,3:0:0:0:
216,64,123360,1,8,0:0:0:0:
352,152,123519,2,0,L|416:152,1,52.4999983978272,0|0,0:0|2:0,0:0:0:0:
476,112,123679,1,8,0:0:0:0:
488,152,123759,1,8,0:0:0:0:
480,192,123838,5,0,3:0:0:0:
