osu file format v12

[General]
AudioFilename: -- ) CADNY CANDY English ver -----.mp3
AudioLeadIn: 0
PreviewTime: -1
Countdown: 0
SampleSet: Normal
StackLeniency: 0.9
Mode: 0
LetterboxInBreaks: 0
EpilepsyWarning: 1

[Editor]
DistanceSpacing: 0.8
BeatDivisor: 4
GridSize: 8

[Metadata]
Title:CANDY CANDY
TitleUnicode:CANDY CANDY
Artist:kalon
ArtistUnicode:kalon
Creator:Vistritium
Version:Normal
Source:
Tags:Yasutaka Nakata Kyary Pamyu Pamyu
BeatmapID:233132
BeatmapSetID:79787

[Difficulty]
HPDrainRate:4
CircleSize:4
OverallDifficulty:4
ApproachRate:4
SliderMultiplier:1.5
SliderTickRate:1

[Events]
//Background and Video events
0,0,"background.jpg",1,1
//Break Periods
2,90382,104093
2,164228,167094
2,178998,192709
//Storyboard Layer 0 (Background)
//Storyboard Layer 1 (Fail)
//Storyboard Layer 2 (Pass)
//Storyboard Layer 3 (Foreground)
//Storyboard Sound Samples
//Background Colour Transformations
3,100,163,162,255

[TimingPoints]
2029.42433361956,461.538461538462,4,2,0,100,1,0
14926,-100,4,1,0,100,0,0
61104,-100,4,1,0,100,0,1
75872,-100,4,1,0,100,0,0
75873,-100,4,1,0,100,0,1
90412,-100,4,1,0,100,0,0
134950,-100,4,1,0,100,0,1
149718,-100,4,1,0,100,0,0
149719,-100,4,1,0,100,0,1
164258,-100,4,1,0,100,0,0
208565,-100,4,1,0,100,0,1

[HitObjects]
168,248,2031,1,0,0:0:0:0:
64,184,2490,1,0,0:0:0:0:
64,64,2952,1,0,0:0:0:0:
176,32,3414,1,0,0:0:0:0:
392,112,3876,5,0,0:0:0:0:
392,232,4337,1,0,0:0:0:0:
336,336,4799,1,0,0:0:0:0:
216,344,5260,1,0,0:0:0:0:
64,272,5722,6,0,B|64:176|64:120|64:120,1,150
64,64,6645,2,0,L|240:24|240:24,1,150
448,304,7568,6,0,B|448:208|448:152|448:152,1,150
448,96,8491,2,0,B|360:72|304:48|304:48,1,150
224,48,9414,5,0,0:0:0:0:
160,48,9876,1,0,0:0:0:0:
160,120,10337,1,0,0:0:0:0:
224,120,10799,1,0,0:0:0:0:
224,48,11260,5,0,0:0:0:0:
296,48,11722,1,0,0:0:0:0:
368,48,12183,1,0,0:0:0:0:
440,48,12645,1,0,0:0:0:0:
456,304,13106,6,0,L|456:136,1,150
384,304,14030,2,0,L|384:136,1,150
304,184,14953,2,0,B|288:168|288:168|288:192|288:192|272:168|272:168|272:192|272:192|256:168|256:168|256:192|256:192|240:168|240:168|240:192|240:192|224:168|224:168|224:192|224:192|208:168|208:168|200:184,1,300
160,176,16337,1,4,0:0:0:0:
48,320,16799,6,0,P|24:248|64:192,1,150
64,192,17722,2,0,P|88:264|48:320,1,150
48,32,18645,6,0,P|24:104|64:160,1,150
64,160,19568,2,0,P|88:88|48:32,1,150
256,32,20491,5,0,0:0:0:0:
400,64,20953,1,0,0:0:0:0:
472,200,21414,1,0,0:0:0:0:
424,344,21876,1,0,0:0:0:0:
272,344,22337,1,0,0:0:0:0:
120,344,22799,1,0,0:0:0:0:
120,256,23260,2,0,L|216:256,2,75
112,104,24183,6,0,B|192:72|264:48|336:72|416:112,1,300
376,200,25567,1,0,0:0:0:0:
344,288,26030,1,0,0:0:0:0:
256,312,26491,1,0,0:0:0:0:
168,312,26953,1,0,0:0:0:0:
168,200,27414,6,0,B|224:136|240:184|296:104,1,150
280,208,28337,2,0,B|336:200|352:144|408:112,1,150
392,280,29260,1,0,0:0:0:0:
304,280,29722,1,0,0:0:0:0:
216,280,30183,1,0,0:0:0:0:
216,192,30645,2,0,B|192:152|208:128|208:128|216:144|224:128|224:128|240:152|216:192,1,150
256,32,31568,5,0,0:0:0:0:
168,32,32029,1,0,0:0:0:0:
120,64,32259,1,0,0:0:0:0:
88,96,32491,1,0,0:0:0:0:
128,168,32952,2,0,L|128:320,2,150
176,64,34336,2,0,B|256:40|336:32|392:80|456:152,1,300
408,240,35721,5,0,0:0:0:0:
392,280,35952,1,0,0:0:0:0:
368,312,36182,1,0,0:0:0:0:
296,344,36644,1,0,0:0:0:0:
224,296,37105,2,0,L|160:160,1,150
128,296,38029,2,0,L|64:160,1,150
256,296,38952,5,0,0:0:0:0:
256,208,39413,1,0,0:0:0:0:
256,168,39644,1,0,0:0:0:0:
256,120,39875,1,0,0:0:0:0:
256,32,40336,1,0,0:0:0:0:
344,32,40798,2,0,P|432:56|488:120,1,150
344,136,41721,2,0,P|432:160|488:224,1,150
256,56,42644,5,0,0:0:0:0:
256,144,43105,1,0,0:0:0:0:
256,192,43336,1,0,0:0:0:0:
256,232,43567,1,0,0:0:0:0:
256,320,44028,1,0,0:0:0:0:
344,320,44490,2,0,P|432:296|488:232,1,150
472,152,45183,1,0,0:0:0:0:
473,152,45414,2,0,P|432:192|344:216,1,150
144,224,46336,5,0,0:0:0:0:
144,112,46798,1,0,0:0:0:0:
144,112,47029,1,0,0:0:0:0:
144,112,47259,2,0,P|224:88|296:112,1,150
376,112,48182,1,0,0:0:0:0:
440,176,48644,1,0,0:0:0:0:
440,256,49105,2,0,L|352:256,2,75
440,176,50029,5,0,0:0:0:0:
368,112,50491,1,0,0:0:0:0:
368,112,50722,1,0,0:0:0:0:
368,112,50952,2,0,P|288:88|216:112,1,150
136,112,51875,1,0,0:0:0:0:
72,176,52337,1,0,0:0:0:0:
112,200,52567,1,0,0:0:0:0:
152,224,52798,1,0,0:0:0:0:
72,264,53260,1,0,0:0:0:0:
184,328,53721,5,0,0:0:0:0:
272,328,54182,1,0,0:0:0:0:
320,328,54413,1,0,0:0:0:0:
368,328,54644,1,0,0:0:0:0:
456,328,55105,1,0,0:0:0:0:
456,240,55567,2,0,L|456:72,1,150
344,240,56490,2,0,L|344:72,1,150
256,192,57413,5,0,0:0:0:0:
256,192,57875,1,0,0:0:0:0:
256,192,58336,1,0,0:0:0:0:
136,192,58798,2,0,L|72:128,1,75
136,192,59259,2,0,L|72:256,1,75
136,192,59721,2,0,L|200:256,2,75
216,144,61105,5,0,0:0:0:0:
216,216,61567,1,0,0:0:0:0:
216,144,62029,1,0,0:0:0:0:
216,216,62490,1,0,0:0:0:0:
288,176,62952,1,0,0:0:0:0:
288,176,63183,2,0,L|368:176,1,75
363,176,63644,1,0,0:0:0:0:
363,176,63875,2,0,P|440:174|464:248,1,150
312,344,64798,6,0,L|312:192,1,150
312,40,65721,2,0,L|312:192,1,150
256,192,66644,1,0,0:0:0:0:
208,192,67105,1,0,0:0:0:0:
160,192,67567,2,0,B|112:176|112:176|112:160|128:160|128:160|144:160|144:176|144:176|88:192,1,150
256,152,68490,5,0,0:0:0:0:
256,200,68952,1,0,0:0:0:0:
256,152,69413,1,0,0:0:0:0:
256,200,69875,1,0,0:0:0:0:
192,224,70336,2,0,L|48:272,1,150
192,160,71259,2,0,L|48:112,1,150
256,160,72182,2,0,P|216:88|144:64,1,150
256,224,73105,2,0,P|216:296|144:320,1,150
72,320,74029,5,0,0:0:0:0:
72,320,74259,1,0,0:0:0:0:
72,320,74490,2,0,L|43:236,2,75
72,320,75182,1,0,0:0:0:0:
72,320,75413,1,0,0:0:0:0:
104,136,75875,5,0,0:0:0:0:
40,72,76336,1,0,0:0:0:0:
104,248,76798,1,0,0:0:0:0:
40,312,77259,1,0,0:0:0:0:
168,320,77721,1,0,0:0:0:0:
168,320,77952,2,0,L|168:240,1,75
168,248,78413,1,0,0:0:0:0:
168,248,78644,2,0,L|168:96,1,150
256,40,79567,5,0,0:0:0:0:
304,40,80029,1,0,0:0:0:0:
352,40,80490,1,0,0:0:0:0:
400,40,80952,1,0,0:0:0:0:
416,128,81413,2,0,P|328:160|312:240,2,150
152,48,83259,5,0,0:0:0:0:
48,128,83721,1,0,0:0:0:0:
48,272,84182,1,0,0:0:0:0:
152,328,84644,1,0,0:0:0:0:
248,296,85105,2,0,P|320:296|392:360,2,150
248,296,86490,1,0,0:0:0:0:
152,104,86952,2,0,L|248:232,1,150
336,104,87875,2,0,L|240:232,1,150
248,224,88798,1,0,0:0:0:0:
248,224,89721,2,0,B|224:184|240:160|240:160|248:176|256:160|256:160|272:184|248:224,1,150
256,64,105413,5,0,0:0:0:0:
136,88,105875,1,0,0:0:0:0:
104,136,106105,1,0,0:0:0:0:
72,184,106336,1,0,0:0:0:0:
216,224,106798,1,0,0:0:0:0:
344,264,107259,5,0,0:0:0:0:
344,264,107721,2,0,P|416:288|432:360,1,150
432,352,108644,1,0,0:0:0:0:
440,192,109105,5,0,0:0:0:0:
352,192,109567,1,0,0:0:0:0:
304,192,109798,1,0,0:0:0:0:
264,192,110029,1,0,0:0:0:0:
176,192,110490,1,0,0:0:0:0:
88,192,110952,1,0,0:0:0:0:
88,192,111413,2,0,L|88:40,1,150
88,42,112336,1,0,0:0:0:0:
256,40,112798,5,0,0:0:0:0:
256,128,113259,1,0,0:0:0:0:
256,176,113490,1,0,0:0:0:0:
256,216,113721,2,0,P|216:272|256:336,1,150
256,336,114644,2,0,P|296:280|256:216,1,150
256,216,115567,1,0,0:0:0:0:
256,216,116029,1,0,0:0:0:0:
256,128,116490,5,0,0:0:0:0:
344,128,116952,1,0,0:0:0:0:
392,128,117182,1,0,0:0:0:0:
432,128,117413,1,0,0:0:0:0:
432,200,117875,1,0,0:0:0:0:
432,264,118336,1,0,0:0:0:0:
432,264,118798,2,0,B|392:232|392:232|360:224|368:256|368:256|392:256|392:256|368:240|368:240|352:256,1,150
288,192,120182,5,0,0:0:0:0:
240,128,120644,1,0,0:0:0:0:
216,160,120875,1,0,0:0:0:0:
200,192,121105,1,0,0:0:0:0:
152,264,121567,1,0,0:0:0:0:
112,192,122029,1,0,0:0:0:0:
112,192,122490,2,0,B|112:136|112:136|96:136|96:152|96:152|112:160|128:152|128:152|128:136|104:112,1,150
112,128,123413,1,0,0:0:0:0:
112,40,123875,5,0,0:0:0:0:
200,120,124336,1,0,0:0:0:0:
240,72,124567,1,0,0:0:0:0:
280,24,124798,1,0,0:0:0:0:
360,112,125259,1,0,0:0:0:0:
320,224,125721,1,0,0:0:0:0:
320,224,126182,2,0,B|320:280|320:280|336:280|336:264|336:264|320:256|304:264|304:264|304:280|328:304,1,150
320,296,127105,1,0,0:0:0:0:
200,296,127567,5,0,0:0:0:0:
144,296,128029,2,0,L|64:296,2,75
144,232,128952,1,0,0:0:0:0:
88,232,129413,1,0,0:0:0:0:
88,168,129875,1,0,0:0:0:0:
88,168,130336,2,0,P|104:104|176:128,1,150
176,120,131259,1,0,0:0:0:0:
264,128,131721,5,0,0:0:0:0:
384,128,132182,1,0,0:0:0:0:
352,216,132644,2,0,L|288:152,1,75
352,216,133106,2,0,L|288:280,1,75
352,216,133567,2,0,L|416:280,2,75
256,224,134952,5,0,0:0:0:0:
256,152,135413,1,0,0:0:0:0:
256,224,135875,1,0,0:0:0:0:
256,152,136336,1,0,0:0:0:0:
256,72,136798,1,0,0:0:0:0:
256,72,137259,2,0,P|184:64|160:136,1,150
160,128,138182,1,0,0:0:0:0:
256,192,138644,6,0,P|328:144|320:88,1,150
256,192,139567,2,0,P|328:240|320:296,1,150
256,192,140490,1,0,0:0:0:0:
256,192,140952,2,0,B|216:160|216:160|184:152|192:184|192:184|216:184|216:184|192:168|192:168|176:184,1,150
192,168,141875,1,0,0:0:0:0:
256,152,142336,6,0,L|376:48,1,150
256,232,143259,2,0,L|376:336,1,150
376,192,144182,1,0,0:0:0:0:
376,192,144644,2,0,P|296:160|304:80,1,150
288,104,145567,1,0,0:0:0:0:
200,96,146029,2,0,L|48:152,1,150
64,224,146952,2,0,P|120:240|200:192,1,150
264,192,147875,5,0,0:0:0:0:
264,192,148105,1,0,0:0:0:0:
264,192,148336,2,0,L|352:192,2,75
264,192,149028,1,0,0:0:0:0:
264,192,149259,1,0,0:0:0:0:
208,120,149721,5,0,0:0:0:0:
144,56,150182,1,0,0:0:0:0:
88,120,150644,1,0,0:0:0:0:
72,208,151105,1,0,0:0:0:0:
80,296,151567,2,0,L|168:296,1,75
200,296,152029,2,0,L|288:296,1,75
320,296,152490,2,0,P|408:272|432:208,1,150
432,136,153413,6,0,P|400:48|336:48,1,150
352,40,154336,2,0,P|384:128|448:128,1,150
408,224,155259,1,0,0:0:0:0:
344,288,155721,1,0,0:0:0:0:
256,304,156182,1,0,0:0:0:0:
120,192,157105,5,0,0:0:0:0:
208,192,157567,1,0,0:0:0:0:
296,192,158029,2,0,L|456:192,1,150
440,104,158952,1,0,0:0:0:0:
440,104,159413,2,0,P|384:72|304:104,1,150
307,99,160336,1,0,0:0:0:0:
448,232,160798,6,0,L|296:176,1,150
448,320,161721,2,0,L|296:264,1,150
313,273,162644,1,0,0:0:0:0:
313,273,163105,1,0,0:0:0:0:
312,274,163567,2,4,B|278:246|253:262|253:262|269:269|253:277|253:277|278:294|305:292|318:270,1,150
255,88,168414,5,0,0:0:0:0:
255,88,168645,1,0,0:0:0:0:
255,88,168875,1,0,0:0:0:0:
254,148,169337,6,0,L|255:250,2,75
254,317,170260,5,0,0:0:0:0:
254,317,170491,1,0,0:0:0:0:
254,317,170721,1,0,0:0:0:0:
254,236,171183,6,0,L|255:134,2,75
256,64,172106,5,0,0:0:0:0:
308,63,172336,1,0,0:0:0:0:
353,64,172567,1,0,0:0:0:0:
384,130,173029,6,0,B|420:220,2,75
428,281,173952,5,0,0:0:0:0:
379,308,174182,1,0,0:0:0:0:
379,263,174413,1,0,0:0:0:0:
306,293,174875,6,0,L|230:294,2,75
306,206,175798,5,0,0:0:0:0:
306,160,176029,1,0,0:0:0:0:
306,114,176260,1,0,0:0:0:0:
230,207,176721,5,0,0:0:0:0:
230,161,176952,1,0,0:0:0:0:
229,115,177183,1,0,0:0:0:0:
228,32,177644,5,0,0:0:0:0:
228,32,177875,1,0,0:0:0:0:
228,32,178106,2,0,L|316:32,2,75
228,32,178798,1,0,0:0:0:0:
169,68,194029,6,0,P|233:29|274:82,1,150
356,84,194952,2,0,P|430:82|439:148,1,150
444,230,195875,1,0,0:0:0:0:
444,230,196337,2,0,P|448:304|382:316,1,150
387,318,197260,1,0,0:0:0:0:
309,308,197721,6,0,P|245:347|204:294,1,150
122,292,198644,2,0,P|47:293|38:227,1,150
34,146,199567,1,0,0:0:0:0:
34,146,200029,2,0,P|29:71|95:59,1,150
90,57,200952,1,0,0:0:0:0:
256,64,201414,6,0,L|168:200,1,150
256,64,202337,2,0,L|344:200,1,150
256,64,203260,2,0,L|256:240,3,150
288,312,205106,2,0,P|357:268|378:195,1,150
224,312,206029,2,0,P|150:275|122:205,1,150
256,224,206953,5,0,0:0:0:0:
256,224,207183,1,0,0:0:0:0:
256,224,207414,2,0,L|257:136,2,75
256,224,208106,1,0,0:0:0:0:
256,224,208337,1,0,0:0:0:0:
256,111,208798,5,0,0:0:0:0:
224,79,209260,1,0,0:0:0:0:
256,48,209721,1,0,0:0:0:0:
287,79,210183,1,0,0:0:0:0:
392,80,210644,6,0,L|360:160,1,75
336,184,211106,2,0,L|248:224,1,75
216,224,211567,2,0,L|144:184,1,75
150,187,212029,1,0,0:0:0:0:
152,80,212490,5,0,0:0:0:0:
240,80,212952,1,0,0:0:0:0:
328,80,213414,1,0,0:0:0:0:
416,80,213875,1,0,0:0:0:0:
408,168,214337,2,0,P|336:184|256:168,3,150
368,336,216183,5,0,0:0:0:0:
248,336,216644,1,0,0:0:0:0:
136,288,217106,1,0,0:0:0:0:
64,192,217567,1,0,0:0:0:0:
120,88,218029,2,0,P|184:48|240:96,1,150
176,144,218952,2,0,P|256:184|304:144,1,150
392,48,219875,6,0,L|392:208,1,150
376,288,220798,2,0,P|256:256|256:224,1,150
256,136,221721,5,0,1:0:0:0:
256,200,222183,1,4,1:0:0:0:
256,264,222644,1,4,1:0:0:0:
200,200,223106,1,4,1:0:0:0:
312,200,223567,1,4,1:0:0:0:
