osu file format v12

[General]
AudioFilename: -- ) CADNY CANDY English ver -----.mp3
AudioLeadIn: 0
PreviewTime: -1
Countdown: 0
SampleSet: Soft
StackLeniency: 0.9
Mode: 0
LetterboxInBreaks: 0
EpilepsyWarning: 1

[Editor]
Bookmarks: 38745,66553
DistanceSpacing: 0.9
BeatDivisor: 4
GridSize: 8

[Metadata]
Title:CANDY CANDY
TitleUnicode:CANDY CANDY
Artist:kalon
ArtistUnicode:kalon
Creator:Vistritium
Version:Hard
Source:
Tags:Yasutaka Nakata Kyary Pamyu Pamyu
BeatmapID:223722
BeatmapSetID:79787

[Difficulty]
HPDrainRate:4
CircleSize:4
OverallDifficulty:6
ApproachRate:8
SliderMultiplier:1.6
SliderTickRate:1

[Events]
//Background and Video events
0,0,"background.jpg",0,0
//Break Periods
2,90382,104664
2,164228,167433
2,179460,193279
//Storyboard Layer 0 (Background)
//Storyboard Layer 1 (Fail)
//Storyboard Layer 2 (Pass)
//Storyboard Layer 3 (Foreground)
//Storyboard Sound Samples
//Background Colour Transformations
3,100,163,162,255

[TimingPoints]
2029.42433361956,461.538461538462,4,2,0,100,1,0
14835,-60.2409638554217,4,1,0,100,0,0
61104,-66.6666666666667,4,1,0,100,0,1
75872,-100,4,1,0,100,0,0
75873,-66.6666666666667,4,1,0,100,0,1
90412,-100,4,1,0,100,0,0
134926,-66.6666666666667,4,1,0,100,0,1
149718,-100,4,1,0,100,0,0
149719,-66.6666666666667,4,1,0,100,0,1
164258,-100,4,1,0,100,0,0
168181,-60.2409638554217,4,1,0,100,0,0
194027,-66.6666666666667,4,1,0,100,0,0
208565,-66.6666666666667,4,1,0,100,0,1

[HitObjects]
72,40,2029,2,8,L|72:136,1,79.9999999999999,0|0,0:0|0:0,0:0:0:0:
152,192,2490,2,8,L|152:96,1,79.9999999999999,0|0,0:0|0:0,0:0:0:0:
224,32,2952,2,8,L|224:128,1,79.9999999999999,0|0,0:0|0:0,0:0:0:0:
304,184,3413,2,8,L|304:88,1,79.9999999999999,0|0,0:0|0:0,0:0:0:0:
400,40,3875,6,0,L|464:88,1,80,0|0,0:0|0:0,0:0:0:0:
456,168,4337,2,0,L|392:120,1,80,0|0,0:0|0:0,0:0:0:0:
376,208,4798,2,0,L|440:256,1,80,0|0,0:0|0:0,0:0:0:0:
432,352,5260,2,0,L|368:304,1,80,0|0,0:0|0:0,0:0:0:0:
240,336,5721,5,0,0:0:0:0:
176,304,5952,1,0,0:0:0:0:
120,256,6183,1,0,0:0:0:0:
192,232,6414,2,0,L|176:312,1,80,0|0,0:0|0:0,0:0:0:0:
120,256,6875,1,0,0:0:0:0:
80,200,7106,1,0,0:0:0:0:
64,120,7337,2,0,L|152:80,1,80,0|0,0:0|0:0,0:0:0:0:
192,136,7798,5,0,0:0:0:0:
255,103,8029,1,0,0:0:0:0:
264,176,8260,2,0,L|184:136,1,80,0|0,0:0|0:0,0:0:0:0:
255,103,8722,1,0,0:0:0:0:
320,128,8952,1,0,0:0:0:0:
392,144,9183,2,0,L|456:192,1,80,0|0,0:0|3:0,0:0:0:0:
456,288,9644,5,0,0:0:0:0:
384,288,9875,1,0,3:0:0:0:
384,208,10106,2,0,L|304:208,1,80,0|0,0:0|3:0,0:0:0:0:
384,288,10567,1,0,0:0:0:0:
312,304,10798,2,0,L|224:336,1,80,0|0,3:0|0:0,0:0:0:0:
152,296,11260,5,0,3:0:0:0:
88,264,11490,1,0,0:0:0:0:
48,208,11721,1,0,3:0:0:0:
24,136,11952,2,0,L|24:56,1,80,0|0,0:0|3:0,0:0:0:0:
96,40,12414,1,0,0:0:0:0:
104,112,12644,1,0,3:0:0:0:
136,176,12875,1,0,0:0:0:0:
216,216,13106,6,2,L|272:148,1,80,0|0,3:0|0:0,0:0:0:0:
283,210,13568,2,2,L|334:148,1,80,0|0,3:0|0:0,0:0:0:0:
220,136,14029,2,2,L|271:74,1,80,0|0,3:0|0:0,0:0:0:0:
282,136,14490,2,2,L|333:74,1,80,0|0,3:0|0:0,0:0:0:0:
424,64,14952,6,0,B|408:96|408:96|432:96|432:96|408:104|408:104|432:104|432:104|408:112|408:112|432:112|432:112|408:120|408:120|432:120|432:120|408:128|408:128|432:128|432:128|408:136|408:136|432:136|432:136|408:144|408:144|432:144|432:144|408:152|408:152|432:152|432:152|408:160|408:160|432:160|432:160|408:168|408:168|432:168|432:168|416:200,1,531.200007700195,0|8,0:0|0:0,0:0:0:0:
419,192,16106,1,8,0:0:0:0:
419,192,16337,1,12,0:0:0:0:
120,312,16798,5,0,0:0:0:0:
32,232,17029,1,0,0:0:0:0:
48,144,17260,2,0,P|128:176|168:272,2,132.800001925049,8|0|0,0:0|0:0|0:0,0:0:0:0:
144,72,17952,1,0,0:0:0:0:
264,48,18183,1,0,0:0:0:0:
392,72,18414,5,0,0:0:0:0:
480,152,18645,1,0,0:0:0:0:
464,240,18876,2,0,P|384:208|344:112,2,132.800001925049,0|8|0,0:0|0:0|0:0,0:0:0:0:
368,312,19568,1,0,0:0:0:0:
264,312,19798,1,0,0:0:0:0:
160,320,20029,1,8,0:0:0:0:
56,288,20260,1,0,0:0:0:0:
104,192,20490,5,0,0:0:0:0:
48,96,20721,2,0,L|176:48,1,132.800001925049,0|8,0:0|0:0,0:0:0:0:
192,128,21183,1,0,0:0:0:0:
128,176,21414,1,0,0:0:0:0:
200,200,21644,2,0,P|248:176|256:88,1,132.800001925049,0|8,0:0|0:0,0:0:0:0:
416,48,22106,5,0,0:0:0:0:
416,48,22337,1,0,0:0:0:0:
424,128,22567,1,0,0:0:0:0:
440,208,22798,2,0,P|408:256|304:240,1,132.800001925049,0|0,0:0|0:0,0:0:0:0:
352,184,23260,2,0,P|256:200|240:240,1,132.800001925049,8|0,0:0|0:0,0:0:0:0:
216,304,23721,1,0,0:0:0:0:
128,280,23952,5,0,0:0:0:0:
128,280,24067,1,0,0:0:0:0:
128,280,24183,2,0,P|72:264|56:192,1,132.800001925049,0|0,0:0|0:0,0:0:0:0:
136,208,24644,2,0,P|184:176|144:104,1,132.800001925049,8|0,0:0|0:0,0:0:0:0:
88,128,25106,2,0,P|56:80|144:80,1,132.800001925049,0|0,0:0|0:0,0:0:0:0:
208,48,25567,1,0,0:0:0:0:
304,56,25798,5,0,0:0:0:0:
304,56,25913,1,0,0:0:0:0:
304,56,26029,2,0,P|360:72|376:144,1,132.800001925049,0|0,0:0|0:0,0:0:0:0:
296,128,26490,2,0,P|248:160|288:232,1,132.800001925049,8|0,0:0|0:0,0:0:0:0:
344,208,26952,2,0,P|376:256|288:256,1,132.800001925049,0|0,0:0|0:0,0:0:0:0:
256,312,27414,1,8,0:0:0:0:
200,232,27644,1,0,0:0:0:0:
112,248,27875,5,0,0:0:0:0:
72,176,28106,1,0,0:0:0:0:
80,96,28337,1,8,0:0:0:0:
144,56,28567,1,0,0:0:0:0:
224,56,28798,2,0,P|296:56|336:96,1,132.800001925049,0|0,0:0|0:0,0:0:0:0:
344,176,29260,1,8,0:0:0:0:
256,128,29490,5,0,0:0:0:0:
256,160,29606,1,0,0:0:0:0:
256,184,29720,1,0,0:0:0:0:
256,240,29952,1,0,0:0:0:0:
288,304,30183,2,0,L|368:184,1,132.800001925049,8|0,0:0|0:0,0:0:0:0:
432,152,30644,5,0,0:0:0:0:
464,232,30875,1,0,0:0:0:0:
352,184,31106,1,0,0:0:0:0:
452,308,31567,5,8,0:0:0:0:
372,320,31798,1,0,0:0:0:0:
292,320,32029,1,0,0:0:0:0:
264,244,32260,2,0,L|384:332,1,132.800001925049
292,320,32721,1,0,0:0:0:0:
248,252,32952,1,0,0:0:0:0:
176,296,33183,6,0,P|120:256|96:64,1,265.600003850098,0|0,0:0|0:0,0:0:0:0:
176,40,33875,1,0,0:0:0:0:
272,40,34106,2,0,P|392:48|472:200,1,265.600003850098,0|0,0:0|0:0,0:0:0:0:
352,168,34798,1,0,0:0:0:0:
320,56,35029,1,0,0:0:0:0:
184,56,35260,5,0,0:0:0:0:
184,144,35490,1,0,0:0:0:0:
264,144,35721,1,0,0:0:0:0:
264,56,35953,1,0,0:0:0:0:
264,56,36183,1,0,0:0:0:0:
344,144,36414,1,0,0:0:0:0:
344,64,36645,1,0,0:0:0:0:
344,64,36876,6,0,P|400:104|408:168,1,132.800001925049,0|0,0:0|0:0,0:0:0:0:
408,248,37337,2,0,P|376:328|296:336,1,132.800001925049,0|0,0:0|0:0,0:0:0:0:
272,288,37799,2,0,P|329:182|390:166,1,132.800001925049,0|0,0:0|0:0,0:0:0:0:
408,248,38260,1,0,0:0:0:0:
272,288,38490,1,0,0:0:0:0:
240,176,38721,1,0,0:0:0:0:
136,256,38952,5,0,0:0:0:0:
272,288,39183,1,0,0:0:0:0:
240,176,39414,1,0,0:0:0:0:
136,176,39644,2,0,L|64:168,2,66.4000009625244,0|0|0,0:0|0:0|0:0,0:0:0:0:
152,88,40106,1,0,0:0:0:0:
240,104,40337,2,0,L|392:104,1,132.800001925049,0|0,0:0|0:0,0:0:0:0:
376,184,40798,5,0,0:0:0:0:
368,264,41029,1,0,0:0:0:0:
296,304,41260,1,0,0:0:0:0:
216,312,41490,2,0,L|216:176,3,132.800001925049,0|0|0|0,0:0|0:0|0:0|0:0,0:0:0:0:
216,179,42414,1,0,0:0:0:0:
272,72,42644,5,0,0:0:0:0:
368,56,42875,1,0,0:0:0:0:
456,112,43106,1,0,0:0:0:0:
400,184,43337,1,0,0:0:0:0:
400,184,43567,1,0,0:0:0:0:
408,280,43798,1,0,0:0:0:0:
344,344,44029,1,0,0:0:0:0:
248,328,44260,6,0,P|168:320|136:264,1,132.800001925049,0|0,0:0|0:0,0:0:0:0:
168,208,44721,2,0,P|248:216|276:254,1,132.800001925049,0|0,0:0|0:0,0:0:0:0:
248,328,45183,1,0,0:0:0:0:
168,208,45414,1,0,0:0:0:0:
216,128,45644,1,0,0:0:0:0:
304,96,45875,1,0,0:0:0:0:
384,48,46106,1,0,0:0:0:0:
408,136,46337,5,0,0:0:0:0:
320,168,46567,1,0,0:0:0:0:
296,256,46798,1,0,0:0:0:0:
392,248,47029,2,0,L|392:320,2,66.4000009625244,0|0|0,0:0|0:0|0:0,0:0:0:0:
320,168,47490,1,0,0:0:0:0:
232,232,47721,1,0,0:0:0:0:
160,312,47952,5,0,0:0:0:0:
112,248,48183,1,0,0:0:0:0:
88,168,48414,1,0,0:0:0:0:
112,88,48644,1,0,0:0:0:0:
184,48,48875,1,0,0:0:0:0:
264,48,49106,1,0,0:0:0:0:
344,56,49337,1,0,0:0:0:0:
416,96,49567,1,0,0:0:0:0:
456,168,49798,1,0,0:0:0:0:
456,248,50029,5,0,0:0:0:0:
408,328,50260,1,0,0:0:0:0:
312,328,50490,1,0,0:0:0:0:
256,248,50721,2,0,L|256:176,2,66.4000009625244,0|0|0,0:0|0:0|0:0,0:0:0:0:
184,304,51183,1,0,0:0:0:0:
104,248,51414,1,0,0:0:0:0:
184,208,51644,1,0,0:0:0:0:
256,248,51875,6,0,B|320:224|320:224|248:208,1,132.800001925049,0|0,0:0|0:0,0:0:0:0:
256,208,52337,2,0,B|192:184|192:184|264:168,1,132.800001925049,0|0,0:0|0:0,0:0:0:0:
256,168,52798,2,0,B|320:144|320:144|248:128,1,132.800001925049,0|0,0:0|0:0,0:0:0:0:
257,130,53260,1,0,0:0:0:0:
256,40,53721,5,0,0:0:0:0:
376,64,53952,1,0,0:0:0:0:
256,40,54183,1,0,0:0:0:0:
144,64,54414,1,0,0:0:0:0:
112,176,54644,1,0,0:0:0:0:
48,280,54875,1,0,0:0:0:0:
168,264,55106,1,0,0:0:0:0:
248,336,55337,1,0,0:0:0:0:
304,280,55567,6,0,L|304:136,1,132.800001925049,0|0,0:0|0:0,0:0:0:0:
240,192,56029,2,0,L|240:56,1,132.800001925049,0|0,0:0|0:0,0:0:0:0:
368,192,56490,2,0,L|368:56,1,132.800001925049
304,40,56952,1,0,0:0:0:0:
184,40,57183,1,0,0:0:0:0:
128,144,57414,5,0,0:0:0:0:
368,152,57875,1,0,0:0:0:0:
128,224,58337,1,0,0:0:0:0:
368,224,58798,1,0,0:0:0:0:
296,128,59029,1,0,0:0:0:0:
192,88,59260,1,0,0:0:0:0:
104,168,59490,1,0,0:0:0:0:
216,208,59721,1,0,0:0:0:0:
192,88,59952,2,0,L|192:16,2,66.4000009625244,0|0|0,0:0|0:0|0:0,0:0:0:0:
288,160,60414,1,0,0:0:0:0:
328,272,60644,1,0,0:0:0:0:
448,256,60875,1,4,0:0:0:0:
440,136,61106,6,0,P|320:72|192:96,1,240.000009155274,0|0,0:0|0:0,0:0:0:0:
192,160,61798,1,0,0:0:0:0:
192,160,62029,2,0,P|312:224|440:200,1,240.000009155274,0|0,0:0|0:0,0:0:0:0:
448,152,62721,1,0,0:0:0:0:
384,104,62952,1,0,0:0:0:0:
336,48,63183,1,0,0:0:0:0:
304,112,63414,1,0,0:0:0:0:
264,56,63644,1,0,0:0:0:0:
232,120,63875,1,0,0:0:0:0:
192,56,64106,1,0,0:0:0:0:
168,120,64337,1,0,0:0:0:0:
136,56,64567,1,0,0:0:0:0:
96,88,64798,6,0,P|72:216|168:320,1,240.000009155274,0|0,0:0|0:0,0:0:0:0:
200,304,65490,1,0,0:0:0:0:
200,304,65721,2,0,P|320:288|432:176,1,240.000009155274,0|0,0:0|0:0,0:0:0:0:
288,104,66644,2,0,L|216:208,1,120.000004577637,0|0,0:0|0:0,0:0:0:0:
328,176,67106,2,0,L|400:280,1,120.000004577637,0|0,0:0|0:0,0:0:0:0:
288,272,67567,2,0,L|128:240,1,120.000004577637,0|0,0:0|0:0,0:0:0:0:
216,128,68029,2,0,L|296:24,1,120.000004577637,0|0,0:0|0:0,0:0:0:0:
347,76,68490,6,0,P|440:153|476:308,1,240.000009155274,0|0,0:0|0:0,0:0:0:0:
400,296,69183,1,0,0:0:0:0:
400,296,69414,2,0,P|292:339|173:319,1,240.000009155274,0|0,0:0|0:0,0:0:0:0:
152,248,70106,1,0,0:0:0:0:
152,176,70337,1,0,0:0:0:0:
200,128,70567,1,0,0:0:0:0:
256,80,70798,1,0,0:0:0:0:
288,168,71029,2,0,L|320:304,2,120.000004577637,0|0|0,0:0|0:0|0:0,0:0:0:0:
256,80,71721,1,0,0:0:0:0:
200,128,71952,1,0,0:0:0:0:
256,80,72183,6,0,P|288:272|248:304,1,240.000009155274,0|0,0:0|0:0,0:0:0:0:
368,312,72875,1,0,0:0:0:0:
368,312,73106,2,0,P|391:162|391:74,1,240.000009155274,0|0,0:0|0:0,0:0:0:0:
320,48,73798,2,0,P|255:43|227:85,1,120.000004577637,0|0,0:0|0:0,0:0:0:0:
263,191,74260,5,0,0:0:0:0:
263,191,74490,1,0,0:0:0:0:
264,192,74721,2,0,B|256:144|256:144|264:152|264:152|272:144|272:144|264:192,1,120.000004577637,0|0,0:0|0:0,0:0:0:0:
263,191,75183,5,0,0:0:0:0:
264,192,75414,2,0,B|264:224|264:224|256:232|264:240|264:240|272:248|264:256|264:256|256:264|264:272|264:272|272:280|264:288|264:288|264:304,1,120.000004577637,0|0,0:0|0:0,0:0:0:0:
376,304,75875,5,0,0:0:0:0:
376,240,76106,2,0,L|512:232,1,120.000004577637,0|0,0:0|0:0,0:0:0:0:
496,152,76567,1,0,0:0:0:0:
456,96,76798,1,0,0:0:0:0:
392,88,77029,2,0,L|272:144,1,120.000004577637,0|0,0:0|0:0,0:0:0:0:
312,32,77490,1,0,0:0:0:0:
224,40,77721,5,0,0:0:0:0:
224,40,77952,2,0,P|224:88|160:112,2,120.000004577637,0|0|0,0:0|0:0|0:0,0:0:0:0:
224,40,78644,2,0,P|288:32|304:80,1,120,0|0,0:0|0:0,0:0:0:0:
304,74,79106,1,0,0:0:0:0:
360,144,79337,1,0,0:0:0:0:
360,48,79567,6,0,P|424:120|432:272,1,240.000009155274,0|0,0:0|0:0,0:0:0:0:
336,328,80260,1,0,0:0:0:0:
336,328,80490,2,0,P|152:304|72:272,1,240,0|0,0:0|0:0,0:0:0:0:
192,224,81183,6,0,L|24:192,1,120.000004577637
160,136,81644,2,0,L|280:80,1,120.000004577637,0|0,0:0|0:0,0:0:0:0:
344,168,82106,2,0,L|472:256,1,120.000004577637,0|0,0:0|0:0,0:0:0:0:
336,248,82567,2,0,L|208:312,1,120.000004577637,0|0,0:0|0:0,0:0:0:0:
208,192,83029,1,0,0:0:0:0:
112,224,83260,6,0,P|120:96|256:48,1,240.000009155274,0|0,0:0|0:0,0:0:0:0:
304,32,83952,1,0,0:0:0:0:
384,40,84183,2,0,P|472:163|433:244,1,240.000009155274,0|0,0:0|0:0,0:0:0:0:
384,272,84875,1,0,0:0:0:0:
307,256,85106,5,0,0:0:0:0:
237,272,85337,1,0,0:0:0:0:
181,228,85567,1,0,0:0:0:0:
181,155,85798,1,0,0:0:0:0:
237,111,86029,1,0,0:0:0:0:
307,127,86260,1,0,0:0:0:0:
338,192,86490,1,0,0:0:0:0:
392,240,86721,1,0,0:0:0:0:
456,208,86952,6,0,P|408:88|288:40,1,240.000009155274,0|0,0:0|0:0,0:0:0:0:
248,112,87644,1,0,0:0:0:0:
184,48,87875,2,0,P|48:88|8:200,1,240.000009155274,0|0,0:0|0:0,0:0:0:0:
88,208,88567,1,0,0:0:0:0:
168,208,88798,1,0,0:0:0:0:
240,208,89029,1,0,0:0:0:0:
312,208,89260,1,0,0:0:0:0:
384,208,89490,1,0,0:0:0:0:
384,208,89721,2,0,B|408:160|400:136|400:136|376:160|376:160|392:160|392:160|360:136|360:136|352:168|400:240,1,240.000009155274,0|0,0:0|0:0,0:0:0:0:
256,64,105414,5,0,0:0:0:0:
304,72,105644,1,0,0:0:0:0:
352,88,105875,1,0,0:0:0:0:
384,128,106106,1,0,0:0:0:0:
400,176,106337,1,0,0:0:0:0:
392,224,106567,2,0,L|392:272,1,40,0|0,0:0|0:0,0:0:0:0:
328,296,106798,1,0,0:0:0:0:
328,296,107029,6,0,L|240:224,1,80,0|0,0:0|0:0,0:0:0:0:
216,312,107490,2,0,L|152:240,1,80,0|0,0:0|0:0,0:0:0:0:
112,328,107952,2,0,L|56:256,1,80,0|0,0:0|0:0,0:0:0:0:
168,200,108414,2,0,L|232:128,1,80,0|0,0:0|0:0,0:0:0:0:
200,96,108875,1,0,0:0:0:0:
256,48,109106,5,0,0:0:0:0:
296,72,109337,1,0,0:0:0:0:
336,104,109567,1,0,0:0:0:0:
368,144,109798,1,0,0:0:0:0:
400,176,110029,1,0,0:0:0:0:
416,224,110260,1,0,0:0:0:0:
352,240,110490,1,0,0:0:0:0:
352,240,110721,6,0,P|336:272|295:280,1,80,0|0,0:0|0:0,0:0:0:0:
224,280,111183,2,0,P|188:275|169:223,1,80,0|0,0:0|0:0,0:0:0:0:
192,160,111644,2,0,P|220:138|271:161,1,80,0|0,0:0|0:0,0:0:0:0:
192,240,112106,1,0,0:0:0:0:
256,144,112337,1,0,0:0:0:0:
320,104,112567,1,0,0:0:0:0:
256,64,112798,5,0,0:0:0:0:
256,16,113029,1,0,0:0:0:0:
200,40,113260,1,0,0:0:0:0:
160,72,113490,1,0,0:0:0:0:
128,104,113721,1,0,0:0:0:0:
72,88,113952,1,0,0:0:0:0:
88,192,114183,1,0,0:0:0:0:
104,288,114414,1,0,0:0:0:0:
104,288,114644,6,0,P|168:280|192:248,1,80,0|0,0:0|0:0,0:0:0:0:
168,224,115106,2,0,P|176:215|240:207,1,80,0|0,0:0|0:0,0:0:0:0:
256,256,115567,2,0,P|320:248|344:208,1,80,0|0,0:0|0:0,0:0:0:0:
296,208,116029,2,0,P|304:199|368:191,1,80,0|0,0:0|0:0,0:0:0:0:
353,72,116490,5,0,0:0:0:0:
432,48,116721,1,0,0:0:0:0:
464,120,116952,1,0,0:0:0:0:
384,146,117183,1,0,0:0:0:0:
384,146,117413,1,0,0:0:0:0:
328,200,117644,1,0,0:0:0:0:
408,222,117875,1,0,0:0:0:0:
408,224,118106,6,0,P|393:291|368:312,1,80,0|0,0:0|0:0,0:0:0:0:
272,328,118567,2,0,P|185:329|160:320,1,80,0|0,0:0|0:0,0:0:0:0:
176,232,119029,2,0,B|296:243|288:240,1,80,0|0,0:0|0:0,0:0:0:0:
272,328,119490,1,0,0:0:0:0:
176,232,119720,1,0,0:0:0:0:
72,216,119952,1,0,0:0:0:0:
56,128,120183,5,0,0:0:0:0:
80,80,120414,1,0,0:0:0:0:
128,88,120644,1,0,0:0:0:0:
176,80,120875,1,0,0:0:0:0:
224,80,121106,1,0,0:0:0:0:
256,72,121337,1,0,0:0:0:0:
320,88,121567,1,0,0:0:0:0:
320,88,121798,6,0,L|360:192,1,80,0|0,0:0|0:0,0:0:0:0:
440,168,122260,2,0,L|480:280,1,80,0|0,0:0|0:0,0:0:0:0:
384,280,122721,1,0,0:0:0:0:
384,280,122952,2,0,L|296:240,1,80,0|0,0:0|0:0,0:0:0:0:
311,246,123414,1,0,0:0:0:0:
256,208,123644,1,0,0:0:0:0:
232,304,123875,5,0,0:0:0:0:
192,240,124106,1,0,0:0:0:0:
136,280,124337,1,0,0:0:0:0:
136,280,124567,2,0,L|80:224,1,80,0|0,0:0|0:0,0:0:0:0:
104,160,125029,1,0,0:0:0:0:
168,192,125260,1,0,0:0:0:0:
232,200,125490,1,0,0:0:0:0:
248,136,125721,1,0,0:0:0:0:
278,93,125952,1,0,0:0:0:0:
330,99,126183,1,0,0:0:0:0:
351,146,126414,1,0,0:0:0:0:
320,188,126644,1,0,0:0:0:0:
272,192,126875,2,0,L|216:272,1,80,0|0,0:0|0:0,0:0:0:0:
184,176,127337,1,0,0:0:0:0:
152,96,127567,5,0,0:0:0:0:
80,88,127798,1,0,0:0:0:0:
80,160,128029,2,0,L|80:240,2,80,0|0|0,0:0|0:0|0:0,0:0:0:0:
80,88,128721,1,0,0:0:0:0:
152,96,128952,1,0,0:0:0:0:
152,168,129183,1,0,0:0:0:0:
80,160,129414,2,0,L|80:240,1,80,0|0,0:0|0:0,0:0:0:0:
160,288,129875,2,0,L|248:312,1,80,0|0,0:0|0:0,0:0:0:0:
232,224,130337,2,0,P|216:184|176:168,1,80,0|0,0:0|0:0,0:0:0:0:
128,232,130798,2,0,P|144:263|184:278,1,80,0|0,0:0|0:0,0:0:0:0:
360,304,131260,5,0,0:0:0:0:
400,216,131721,1,0,0:0:0:0:
392,120,132183,1,0,0:0:0:0:
320,64,132644,1,0,0:0:0:0:
232,120,133106,5,0,0:0:0:0:
232,120,133337,1,0,0:0:0:0:
232,208,133567,1,0,0:0:0:0:
232,208,133798,1,0,0:0:0:0:
232,296,134029,1,0,0:0:0:0:
232,296,134260,1,0,0:0:0:0:
232,296,134490,1,0,0:0:0:0:
24,232,134952,6,0,P|144:297|248:296,1,240.000009155274,0|0,0:0|0:0,0:0:0:0:
344,312,135644,1,0,0:0:0:0:
320,224,135875,2,0,P|200:159|72:184,1,240.000009155274,0|0,0:0|0:0,0:0:0:0:
48,232,136567,1,0,0:0:0:0:
128,280,136798,1,0,0:0:0:0:
176,335,137029,1,0,0:0:0:0:
208,272,137260,1,0,0:0:0:0:
248,328,137490,1,0,0:0:0:0:
279,264,137721,1,0,0:0:0:0:
320,328,137952,1,0,0:0:0:0:
344,264,138183,1,0,0:0:0:0:
416,296,138644,6,0,P|440:168|344:64,1,240.000009155274,0|0,0:0|0:0,0:0:0:0:
312,80,139567,2,0,P|192:96|80:207,1,240.000009155274,0|0,0:0|0:0,0:0:0:0:
224,280,140490,2,0,L|296:176,1,120.000004577637,0|0,0:0|0:0,0:0:0:0:
184,208,140952,2,0,L|112:104,1,120.000004577637,0|0,0:0|0:0,0:0:0:0:
224,112,141413,2,0,L|384:144,1,120.000004577637,0|0,0:0|0:0,0:0:0:0:
296,256,141875,2,0,L|216:359,1,120.000004577637,0|0,0:0|0:0,0:0:0:0:
165,307,142336,6,0,P|72:231|36:76,1,240.000009155274,0|0,0:0|0:0,0:0:0:0:
112,88,143029,1,0,0:0:0:0:
112,88,143260,2,0,P|220:45|339:65,1,240.000009155274,0|0,0:0|0:0,0:0:0:0:
392,136,143952,1,0,0:0:0:0:
360,208,144183,1,0,0:0:0:0:
312,256,144413,1,0,0:0:0:0:
255,304,144644,1,0,0:0:0:0:
224,216,144875,2,0,L|192:80,2,120.000004577637,0|0|0,0:0|0:0|0:0,0:0:0:0:
255,304,145567,1,0,0:0:0:0:
312,256,145798,1,0,0:0:0:0:
255,304,146029,6,0,P|224:112|264:80,1,240.000009155274,0|0,0:0|0:0,0:0:0:0:
120,304,146721,1,0,0:0:0:0:
120,304,146952,2,0,P|120:215|144:64,1,240.000009155274,0|0,0:0|0:0,0:0:0:0:
240,72,147644,2,0,P|289:66|326:119,1,120.000004577637,0|0,0:0|0:0,0:0:0:0:
249,193,148106,5,0,0:0:0:0:
249,193,148336,1,0,0:0:0:0:
248,191,148567,2,0,B|256:240|256:240|248:232|248:232|240:239|240:239|248:191,1,120.000004577637,0|0,0:0|0:0,0:0:0:0:
249,193,149029,5,0,0:0:0:0:
248,191,149260,2,0,B|248:160|248:160|256:152|248:144|248:144|240:136|248:128|248:128|256:120|248:112|248:112|240:104|248:96|248:96|248:80,1,120.000004577637,0|0,0:0|0:0,0:0:0:0:
136,80,149721,5,0,0:0:0:0:
136,144,149952,2,0,L|0:152,1,120.000004577637,0|0,0:0|0:0,0:0:0:0:
16,232,150413,1,0,0:0:0:0:
56,288,150644,1,0,0:0:0:0:
120,296,150875,2,0,L|240:239,1,120.000004577637,0|0,0:0|0:0,0:0:0:0:
200,352,151336,1,0,0:0:0:0:
288,344,151567,5,0,0:0:0:0:
288,344,151798,2,0,P|288:296|352:272,2,120.000004577637,0|0|0,0:0|0:0|0:0,0:0:0:0:
288,344,152490,2,0,P|224:352|208:304,1,120,0|0,0:0|0:0,0:0:0:0:
208,309,152952,1,0,0:0:0:0:
152,240,153183,1,0,0:0:0:0:
152,336,153413,6,0,P|88:263|80:112,1,240.000009155274,0|0,0:0|0:0,0:0:0:0:
176,56,154106,1,0,0:0:0:0:
176,56,154336,2,0,P|360:80|440:112,1,240,0|0,0:0|0:0,0:0:0:0:
360,144,155029,1,0,0:0:0:0:
304,224,155260,6,0,P|232:272|176:232,1,120.000004577637
144,192,155721,1,0,0:0:0:0:
160,80,155952,1,0,0:0:0:0:
264,48,156183,1,0,0:0:0:0:
240,144,156414,1,0,0:0:0:0:
216,232,156644,1,0,0:0:0:0:
312,208,156875,1,0,0:0:0:0:
399,159,157106,6,0,P|392:288|256:336,1,240.000009155274,0|0,0:0|0:0,0:0:0:0:
208,352,157798,1,0,0:0:0:0:
128,344,158029,2,0,P|40:220|79:140,1,240.000009155274,0|0,0:0|0:0,0:0:0:0:
128,112,158721,1,0,0:0:0:0:
205,128,158952,5,0,0:0:0:0:
275,112,159183,1,0,0:0:0:0:
331,156,159413,1,0,0:0:0:0:
331,229,159644,1,0,0:0:0:0:
275,273,159875,1,0,0:0:0:0:
205,256,160106,1,0,0:0:0:0:
174,191,160336,1,0,0:0:0:0:
120,144,160567,1,0,0:0:0:0:
56,176,160798,6,0,P|104:296|224:344,1,240.000009155274,0|0,0:0|0:0,0:0:0:0:
304,344,161490,1,0,0:0:0:0:
304,344,161721,2,0,P|440:304|480:192,1,240.000009155274,0|0,0:0|0:0,0:0:0:0:
424,176,162413,1,0,0:0:0:0:
344,176,162644,1,0,0:0:0:0:
272,176,162875,1,0,0:0:0:0:
200,176,163106,1,0,0:0:0:0:
128,176,163336,1,0,0:0:0:0:
128,176,163567,2,0,B|104:224|112:248|112:248|136:224|136:224|120:223|120:223|152:248|152:248|160:216|112:143,1,240.000009155274,0|0,0:0|0:0,0:0:0:0:
216,296,168183,5,0,0:0:0:0:
216,296,168414,2,0,L|296:296,2,66.4000009625244,0|0|0,0:0|0:0|0:0,0:0:0:0:
136,296,168875,1,0,0:0:0:0:
136,208,169106,5,0,0:0:0:0:
136,208,169337,2,0,L|56:208,2,66.4000009625244,0|0|0,0:0|0:0|0:0,0:0:0:0:
216,208,169798,1,0,0:0:0:0:
304,216,170029,5,0,0:0:0:0:
304,216,170260,2,0,L|360:264,2,66.4000009625244,0|0|0,0:0|0:0|0:0,0:0:0:0:
240,160,170721,1,0,0:0:0:0:
296,96,170952,5,0,0:0:0:0:
296,96,171183,2,0,L|352:40,2,66.4000009625244,0|0|0,0:0|0:0|0:0,0:0:0:0:
240,160,171644,1,0,0:0:0:0:
176,224,171875,5,0,0:0:0:0:
176,224,172106,2,0,L|112:288,2,66.4000009625244,0|0|0,0:0|0:0|0:0,0:0:0:0:
240,160,172567,1,0,0:0:0:0:
320,192,172798,5,0,0:0:0:0:
320,192,173029,2,0,L|400:256,2,66.4000009625244,0|0|0,0:0|0:0|0:0,0:0:0:0:
264,128,173490,1,0,0:0:0:0:
176,128,173721,5,0,0:0:0:0:
176,128,173952,2,0,L|120:192,2,66.4000009625244,0|0|0,0:0|0:0|0:0,0:0:0:0:
240,64,174414,1,0,0:0:0:0:
352,96,174644,5,0,0:0:0:0:
408,192,174875,1,0,0:0:0:0:
384,304,175106,1,0,0:0:0:0:
272,344,175337,1,0,0:0:0:0:
168,304,175567,5,0,0:0:0:0:
168,304,175798,2,0,L|80:352,2,66.4000009625244,0|0|0,0:0|0:0|0:0,0:0:0:0:
248,248,176260,1,0,0:0:0:0:
320,184,176490,5,0,0:0:0:0:
320,184,176721,2,0,L|376:112,2,66.4000009625244,0|0|0,0:0|0:0|0:0,0:0:0:0:
248,248,177183,1,0,0:0:0:0:
256,192,177414,12,0,179260,0:0:0:0:
232,336,194029,6,0,P|80:272|56:168,1,240.000009155274,0|0,0:0|0:0,0:0:0:0:
72,96,194721,1,0,0:0:0:0:
72,96,194952,2,0,P|208:40|312:104,1,240.000009155274,0|0,0:0|0:0,0:0:0:0:
368,48,195644,1,0,0:0:0:0:
424,112,195875,5,0,0:0:0:0:
424,184,196106,1,0,0:0:0:0:
424,256,196337,2,0,P|354:280|336:239,1,120.000004577637,0|0,0:0|0:0,0:0:0:0:
344,184,196798,1,0,0:0:0:0:
272,184,197029,2,0,P|251:254|284:261,1,120.000004577637,0|0,0:0|0:0,0:0:0:0:
274,262,197490,1,0,0:0:0:0:
176,304,197721,6,0,P|56:272|64:160,1,240.000009155274,0|0,0:0|0:0,0:0:0:0:
120,48,198414,1,0,0:0:0:0:
120,48,198644,2,0,P|240:40|368:120,1,240.000009155274,0|0,0:0|0:0,0:0:0:0:
264,144,199337,1,0,0:0:0:0:
288,224,199567,6,0,L|376:328,1,120.000004577637,0|0,0:0|0:0,0:0:0:0:
288,224,200029,2,0,L|208:320,1,120.000004577637,0|0,0:0|0:0,0:0:0:0:
288,224,200490,2,0,L|200:136,1,120.000004577637,0|0,0:0|0:0,0:0:0:0:
288,224,200952,2,0,L|384:136,1,120.000004577637,0|0,0:0|0:0,0:0:0:0:
288,88,201414,6,0,P|144:72|40:136,1,240.000009155274,0|0,0:0|0:0,0:0:0:0:
120,184,202106,1,0,0:0:0:0:
40,224,202337,2,0,P|96:328|240:320,1,240.000009155274,0|0,0:0|0:0,0:0:0:0:
168,264,203029,1,0,0:0:0:0:
240,304,203260,6,0,L|325:216,1,120.000004577637,0|0,0:0|0:0,0:0:0:0:
408,304,203721,2,0,L|324:216,1,120.000004577637,0|0,0:0|0:0,0:0:0:0:
408,128,204183,2,0,L|317:224,1,120.000004577637,0|0,0:0|0:0,0:0:0:0:
248,120,204644,2,0,L|325:216,1,120.000004577637,0|0,0:0|0:0,0:0:0:0:
216,128,205106,6,0,P|80:160|56:272,1,240.000009155274,0|0,0:0|0:0,0:0:0:0:
112,296,205798,1,0,0:0:0:0:
184,320,206029,2,0,P|328:328|400:216,1,240.000009155274,0|0,0:0|0:0,0:0:0:0:
320,216,206721,1,0,0:0:0:0:
408,208,206952,5,0,0:0:0:0:
408,136,207183,1,0,0:0:0:0:
408,136,207414,1,0,0:0:0:0:
408,136,207644,2,8,B|432:87|424:64|424:64|400:88|400:88|416:88|416:88|384:64|384:64|376:95|425:169,1,240.000009155274,8|8,0:0|0:0,0:0:0:0:
408,136,208337,1,0,0:0:0:0:
336,56,208798,5,0,0:0:0:0:
200,104,209260,1,0,0:0:0:0:
72,168,209721,1,0,0:0:0:0:
64,312,210183,1,0,0:0:0:0:
208,336,210644,6,0,L|328:336,1,120.000004577637,0|0,0:0|0:0,0:0:0:0:
376,280,211106,2,0,L|416:144,1,120.000004577637,0|0,0:0|0:0,0:0:0:0:
392,96,211567,2,0,L|264:64,1,120.000004577637,0|0,0:0|0:0,0:0:0:0:
200,64,212029,2,0,L|72:64,1,120.000004577637,0|0,0:0|0:0,0:0:0:0:
80,152,212490,5,0,0:0:0:0:
128,288,212952,1,0,0:0:0:0:
264,328,213414,1,0,0:0:0:0:
408,336,213875,1,0,0:0:0:0:
336,264,214337,6,0,L|272:192,1,60.0000022888184,0|0,0:0|0:0,0:0:0:0:
216,320,214798,2,0,L|136:296,1,60.0000022888184,0|0,0:0|0:0,0:0:0:0:
64,200,215260,2,0,L|112:120,1,60.0000022888184,0|0,0:0|0:0,0:0:0:0:
192,88,215721,2,0,L|264:136,1,60.0000022888184,0|0,0:0|0:0,0:0:0:0:
376,56,216183,5,0,0:0:0:0:
424,192,216644,1,0,0:0:0:0:
360,320,217106,1,0,0:0:0:0:
216,344,217567,1,0,0:0:0:0:
217,263,218029,5,0,0:0:0:0:
174,205,218260,1,0,0:0:0:0:
193,137,218490,5,0,0:0:0:0:
260,108,218721,1,0,0:0:0:0:
323,142,218952,5,0,0:0:0:0:
335,213,219183,1,0,0:0:0:0:
288,267,219413,5,0,0:0:0:0:
160,328,219875,6,0,P|48:200|80:112,3,240.000009155274,0|0|0|0,0:0|0:0|0:0|0:0,0:0:0:0:
184,72,221721,1,0,0:0:0:0:
328,72,222183,1,0,0:0:0:0:
328,216,222644,1,8,0:0:0:0:
328,288,222875,1,8,0:0:0:0:
256,216,223106,1,8,0:0:0:0:
400,216,223337,1,12,0:0:0:0:
328,288,223567,1,4,0:0:0:0:
