osu file format v12

[General]
AudioFilename: -- ) CADNY CANDY English ver -----.mp3
AudioLeadIn: 0
PreviewTime: -1
Countdown: 0
SampleSet: Normal
StackLeniency: 0.9
Mode: 0
LetterboxInBreaks: 0
EpilepsyWarning: 1

[Editor]
DistanceSpacing: 0.8
BeatDivisor: 4
GridSize: 8

[Metadata]
Title:CANDY CANDY
TitleUnicode:CANDY CANDY
Artist:kalon
ArtistUnicode:kalon
Creator:Vistritium
Version:Easy
Source:
Tags:Yasutaka Nakata Kyary Pamyu Pamyu
BeatmapID:233131
BeatmapSetID:79787

[Difficulty]
HPDrainRate:2
CircleSize:2
OverallDifficulty:2
ApproachRate:2
SliderMultiplier:0.8
SliderTickRate:1

[Events]
//Background and Video events
0,0,"background.jpg",1,1
//Break Periods
2,90406,103854
2,164252,170315
2,179022,192469
//Storyboard Layer 0 (Background)
//Storyboard Layer 1 (Fail)
//Storyboard Layer 2 (Pass)
//Storyboard Layer 3 (Foreground)
Sprite,Foreground,Centre,"Storyboard\revers3.png",340,264 L,28707,2 S,0,0,500,1,1.1 S,0,501,1000,1.1,1
Sprite,Foreground,Centre,"Storyboard\revers3.png",492,181 L,35707,2 S,0,0,500,1,1.1 S,0,501,1000,1.1,1
//Storyboard Sound Samples
//Background Colour Transformations
3,100,163,162,255

[TimingPoints]
2029.42433361956,461.538461538462,4,2,0,100,1,0
14835,-66.6666666666667,4,1,0,100,0,0
16104,-100,4,1,0,100,0,0
61104,-100,4,1,0,100,0,1
75872,-100,4,1,0,100,0,0
75873,-100,4,1,0,100,0,1
90412,-100,4,1,0,100,0,0
134950,-100,4,1,0,100,0,1
149718,-100,4,1,0,100,0,0
149719,-100,4,1,0,100,0,1
164258,-100,4,1,0,100,0,0
208565,-100,4,1,0,100,0,1

[Colours]
Combo1 : 0,0,0
Combo2 : 5,240,5
Combo3 : 5,5,240
Combo4 : 240,5,5
Combo5 : 255,150,0

[HitObjects]
80,72,2031,1,0,0:0:0:0:
232,72,2952,1,0,0:0:0:0:
424,152,3875,5,0,0:0:0:0:
424,304,4798,1,0,0:0:0:0:
152,296,5721,5,0,0:0:0:0:
64,176,6644,1,0,0:0:0:0:
216,48,7567,5,0,0:0:0:0:
360,72,8490,1,0,0:0:0:0:
416,288,9414,2,0,P|336:336|264:312,1,160
192,328,11260,2,0,P|96:336|32:296,1,160
96,144,13106,2,0,P|128:64|200:56,1,160
256,56,14952,22,0,B|240:72|240:72|272:72|272:72|240:80|240:80|264:80|264:80|240:88|240:88|272:88|272:88|248:96|248:96|264:96|264:96|256:128,1,240.000009155274
256,288,16798,5,0,0:0:0:0:
256,288,17721,1,0,0:0:0:0:
384,288,18644,2,0,L|384:208,2,80
240,288,20490,2,0,P|104:288|88:272,1,160
88,160,22337,2,0,L|88:80,2,80
256,56,24183,5,0,0:0:0:0:
384,56,25106,1,0,0:0:0:0:
384,184,26029,2,0,B|320:248|224:240,1,160
224,112,27875,2,0,B|144:124|97:202,1,160
152,312,29721,1,0,0:0:0:0:
248,296,30183,22,0,L|265:242,4,40
352,240,31567,5,0,0:0:0:0:
448,312,32490,1,0,0:0:0:0:
424,192,33414,1,0,0:0:0:0:
424,64,34337,1,0,0:0:0:0:
296,64,35260,21,0,0:0:0:0:
296,192,36183,1,0,0:0:0:0:
424,192,37106,22,0,L|480:192,4,40
256,72,38952,5,0,0:0:0:0:
256,200,39875,1,0,0:0:0:0:
256,328,40798,1,0,0:0:0:0:
128,328,41721,6,0,L|80:296,2,40
256,328,42644,1,0,0:0:0:0:
256,200,43567,1,0,0:0:0:0:
256,72,44490,38,0,L|208:72,4,40
384,56,46337,5,0,0:0:0:0:
384,184,47029,2,0,L|384:232,1,40
360,320,47952,2,0,L|72:320,1,280
80,320,50029,1,0,0:0:0:0:
80,224,50721,2,0,L|80:168,1,40
80,56,51875,21,0,0:0:0:0:
80,56,52337,2,0,L|160:56,1,80
288,48,53721,5,0,0:0:0:0:
416,48,54414,2,0,L|416:104,1,40
416,152,55567,2,0,B|416:248|312:312|256:320,1,240
152,320,57414,21,0,0:0:0:0:
152,320,58337,1,0,0:0:0:0:
152,320,59260,54,0,L|152:264,4,40
256,184,61106,5,0,0:0:0:0:
352,96,62029,1,0,0:0:0:0:
352,224,62952,1,0,0:0:0:0:
304,184,63414,1,0,0:0:0:0:
256,144,63875,1,0,0:0:0:0:
128,144,64798,5,0,0:0:0:0:
128,272,65721,1,0,0:0:0:0:
256,280,66644,2,0,L|344:280,2,80
256,152,68490,5,0,0:0:0:0:
184,48,69414,1,0,0:0:0:0:
312,48,70337,1,0,0:0:0:0:
264,88,70798,1,0,0:0:0:0:
216,136,71260,1,0,0:0:0:0:
104,200,72183,1,0,0:0:0:0:
104,328,73106,1,0,0:0:0:0:
232,328,74029,5,0,0:0:0:0:
232,264,74490,2,0,B|200:224|232:192|232:192|264:224|232:264,1,160
352,304,76798,21,0,0:0:0:0:
352,176,77721,54,0,L|352:136,4,40
224,168,79567,5,0,0:0:0:0:
96,168,80490,1,0,0:0:0:0:
96,40,81414,2,0,P|168:64|216:144,1,160
336,96,83260,5,0,0:0:0:0:
424,192,84183,1,0,0:0:0:0:
424,96,85106,1,0,0:0:0:0:
376,144,85568,1,0,0:0:0:0:
328,192,86029,1,0,0:0:0:0:
200,200,86952,2,0,L|152:120,1,80
78,179,87875,2,0,L|120:248,1,80
256,176,89260,5,0,0:0:0:0:
256,176,89721,2,0,B|248:160|248:144|248:144|256:152|256:152|264:144|264:144|264:160|256:176,1,80
400,64,105414,5,0,0:0:0:0:
400,192,106337,1,0,0:0:0:0:
360,312,107260,2,0,P|208:336|136:288,1,240
141,293,109106,21,0,0:0:0:0:
144,168,110029,1,0,0:0:0:0:
272,176,110952,2,0,P|368:176|400:112,1,160
288,64,112798,1,0,0:0:0:0:
160,64,113721,1,0,0:0:0:0:
64,152,114644,2,0,B|72:232|139:253|256:240,1,240
255,240,116490,5,0,0:0:0:0:
384,240,117414,1,0,0:0:0:0:
384,176,118337,38,0,L|384:136,4,40
128,56,120183,5,0,0:0:0:0:
128,184,121106,1,0,0:0:0:0:
136,312,122029,2,0,B|200:208|344:376|352:272,1,240
352,288,123875,5,0,0:0:0:0:
352,160,124798,1,0,0:0:0:0:
264,88,125721,2,0,B|205:-8|128:88,1,160
80,192,127567,5,0,0:0:0:0:
152,296,128490,1,0,0:0:0:0:
280,296,129414,1,0,0:0:0:0:
408,272,130337,1,0,0:0:0:0:
424,144,131260,6,0,P|424:104|376:104,2,80
360,160,132644,2,0,P|360:200|408:200,2,80
360,160,134029,1,0,0:0:0:0:
256,64,134952,21,0,0:0:0:0:
256,192,135875,1,0,0:0:0:0:
256,320,136798,2,0,P|176:328|152:256,1,160
256,200,138644,5,0,0:0:0:0:
344,112,139567,1,0,0:0:0:0:
400,224,140490,1,0,0:0:0:0:
400,224,140952,1,0,0:0:0:0:
400,224,141414,1,0,0:0:0:0:
256,192,142337,5,0,0:0:0:0:
256,64,143260,1,0,0:0:0:0:
352,144,144183,2,0,B|104:144,1,240
112,144,146029,5,0,0:0:0:0:
112,272,146952,1,0,0:0:0:0:
240,280,147875,21,0,0:0:0:0:
303,276,148336,2,0,B|341:241|374:272|374:272|344:305|303:276,1,160
320,88,150644,5,0,0:0:0:0:
192,88,151567,1,0,0:0:0:0:
112,184,152490,2,0,P|53:219|73:297,1,160
200,320,154337,1,0,0:0:0:0:
328,320,155260,2,0,L|328:232,2,80
200,192,157106,5,0,0:0:0:0:
72,192,158029,1,0,0:0:0:0:
144,296,158952,2,0,L|320:296,1,160
312,168,160798,1,0,0:0:0:0:
312,48,161721,1,0,0:0:0:0:
200,112,163106,5,0,0:0:0:0:
200,112,163567,2,0,B|192:128|179:137|179:137|180:126|180:126|169:124|169:124|182:115|200:112,1,80
256,64,171875,21,0,0:0:0:0:
376,112,172799,1,0,0:0:0:0:
352,240,173722,5,0,0:0:0:0:
240,184,174645,1,0,0:0:0:0:
136,112,175568,5,0,0:0:0:0:
88,232,176491,1,0,0:0:0:0:
184,288,177414,1,0,0:0:0:0:
280,288,178337,2,0,L|328:288,2,40
256,200,194029,5,0,0:3:0:0:
160,287,194952,1,0,0:3:0:0:
159,160,195875,1,0,0:3:0:0:
208,199,196337,1,0,0:3:0:0:
256,239,196798,1,0,0:3:0:0:
383,240,197721,21,0,0:3:0:0:
384,112,198644,1,0,0:3:0:0:
256,104,199567,2,0,L|168:103,2,80
256,232,201413,5,0,0:3:0:0:
328,336,202337,1,0,0:3:0:0:
200,336,203260,1,0,0:3:0:0:
248,296,203721,1,0,0:3:0:0:
296,248,204183,1,0,0:3:0:0:
408,183,205106,1,0,0:3:0:0:
408,56,206029,1,0,0:3:0:0:
280,56,206952,5,0,0:3:0:0:
280,120,207413,2,0,B|311:160|280:192|280:192|248:160|280:120,1,160
184,176,208798,5,0,0:0:0:0:
88,264,209721,1,0,0:0:0:0:
88,136,210644,1,0,0:0:0:0:
136,176,211106,1,0,0:0:0:0:
184,216,211567,1,0,0:0:0:0:
312,216,212490,21,0,0:0:0:0:
312,88,213413,1,0,0:0:0:0:
184,80,214336,2,0,L|96:80,2,80
184,208,216182,5,0,0:0:0:0:
256,312,217106,1,0,0:0:0:0:
128,311,218029,1,0,0:0:0:0:
176,272,218490,1,0,0:0:0:0:
224,224,218952,1,0,0:0:0:0:
344,176,219875,2,0,P|392:120|336:56,1,160
208,32,221721,5,0,0:0:0:0:
208,96,222183,1,0,0:0:0:0:
208,160,222644,1,0,0:0:0:0:
208,224,223106,1,0,0:0:0:0:
208,288,223567,1,0,0:0:0:0:
