osu file format v5

[General]
AudioFilename: Kalafina - oblivious.mp3
AudioLeadIn: 0
PreviewTime: -1
Countdown: 1
SampleSet: Normal
StackLeniency: 0.7
Mode: 0
LetterboxInBreaks: 1

[Metadata]
Title:oblivious
Artist:kalafina
Creator:cgc1987
Version:Normal
Source:
Tags:

[Difficulty]
HPDrainRate:5
CircleSize:5
OverallDifficulty:5
SliderMultiplier:1.4
SliderTickRate:4

[Events]
//Background and Video events
0,0,"空境.jpg"
//Break Periods
2,80940,91180
2,124111,137113
//Storyboard Layer 0 (Background)
//Storyboard Layer 1 (Failing)
//Storyboard Layer 2 (Passing)
//Storyboard Layer 3 (Foreground)
//Storyboard Sound Samples
//Background Colour Transformations
3,100,163,162,255

[TimingPoints]
47200,480.076812289966,4,1,0,100,1

[HitObjects]
96,64,46719,1,0
96,128,47199,1,0
96,192,47680,1,0
96,256,48160,1,0
96,288,48400,1,0
128,288,48640,1,0
128,256,48880,1,0
160,256,49120,2,0,B|320:256,2,140
160,192,50560,5,0
160,192,50800,1,0
160,192,51040,1,0
224,192,51520,1,0
224,192,51760,1,0
288,192,52240,1,0
288,192,52480,1,0
32,288,54401,6,0,B|192:288,2,140
170,366,55841,1,0
192,352,56081,1,0
224,320,56321,1,0
256,288,56561,1,0
288,256,56801,1,0
352,192,57281,1,0
384,128,57761,1,0
381,32,58241,5,0
381,32,58481,1,0
381,32,58721,1,0
284,33,59201,1,0
185,34,59441,1,0
234,110,59922,1,0
332,113,60162,1,0
480,224,61602,6,0,B|480:384|480:383,2,140
423,287,63042,1,0
356,366,63522,2,0,B|356:303|356:180,2,140
286,293,64962,1,0
217,372,65442,2,0,B|217:283|215:203,2,140
64,32,67123,6,0,B|190:32,7,70
192,32,69283,1,0
96,128,69763,5,0
160,128,70243,1,0
224,128,70963,1,0
256,128,71203,1,0
288,128,71443,1,0
320,128,71683,1,0
352,128,71923,1,0
416,128,72404,1,0
480,128,72884,5,0
480,128,73124,1,0
480,192,73604,1,0
480,256,74084,1,0
480,320,74564,1,0
480,352,75044,6,0,B|355:352|320:192,2,210
330,229,76964,2,0,B|211:-4|131:293,4,280
61,60,92807,5,0
61,60,93047,1,0
64,64,93287,1,0
160,64,93767,1,0
256,64,94247,6,0,B|368:65,2,70
256,160,95207,1,0
328,208,95687,1,0
256,256,96167,1,0
130,179,96647,6,0,B|130:275,2,70
129,116,97608,1,0
129,116,97848,1,0
224,117,98328,1,0
224,117,98568,2,0,B|402:118,1,140
196,243,100488,6,0,B|280:244,1,70
351,243,100968,1,0
443,241,101448,1,0
444,333,101928,1,0
444,333,102168,1,0
444,333,102408,1,0
444,333,102648,1,0
444,333,102888,1,0
346,335,103368,6,0,B|256:334|253:241|255:241,1,140
254,150,104329,1,0
254,150,104569,1,0
254,150,104809,1,0
200,63,105289,1,0
200,63,105529,1,0
158,150,106009,1,0
158,150,106249,1,0
154,248,107689,6,0,B|154:344|256:344,2,140
153,149,109369,1,0
208,149,109609,1,0
265,148,109850,1,0
320,147,110090,1,0
376,148,110330,1,0
448,160,110810,1,0
480,256,111290,6,0,B|478:352|480:352,1,70
416,352,112010,2,0,B|288:352|288:224,1,140
160,256,113210,5,0
192,224,113450,1,0
160,192,113690,1,0
192,160,113931,1,0
160,128,114170,1,0
192,96,114410,1,0
160,64,114650,1,0
192,32,114890,1,0
256,32,115130,1,0
288,96,115370,1,8
352,192,115850,6,0,B|352:288,1,70
353,304,116331,1,0
352,352,117051,2,0,B|256:352,2,70
229,353,117771,1,0
163,354,118011,1,0
96,352,118491,1,8
96,256,118971,5,0
96,256,119211,2,0,B|96:96,1,140
256,192,120171,12,0,124011
32,256,138414,2,0,B|64:320|64:320|96:288,1,70
96,256,138894,2,0,B|128:320,1,70
160,256,139374,2,0,B|192:320,1,70
192,320,139854,1,0
480,256,140334,6,0,B|448:320,1,70
416,256,140814,2,0,B|384:320,1,70
352,256,141295,2,0,B|320:320,1,70
320,320,141775,1,0
160,64,142255,6,8,B|192:128|192:128|224:64|224:64|256:128|256:128|288:64|288:64|320:128|320:128|352:64,1,420
352,320,144175,6,8,B|320:256|320:256|288:320|288:320|256:256|256:256|224:320|224:320|192:256|192:256|160:320,1,420
224,160,146095,6,0,B|256:128|288:160,1,70
285,157,146575,2,0,B|320:192|288:224,1,70
292,218,147055,2,0,B|256:256|224:224,1,70
224,192,147536,1,0
160,64,148016,5,0
192,128,148256,1,0
224,64,148496,1,0
256,128,148736,1,0
288,64,148976,1,0
320,128,149216,1,0
352,64,149456,1,0
64,128,149936,5,0
128,192,150416,1,0
64,256,150896,2,0,B|128:320,2,70
448,128,151856,5,0
384,192,152336,1,0
448,256,152816,2,0,B|384:320,2,70
64,256,153777,6,0,B|64:352,1,70
160,256,154257,2,0,B|160:352,1,70
352,64,154737,1,8
448,64,155217,1,8
448,64,155697,6,0,B|448:160,1,70
352,64,156177,2,0,B|352:160,1,70
448,320,156657,1,8
352,320,157137,1,8
352,320,157617,6,0,B|352:224,1,70
448,320,158097,2,0,B|448:224,1,70
64,64,158577,1,8
160,64,159057,1,8
160,64,159537,6,0,B|160:160,1,70
64,64,160018,2,0,B|64:160,1,70
64,288,160498,1,8
160,288,160978,1,8
160,288,161458,6,0,B|256:288,1,70
230,288,161938,2,0,B|320:288,1,70
300,288,162418,2,0,B|384:288,2,70
384,192,163378,6,0,B|288:192,1,70
314,192,163858,2,0,B|224:192,1,70
244,192,164338,2,0,B|160:192,2,70
96,96,165298,6,0,B|192:96,1,70
166,96,165778,2,0,B|256:96,1,70
236,96,166259,2,0,B|320:96,2,70
256,192,167219,12,0,174420
