osu file format v13

[General]
AudioFilename: 123.mp3
AudioLeadIn: 0
PreviewTime: 46056
Countdown: 0
SampleSet: Soft
StackLeniency: 0.7
Mode: 0
LetterboxInBreaks: 1
WidescreenStoryboard: 1

[Editor]
Bookmarks: 49633
DistanceSpacing: 1.4
BeatDivisor: 4
GridSize: 4
TimelineZoom: 1.3

[Metadata]
Title:ifuudoudou
TitleUnicode:威風堂々
Artist:kakichoco
ArtistUnicode:柿チョコ
Creator:Suzuya Jyuzo
Version:Normal
Source:
Tags:kakichoco ifuudoudou vocaloid shichoko niconico hentai hatsune miku gumi luka megpoid kagamine
BeatmapID:473074
BeatmapSetID:197505

[Difficulty]
HPDrainRate:3
CircleSize:3
OverallDifficulty:3
ApproachRate:4
SliderMultiplier:1.2
SliderTickRate:1

[Events]
//Background and Video events
0,0,"ac19d23d70cf3bc7cb867cdfd200baa1cd112a0b.jpg",0,0
//Break Periods
2,65295,67466
2,115602,122852
2,183680,185621
//Storyboard Layer 0 (Background)
//Storyboard Layer 1 (Fail)
//Storyboard Layer 2 (Pass)
//Storyboard Layer 3 (Foreground)
//Storyboard Sound Samples
//Background Colour Transformations
3,100,163,162,255

[TimingPoints]
9710,461.538461538462,4,2,1,100,1,0
24480,-100,4,2,1,30,0,0
30941,-100,4,2,1,30,0,0
31403,-100,4,2,1,50,0,0
44787,-100,4,2,1,50,0,0
46633,-100,4,2,1,70,0,1
65095,-100,4,2,1,40,0,0
75249,-100,4,2,1,55,0,0
77095,-100,4,2,1,70,0,0
77556,-100,4,2,1,55,0,0
78941,-100,4,2,1,70,0,0
79403,-100,4,2,1,55,0,0
82633,-100,4,2,1,85,0,0
83787,-100,4,2,1,55,0,0
84710,-100,4,2,1,55,0,0
86326,-100,4,2,1,80,0,0
87249,-100,4,2,1,55,0,0
90018,-100,4,2,1,55,0,0
90941,-100,4,2,1,60,0,0
91172,-100,4,2,1,65,0,0
91403,-100,4,2,1,70,0,0
91633,-100,4,2,1,75,0,0
91864,-100,4,2,1,80,0,0
92787,-100,4,2,1,80,0,1
108018,-100,4,2,1,80,0,0
110095,-100,4,2,1,100,0,0
111249,-100,4,2,1,70,0,0
114018,-100,4,2,1,50,0,0
114941,-100,4,2,1,30,0,0
116787,-100,4,2,1,30,0,0
123710,-100,4,2,1,50,0,0
142633,-100,4,2,1,50,0,0
144018,-100,4,2,1,50,0,0
145403,-100,4,2,1,80,0,0
146326,-100,4,2,1,50,0,0
151864,-100,4,2,1,60,0,0
152787,-100,4,2,1,80,0,1
168480,-100,4,2,1,80,0,1
186941,-100,4,2,1,60,0,0
194556,-100,4,2,1,40,0,0
195480,-100,4,2,1,20,0,0

[Colours]
Combo1 : 255,255,255
Combo2 : 255,0,0
Combo3 : 255,255,0
Combo4 : 255,255,255
Combo5 : 255,0,0
Combo6 : 255,255,0

[HitObjects]
80,68,24710,6,0,P|162:67|196:84,1,120
148,156,25403,2,0,B|172:176|242:151|332:144,1,180
464,236,26556,6,0,P|464:318|432:352,1,120
356,344,27249,2,0,B|332:312|272:324|176:324,1,180
36,244,28403,6,0,P|36:161|52:128,1,120
104,64,29094,2,0,P|212:44|304:68,1,180
280,140,30018,2,0,P|360:136|368:112,2,90,0|0|0,0:0|0:0|0:0,0:0:0:0:
196,144,30941,2,0,P|140:156|72:192,1,120,0|4,0:0|0:0,0:0:0:0:
72,320,32095,6,0,P|120:260|220:224,1,180
340,328,33248,1,0,0:0:0:0:
392,168,33710,1,0,0:0:0:0:
448,328,34171,6,0,P|460:264|456:208,1,120,0|0,0:0|0:0,0:0:0:0:
332,88,35095,2,0,P|349:64|377:53,2,60,0|0|0,0:0|0:0|0:0,0:0:0:0:
264,136,35787,6,0,P|204:88|152:96,1,120
188,172,36479,1,2,0:0:0:0:
24,132,36940,1,2,0:0:0:0:
72,292,37402,2,0,B|104:344|104:344|176:344,1,120
332,344,38326,2,0,B|420:344|420:344|460:252,1,180
404,192,39249,2,0,L|366:273,2,90,0|0|0,0:0|0:0|0:0,0:0:0:0:
440,84,40403,6,0,P|380:36|328:44,1,120
340,124,41095,1,2,0:0:0:0:
208,224,41556,1,2,0:0:0:0:
148,68,42018,2,0,B|96:132|92:180,1,120
184,240,42941,2,0,L|227:147,2,90,0|0|0,0:0|0:0|0:0,0:0:0:0:
44,332,44095,6,0,P|144:344|172:336,1,120
216,276,44787,2,0,B|384:264|388:216|364:136|344:116|296:108|260:112|248:216|280:200|304:192,1,360
120,40,46633,5,2,0:0:0:0:
64,200,47095,2,0,P|48:276|64:324,1,120,0|4,0:0|0:0,0:0:0:0:
144,316,47787,6,0,P|200:333|260:328,1,120
344,324,48480,1,2,0:0:0:0:
456,196,48941,2,0,P|472:120|456:72,1,120,0|4,0:0|0:0,0:0:0:0:
376,80,49633,6,0,P|320:63|266:85,1,120
264,168,50325,1,2,0:0:0:0:
132,64,50787,2,0,P|84:124|80:184,1,120,0|4,0:0|0:0,0:0:0:0:
80,248,51480,6,0,P|134:270|190:253,1,120
192,168,52171,1,2,0:0:0:0:
244,328,52633,1,2,0:0:0:0:
412,316,53094,6,0,P|464:216|468:188,1,120
424,48,54018,1,2,0:0:0:0:
256,40,54480,2,0,P|180:44|116:72,1,120,0|4,0:0|0:0,0:0:0:0:
80,116,55172,6,0,P|72:196|84:244,1,120,0|0,0:0|0:0,0:0:0:0:
160,212,55863,1,2,0:0:0:0:
320,160,56325,2,0,P|360:212|352:264,1,120,0|4,0:0|0:0,0:0:0:0:
288,316,57018,6,0,P|200:312|160:288,1,120
124,228,57710,2,0,L|124:100,1,120
292,88,58633,1,4,0:0:0:0:
396,188,59556,6,0,B|396:304|396:304|256:304|256:304|256:188,1,360
256,200,61403,1,4,0:0:0:0:
256,192,61864,12,0,65095,0:0:0:0:
124,124,68786,6,0,P|52:200|52:208,1,120
180,316,69710,1,2,0:0:0:0:
348,316,70172,2,0,P|428:300|460:248,1,120,0|4,0:0|0:0,0:0:0:0:
456,104,71094,5,2,0:0:0:0:
300,44,71556,1,2,0:0:0:0:
360,200,72018,2,0,P|360:252|296:284,1,120,0|4,0:0|0:0,0:0:0:0:
252,220,72710,6,0,B|276:152|272:124|248:100,1,120
172,80,73403,2,0,B|120:112|120:112|172:148|172:148|120:184,1,180
68,240,74325,6,0,P|88:304|132:292,1,120
232,164,75249,2,0,L|268:300,1,120,0|4,0:0|0:0,0:0:0:0:
424,332,76171,6,0,B|424:268,2,60,8|0|0,0:0|0:0|0:0,0:0:0:0:
500,332,77094,6,0,L|500:212,1,120,0|0,0:0|0:0,0:0:0:0:
408,188,78018,6,0,B|332:160|332:160|380:68,1,180
460,72,78940,2,0,L|460:148,2,60,0|0|0,0:0|0:0|0:0,0:0:0:0:
292,72,79863,5,2,0:0:0:0:
292,240,80326,1,4,0:0:0:0:
176,120,80786,6,0,P|152:84|72:64,1,120
44,228,81710,2,0,L|92:360,1,120
252,340,82633,6,0,L|192:340,2,60,2|0|0,0:0|0:0|0:0,0:0:0:0:
420,332,83556,2,0,P|476:292|484:244,2,120,0|0|0,0:0|0:0|0:0,0:0:0:0:
264,272,84940,5,0,0:0:0:0:
96,272,85403,1,2,0:0:0:0:
252,212,85863,1,2,0:0:0:0:
420,192,86325,2,0,L|188:108,1,240
268,52,87940,6,0,L|164:16,2,90,0|0|0,0:0|0:0|0:0,0:0:0:0:
420,124,89094,6,0,B|476:284|476:284|280:284,1,360,0|0,0:0|0:0,0:0:0:0:
128,220,90940,2,0,L|128:168,8,30,2|0|8|0|2|0|8|0|4,0:0|0:0|0:0|0:0|0:0|0:0|0:0|0:0|0:0,0:0:0:0:
120,344,92786,5,2,0:0:0:0:
64,184,93248,2,0,P|48:108|64:60,1,120,0|4,0:0|0:0,0:0:0:0:
144,68,93940,6,0,P|200:51|260:56,1,120
344,56,94633,1,2,0:0:0:0:
452,184,95094,2,0,P|468:260|452:308,1,120,0|4,0:0|0:0,0:0:0:0:
376,304,95786,6,0,P|320:321|266:299,1,120
264,216,96478,1,2,0:0:0:0:
164,296,96940,2,0,P|116:236|112:176,1,120,0|4,0:0|0:0,0:0:0:0:
88,112,97633,6,0,P|142:90|198:107,1,120
204,192,98324,1,2,0:0:0:0:
248,28,98786,1,2,0:0:0:0:
412,68,99247,6,0,P|464:168|468:196,1,120
424,336,100171,1,2,0:0:0:0:
256,344,100633,2,0,P|180:340|116:312,1,120,0|4,0:0|0:0,0:0:0:0:
80,268,101325,6,0,P|72:188|84:140,1,120,0|0,0:0|0:0,0:0:0:0:
160,172,102016,1,2,0:0:0:0:
320,224,102478,2,0,P|360:172|352:120,1,120,0|4,0:0|0:0,0:0:0:0:
288,68,103171,6,0,P|200:72|160:96,1,120
124,156,103863,2,0,L|124:284,1,120
292,296,104786,1,4,0:0:0:0:
396,196,105709,6,0,B|396:80|396:80|256:80|256:80|256:196,1,360
256,184,107556,5,4,0:0:0:0:
152,60,108017,6,0,L|152:196,1,120
60,320,108941,1,2,0:0:0:0:
228,312,109403,2,0,B|276:232|344:368|400:284,1,180
472,280,110326,2,0,L|472:212,1,60
388,216,110787,2,0,P|416:156|464:136,1,120
340,20,111710,5,2,0:0:0:0:
188,92,112172,2,0,P|192:168|144:208,1,120
52,320,113094,1,4,0:0:0:0:
220,320,113556,5,2,0:0:0:0:
128,180,114018,2,0,L|280:180|280:180,1,150
400,208,114941,2,0,P|388:280|336:312,1,120
448,88,124172,6,0,P|444:220|372:304,1,240
288,308,126018,6,0,P|156:296|96:192,1,240
164,72,127864,6,0,B|228:112|228:112|284:72|284:72|376:136,1,240
344,300,129710,6,0,P|212:332|100:296,1,240
52,148,131094,1,2,0:0:0:0:
208,84,131556,6,0,B|280:52|280:52|328:88|328:88|424:48,1,240
292,156,132940,1,2,0:0:0:0:
460,156,133403,2,0,P|504:280|436:360,1,240
296,280,134786,5,2,0:0:0:0:
352,156,135249,2,0,P|396:88|276:48,1,240
120,88,136633,1,2,0:0:0:0:
120,88,137095,2,0,P|60:188|52:316,1,240
372,340,138941,5,2,0:0:0:0:
372,172,139403,1,2,0:0:0:0:
288,316,139863,2,0,L|288:192,1,120
140,112,140786,6,0,P|228:108|256:64,2,120,0|0|0,0:0|0:0|0:0,0:0:0:0:
52,256,142171,1,0,0:0:0:0:
212,200,142633,6,0,B|176:276|176:276|216:344|216:344|284:344|284:344|324:276|324:276|284:180,1,390
256,80,144480,6,0,L|256:44,4,30,0|0|0|0|0,0:0|0:0|0:0|0:0|0:0,0:0:0:0:
396,172,145403,6,0,L|436:248,2,80,8|8|8,0:0|0:0|0:0,0:0:0:0:
248,44,146556,6,0,L|160:44,2,60,0|0|0,0:0|0:0|0:0,0:0:0:0:
332,44,147249,2,0,P|320:96|264:128,1,120
180,128,147941,2,0,P|132:128|72:200,1,120
156,208,148633,2,0,L|292:208,1,120
432,152,149556,1,2,0:0:0:0:
456,316,150017,5,2,0:0:0:0:
288,320,150479,2,0,B|236:316|192:328|152:316,1,120
36,216,151402,1,2,0:0:0:0:
196,160,151863,2,0,L|196:40,2,120,0|0|4,0:0|0:0|0:0,0:0:0:0:
392,40,153710,5,2,0:0:0:0:
448,200,154172,2,0,P|464:276|448:324,1,120,0|4,0:0|0:0,0:0:0:0:
380,268,154864,6,0,P|324:285|264:280,1,120
184,308,155557,1,2,0:0:0:0:
56,196,156018,2,0,P|40:120|56:72,1,120,0|4,0:0|0:0,0:0:0:0:
136,80,156710,6,0,P|192:63|246:85,1,120
192,148,157402,1,2,0:0:0:0:
348,88,157864,2,0,P|396:148|400:208,1,120,0|4,0:0|0:0,0:0:0:0:
424,272,158557,6,0,P|370:294|314:277,1,120
308,192,159248,1,2,0:0:0:0:
264,356,159710,1,2,0:0:0:0:
100,316,160171,6,0,P|48:216|44:188,1,120
88,48,161095,1,2,0:0:0:0:
256,40,161557,2,0,P|332:44|396:72,1,120,0|4,0:0|0:0,0:0:0:0:
432,116,162249,6,0,P|440:196|428:244,1,120,0|0,0:0|0:0,0:0:0:0:
352,212,162940,1,2,0:0:0:0:
192,160,163402,2,0,P|152:212|160:264,1,120,0|4,0:0|0:0,0:0:0:0:
224,316,164095,6,0,P|312:312|352:288,1,120
388,228,164787,2,0,L|388:100,1,120
220,88,165710,1,4,0:0:0:0:
116,188,166633,6,0,B|116:304|116:304|256:304|256:304|256:188,1,360
256,200,168480,5,4,0:0:0:0:
164,52,168940,6,0,L|164:184,1,120
168,340,169864,1,2,0:0:0:0:
336,340,170326,2,0,B|384:260|452:396|480:296,1,180
456,216,171248,5,2,0:0:0:0:
292,176,171710,2,0,P|320:116|368:96,1,120
448,72,172403,6,0,L|505:54,2,60,0|0|0,0:0|0:0|0:0,0:0:0:0:
448,156,173095,2,0,P|448:236|360:284,1,180
364,200,174017,5,2,0:0:0:0:
240,88,174479,1,2,0:0:0:0:
208,252,174940,1,2,0:0:0:0:
312,136,175402,1,2,0:0:0:0:
480,148,175864,2,0,P|460:94|404:83,1,120
332,40,176556,6,0,P|204:92|148:180,1,240
148,256,177710,5,0,0:0:0:0:
316,256,178171,1,0,0:0:0:0:
236,108,178633,1,0,0:0:0:0:
228,276,179094,1,0,0:0:0:0:
376,196,179556,1,0,0:0:0:0:
256,192,180018,12,0,183480,0:0:0:0:
52,56,186941,6,0,P|136:104|168:108,1,120
240,104,187633,2,0,L|216:32,2,60,0|0|0,0:0|0:0|0:0,0:0:0:0:
388,28,188556,2,0,L|407:85,2,60,0|0|0,0:0|0:0|0:0,0:0:0:0:
428,192,189480,2,0,L|248:220,1,180,0|0,0:0|0:0,0:0:0:0:
192,280,190403,6,0,L|380:340,1,180
448,328,191326,2,0,L|424:268,2,60,0|0|0,0:0|0:0|0:0,0:0:0:0:
332,208,192249,2,0,L|351:265,2,60,0|0|0,0:0|0:0|0:0,0:0:0:0:
500,192,193172,2,0,P|468:56|360:52,1,240
232,112,194556,6,0,B|308:111|308:111|238:190|268:192|268:192|324:208|360:272|312:308|244:340|220:316|204:260,1,420
