osu file format v13

[General]
AudioFilename: 123.mp3
AudioLeadIn: 0
PreviewTime: 46056
Countdown: 0
SampleSet: Soft
StackLeniency: 0.7
Mode: 0
LetterboxInBreaks: 1
WidescreenStoryboard: 0

[Editor]
DistanceSpacing: 1.7
BeatDivisor: 8
GridSize: 4
TimelineZoom: 1.5

[Metadata]
Title:ifuudoudou
TitleUnicode:威風堂々
Artist:kakichoco
ArtistUnicode:柿チョコ
Creator:Suzuya Jyuzo
Version:Insane
Source:
Tags:kakichoco ifuudoudou vocaloid shichoko niconico hentai hatsune miku gumi luka megpoid kagamine
BeatmapID:468423
BeatmapSetID:197505

[Difficulty]
HPDrainRate:6
CircleSize:4
OverallDifficulty:7.5
ApproachRate:9
SliderMultiplier:2
SliderTickRate:2

[Events]
//Background and Video events
0,0,"ac19d23d70cf3bc7cb867cdfd200baa1cd112a0b.jpg",0,0
//Break Periods
2,65295,68187
//Storyboard Layer 0 (Background)
//Storyboard Layer 1 (Fail)
//Storyboard Layer 2 (Pass)
//Storyboard Layer 3 (Foreground)
//Storyboard Sound Samples
//Background Colour Transformations
3,100,163,162,255

[TimingPoints]
9710,461.538461538462,4,2,1,100,1,0
24480,-100,4,2,1,30,0,0
30883,-200,4,2,1,30,0,0
31403,-100,4,2,1,50,0,0
44671,-200,4,2,1,50,0,0
46633,-80,4,2,1,70,0,1
65095,-100,4,2,1,40,0,0
75249,-200,4,2,1,55,0,0
77095,-80,4,2,1,70,0,0
77556,-200,4,2,1,55,0,0
78941,-80,4,2,1,70,0,0
79403,-100,4,2,1,55,0,0
82633,-100,4,2,1,85,0,0
83787,-66.6666666666667,4,2,1,55,0,0
84710,-100,4,2,1,55,0,0
86326,-100,4,2,1,80,0,0
87249,-100,4,2,1,55,0,0
90018,-66.6666666666667,4,2,1,55,0,0
90941,-66.6666666666667,4,2,1,60,0,0
91172,-66.6666666666667,4,2,1,65,0,0
91403,-66.6666666666667,4,2,1,70,0,0
91633,-66.6666666666667,4,2,1,75,0,0
91864,-66.6666666666667,4,2,1,80,0,0
92787,-80,4,2,1,80,0,1
108018,-100,4,2,1,80,0,0
110095,-100,4,2,1,100,0,0
111249,-100,4,2,1,70,0,0
114018,-133.333333333333,4,2,1,50,0,0
114825,-200,4,2,1,30,0,0
116787,-133.333333333333,4,2,1,30,0,0
123710,-100,4,2,1,50,0,0
142633,-133.333333333333,4,2,1,50,0,0
144018,-100,4,2,1,50,0,0
145403,-100,4,2,1,80,0,0
146326,-100,4,2,1,50,0,0
151864,-133.333333333333,4,2,1,60,0,0
152786,-80,4,2,1,80,0,1
168480,-100,4,2,1,80,0,1
186941,-100,4,2,1,60,0,0
194556,-100,4,2,1,40,0,0
195480,-100,4,2,1,20,0,0

[Colours]
Combo1 : 255,0,0
Combo2 : 0,255,0
Combo3 : 255,255,0
Combo4 : 0,128,255

[HitObjects]
256,192,24479,5,4,0:0:0:0:
132,68,24710,6,0,L|180:108,1,50
230,100,24941,1,0,0:0:0:0:
264,100,25056,1,0,0:0:0:0:
300,100,25172,1,0,0:0:0:0:
420,100,25403,2,2,P|468:120|480:192,1,100,0|0,0:0|0:0,0:0:0:0:
404,232,25863,2,0,L|356:180,2,50,0|0|0,0:0|0:0|0:0,0:0:0:0:
220,304,26556,6,0,L|204:284,2,25,0|0|0,0:0|0:0|0:0,0:0:0:0:
184,344,26786,2,0,L|142:316,1,50
84,276,27017,1,8,0:0:0:0:
63,105,27248,2,0,P|81:149|128:164,1,100,0|0,0:0|0:0,0:0:0:0:
248,110,27710,2,0,P|230:66|184:52,1,100,0|0,0:0|0:0,0:0:0:0:
92,252,28403,5,0,0:0:0:0:
108,272,28518,1,0,0:0:0:0:
124,292,28633,2,0,B|156:308|156:308|168:332|168:332|200:368,1,100
372,332,29094,2,0,P|420:341|465:322,1,100,0|0,0:0|0:0,0:0:0:0:
404,168,29556,2,0,P|358:149|308:160,1,100,0|0,0:0|0:0,0:0:0:0:
348,240,30018,5,0,0:0:0:0:
236,104,30249,1,8,0:0:0:0:
164,264,30479,1,2,0:0:0:0:
308,160,30710,1,8,0:0:0:0:
212,264,30940,6,4,L|292:352,1,100,2|0,0:0|0:0,0:0:0:0:
256,192,31864,5,4,0:0:0:0:
44,76,32094,2,0,P|144:36|240:76,1,200
304,112,32786,2,0,P|289:159|304:208,1,100,0|0,0:0|0:0,0:0:0:0:
392,224,33248,2,0,L|468:156,2,100,0|0|0,0:0|0:0|0:0,0:0:0:0:
464,300,33940,6,0,P|364:308|264:268,1,200,0|0,0:0|0:0,0:0:0:0:
104,252,34633,1,2,0:0:0:0:
228,108,34863,1,8,0:0:0:0:
92,128,35094,1,2,0:0:0:0:
252,248,35325,2,0,B|236:272|236:272|216:280,2,50,8|0|0,0:0|0:0|0:0,0:0:0:0:
384,176,35786,6,0,L|436:148,1,50,8|0,0:0|0:0,0:0:0:0:
400,88,36018,1,0,0:0:0:0:
368,104,36133,1,0,0:0:0:0:
336,120,36249,1,0,0:0:0:0:
151,180,36480,2,0,P|167:132|201:97,1,100,0|0,0:0|0:0,0:0:0:0:
80,141,36941,2,0,P|104:71|164:28,1,150,0|0,0:0|0:0,0:0:0:0:
168,124,37403,5,2,0:0:0:0:
224,264,37633,1,8,0:0:0:0:
292,124,37864,1,2,0:0:0:0:
336,264,38095,1,8,0:0:0:0:
416,124,38326,2,0,P|452:176|464:256,1,100,0|0,0:0|0:0,0:0:0:0:
224,264,38787,2,0,P|183:201|168:144,1,100,0|0,0:0|0:0,0:0:0:0:
416,124,39249,6,0,P|456:186|468:228,2,100,2|0|0,0:0|0:0|0:0,0:0:0:0:
213,263,39941,2,0,P|237:305|280:316,2,50,4|0|0,0:0|0:0|0:0,0:0:0:0:
168,96,40403,6,0,P|192:56|212:48,1,50,0|0,0:0|0:0,0:0:0:0:
344,60,40633,1,2,0:0:0:0:
292,220,40863,1,2,0:0:0:0:
456,184,41094,1,8,0:0:0:0:
292,136,41326,1,8,0:0:0:0:
324,320,41556,1,2,0:0:0:0:
324,320,41786,1,8,0:0:0:0:
112,260,42018,2,0,B|184:172|184:172|244:168|244:168|324:80,1,275,0|0,0:0|0:0,0:0:0:0:
224,244,42941,6,0,L|160:320,2,100,2|0|0,0:0|0:0|0:0,0:0:0:0:
200,112,43633,2,0,L|272:32,2,100,4|0|0,0:0|0:0|0:0,0:0:0:0:
96,220,44326,5,2,0:0:0:0:
204,324,44556,1,8,0:0:0:0:
304,216,44786,2,0,L|272:256,1,50
248,292,45248,1,0,0:0:0:0:
256,192,45363,12,0,46402,0:0:0:0:
256,192,46633,5,2,0:0:0:0:
256,192,46863,1,8,0:0:0:0:
416,124,47095,2,0,P|344:188|232:180,1,187.5,0|0,0:0|0:0,0:0:0:0:
308,100,47556,1,4,0:0:0:0:
44,140,47787,5,0,0:0:0:0:
64,184,47903,1,0,0:0:0:0:
88,224,48018,1,0,0:0:0:0:
120,260,48133,1,0,0:0:0:0:
160,292,48249,1,0,0:0:0:0:
200,316,48364,1,0,0:0:0:0:
248,324,48480,6,0,P|288:312|332:280,1,62.5,0|0,0:0|0:0,0:0:0:0:
408,200,48710,1,8,0:0:0:0:
248,64,48940,2,0,P|176:84|160:112,1,62.5,2|0,0:0|0:0,0:0:0:0:
124,60,49172,2,0,P|104:128|121:160,1,62.5,8|0,0:0|0:0,0:0:0:0:
32,128,49402,2,0,P|36:192|64:208,1,62.5,4|0,0:0|0:0,0:0:0:0:
52,344,49633,5,0,0:0:0:0:
80,304,49749,1,0,0:0:0:0:
108,264,49864,1,0,0:0:0:0:
144,232,49979,1,0,0:0:0:0:
188,212,50095,1,0,0:0:0:0:
232,196,50210,1,0,0:0:0:0:
280,196,50326,6,0,P|304:199|340:236,1,62.5,0|0,0:0|0:0,0:0:0:0:
440,324,50556,1,8,0:0:0:0:
360,232,50787,2,0,L|360:148,1,62.5,2|0,0:0|0:0,0:0:0:0:
256,152,51018,2,0,L|256:80,1,62.5,8|0,0:0|0:0,0:0:0:0:
84,72,51249,2,0,L|84:28,2,31.25,4|0|0,0:0|0:0|0:0,0:0:0:0:
84,128,51480,5,0,0:0:0:0:
84,176,51595,1,0,0:0:0:0:
84,224,51710,1,0,0:0:0:0:
100,268,51826,1,0,0:0:0:0:
128,308,51941,1,0,0:0:0:0:
256,152,52172,1,2,0:0:0:0:
412,320,52403,1,8,0:0:0:0:
372,152,52633,2,0,P|342:84|208:76,1,187.5,0|2,0:0|0:0,0:0:0:0:
238,59,53095,1,4,0:0:0:0:
152,296,53326,5,0,0:0:0:0:
124,256,53441,1,0,0:0:0:0:
104,212,53556,1,0,0:0:0:0:
96,164,53672,1,0,0:0:0:0:
92,116,53787,1,0,0:0:0:0:
152,296,54018,1,2,0:0:0:0:
396,72,54249,1,8,0:0:0:0:
80,96,54480,2,2,P|79:138|132:236,1,125,0|0,0:0|0:0,0:0:0:0:
132,248,54826,1,0,0:0:0:0:
156,280,54941,1,4,0:0:0:0:
412,300,55172,5,0,0:0:0:0:
432,256,55287,1,0,0:0:0:0:
452,212,55403,1,0,0:0:0:0:
460,164,55518,1,0,0:0:0:0:
464,116,55633,1,0,0:0:0:0:
192,64,55864,2,0,P|152:80|132:100,1,62.5,2|0,0:0|0:0,0:0:0:0:
108,180,56095,1,8,0:0:0:0:
192,296,56325,2,0,P|232:272|248:240,1,62.5,2|0,0:0|0:0,0:0:0:0:
276,180,56556,1,8,0:0:0:0:
108,60,56787,1,4,0:0:0:0:
108,60,57018,5,0,0:0:0:0:
148,88,57134,1,0,0:0:0:0:
188,116,57249,1,0,0:0:0:0:
228,144,57364,1,0,0:0:0:0:
268,172,57480,1,0,0:0:0:0:
308,200,57595,1,0,0:0:0:0:
348,228,57710,6,0,P|345:252|320:288,1,62.5,0|0,0:0|0:0,0:0:0:0:
384,272,57941,2,0,P|381:296|356:332,1,62.5,0|0,0:0|0:0,0:0:0:0:
360,328,58172,1,2,0:0:0:0:
220,104,58402,1,8,0:0:0:0:
88,328,58633,1,4,0:0:0:0:
436,316,58864,5,0,0:0:0:0:
400,284,58980,1,0,0:0:0:0:
364,252,59095,1,0,0:0:0:0:
324,224,59210,1,0,0:0:0:0:
284,200,59326,1,0,0:0:0:0:
240,180,59441,1,0,0:0:0:0:
196,164,59557,6,0,P|171:160|140:116,1,62.5
232,72,59786,1,8,0:0:0:0:
152,344,60018,2,0,P|67:295|96:180,1,187.5,2|0,0:0|0:0,0:0:0:0:
200,120,60480,5,2,0:0:0:0:
420,356,60710,1,8,0:0:0:0:
420,32,60941,1,2,0:0:0:0:
200,268,61172,1,8,0:0:0:0:
124,96,61403,2,0,P|128:156|212:200,1,125,4|0,0:0|0:0,0:0:0:0:
256,192,61864,12,0,65095,0:0:0:0:
256,192,68787,5,4,0:0:0:0:
108,80,69017,6,0,P|220:188|284:188,1,200
432,72,69710,1,0,0:0:0:0:
328,192,69940,1,0,0:0:0:0:
488,196,70172,1,2,0:0:0:0:
388,320,70402,1,0,0:0:0:0:
120,328,70863,6,0,L|140:308,2,25,0|0|0,0:0|0:0|0:0,0:0:0:0:
72,316,71094,2,0,L|132:168,1,150
252,84,71556,1,0,0:0:0:0:
164,248,71786,1,0,0:0:0:0:
352,240,72017,1,2,0:0:0:0:
184,156,72248,1,0,0:0:0:0:
400,24,72710,5,0,0:0:0:0:
400,72,72826,1,0,0:0:0:0:
400,120,72940,2,0,L|400:280,1,150
352,328,73402,5,2,0:0:0:0:
264,208,73633,1,0,0:0:0:0:
192,76,73864,1,2,0:0:0:0:
260,208,74095,2,0,P|272:168|256:148,1,50
240,68,74326,5,2,0:0:0:0:
268,296,74556,1,8,0:0:0:0:
292,68,74787,1,2,0:0:0:0:
212,288,75018,1,8,0:0:0:0:
64,312,75249,6,0,B|92:336|92:336|108:276,1,100
152,92,75941,5,0,0:0:0:0:
152,92,76056,1,0,0:0:0:0:
184,132,76172,2,0,L|264:148,1,75
320,264,76633,2,0,L|228:228,1,75
184,132,77095,6,0,B|264:36|360:124,1,187.5
376,216,77556,5,0,0:0:0:0:
376,216,77672,1,0,0:0:0:0:
376,216,77787,1,0,0:0:0:0:
376,216,77902,1,0,0:0:0:0:
332,240,78018,2,0,L|252:224,1,75
184,132,78479,2,0,L|276:168,1,75
328,248,78941,6,0,B|232:312|128:236,1,187.5
148,72,79403,6,0,B|161:170|200:-16|260:112,1,150
316,264,79864,2,0,B|248:320|176:264,1,150
244,200,80325,5,2,0:0:0:0:
244,200,80556,1,8,0:0:0:0:
68,324,80787,5,0,0:0:0:0:
116,308,80903,1,0,0:0:0:0:
164,292,81018,1,0,0:0:0:0:
428,196,81249,5,0,0:0:0:0:
380,180,81363,1,0,0:0:0:0:
332,164,81480,1,0,0:0:0:0:
68,96,81710,5,0,0:0:0:0:
116,80,81826,1,0,0:0:0:0:
164,64,81941,1,0,0:0:0:0:
388,60,82172,2,0,B|412:20|412:20|428:144,1,150
460,352,82633,5,2,0:0:0:0:
312,292,82864,1,8,0:0:0:0:
28,236,83095,5,2,0:0:0:0:
176,176,83326,1,8,0:0:0:0:
496,120,83556,5,0,0:0:0:0:
348,60,83787,2,0,B|268:24|192:92|224:192|320:196,1,225.000008583069,0|0,0:0|0:0,0:0:0:0:
400,212,84248,2,0,P|388:284|316:288,1,150.000005722046,0|4,0:0|0:0,0:0:0:0:
256,196,84710,5,0,0:0:0:0:
84,264,84940,1,0,0:0:0:0:
108,80,85171,1,0,0:0:0:0:
180,252,85403,5,2,0:0:0:0:
384,304,85633,1,8,0:0:0:0:
408,128,85864,2,0,L|368:88,1,50
208,128,86095,2,0,L|243:163,1,50
384,308,86326,1,2,0:0:0:0:
244,88,86556,1,8,0:0:0:0:
124,272,86787,2,0,P|200:212|196:176,1,100
124,116,87249,6,0,P|72:148|56:200,2,100,0|0|0,0:0|0:0|0:0,0:0:0:0:
172,116,87826,1,0,0:0:0:0:
220,116,87941,2,0,P|256:116|276:100,2,50,0|0|0,0:0|0:0|0:0,0:0:0:0:
112,84,88403,5,8,0:0:0:0:
160,256,88633,1,2,0:0:0:0:
268,112,88864,1,8,0:0:0:0:
328,280,89094,1,2,0:0:0:0:
420,124,89326,1,8,0:0:0:0:
328,280,89556,1,2,0:0:0:0:
268,112,89787,1,8,0:0:0:0:
44,192,90018,2,0,B|92:328|92:328|152:228|152:228|204:332|204:332|260:188,1,525.000020027161
256,192,90941,5,0,0:0:0:0:
264,180,91172,1,0,0:0:0:0:
272,168,91403,1,0,0:0:0:0:
280,156,91633,1,0,0:0:0:0:
288,144,91864,1,4,0:0:0:0:
468,32,92095,5,0,0:0:0:0:
464,80,92210,1,0,0:0:0:0:
460,128,92326,1,0,0:0:0:0:
456,176,92441,1,0,0:0:0:0:
448,224,92556,1,0,0:0:0:0:
440,272,92671,1,0,0:0:0:0:
428,312,92787,6,0,B|392:340|348:332,1,62.5,2|0,0:0|0:0,0:0:0:0:
136,312,93018,1,8,0:0:0:0:
160,156,93249,2,0,P|192:108|212:100,1,62.5,2|0,0:0|0:0,0:0:0:0:
332,216,93480,2,0,P|319:243|293:260,1,62.5,8|0,0:0|0:0,0:0:0:0:
244,180,93710,1,4,0:0:0:0:
40,48,93941,5,0,0:0:0:0:
44,96,94056,1,0,0:0:0:0:
48,144,94172,1,0,0:0:0:0:
52,192,94287,1,0,0:0:0:0:
60,240,94402,1,0,0:0:0:0:
76,284,94518,1,0,0:0:0:0:
104,324,94633,5,2,0:0:0:0:
376,320,94864,2,0,L|304:272,1,62.5,8|0,0:0|0:0,0:0:0:0:
408,208,95094,2,0,L|324:208,1,62.5,2|0,0:0|0:0,0:0:0:0:
372,84,95325,2,0,L|308:136,1,62.5,8|0,0:0|0:0,0:0:0:0:
248,192,95556,1,4,0:0:0:0:
72,40,95787,5,0,0:0:0:0:
120,48,95902,1,0,0:0:0:0:
168,56,96018,1,0,0:0:0:0:
216,64,96133,1,0,0:0:0:0:
260,80,96248,1,0,0:0:0:0:
304,100,96364,1,0,0:0:0:0:
349,114,96479,6,0,B|416:144|432:248|320:272,1,187.5,2|0,0:0|0:0,0:0:0:0:
248,192,96941,1,2,0:0:0:0:
132,120,97171,2,0,P|80:104|72:80,1,62.5
248,192,97403,1,4,0:0:0:0:
72,344,97633,5,0,0:0:0:0:
120,336,97748,1,0,0:0:0:0:
168,328,97864,1,0,0:0:0:0:
216,320,97979,1,0,0:0:0:0:
260,304,98094,1,0,0:0:0:0:
304,284,98210,1,0,0:0:0:0:
349,270,98325,6,0,B|416:240|392:136|320:120,1,187.5,2|0,0:0|0:0,0:0:0:0:
136,92,98787,2,0,L|216:116,1,62.5,2|0,0:0|0:0,0:0:0:0:
136,92,99017,2,0,B|236:204,1,125,8|4,0:0|0:0,0:0:0:0:
420,52,99480,5,0,0:0:0:0:
416,100,99595,1,0,0:0:0:0:
412,148,99711,1,0,0:0:0:0:
408,196,99826,1,0,0:0:0:0:
400,244,99941,1,0,0:0:0:0:
384,288,100057,1,0,0:0:0:0:
348,320,100172,6,0,B|316:352|208:364|136:332,1,187.5,2|0,0:0|0:0,0:0:0:0:
108,204,100633,6,0,B|184:236|292:224|324:192,1,187.5,2|0,0:0|0:0,0:0:0:0:
320,68,101095,1,4,0:0:0:0:
40,48,101326,5,0,0:0:0:0:
44,96,101441,1,0,0:0:0:0:
48,144,101557,1,0,0:0:0:0:
52,192,101672,1,0,0:0:0:0:
60,240,101787,1,0,0:0:0:0:
76,284,101903,1,0,0:0:0:0:
100,324,102017,6,0,B|136:352|180:348,1,62.5,2|0,0:0|0:0,0:0:0:0:
332,320,102248,1,0,0:0:0:0:
144,188,102479,2,0,B|184:204|228:188,1,62.5,2|0,0:0|0:0,0:0:0:0:
344,204,102710,2,0,L|420:240,2,62.5,0|0|4,0:0|0:0|0:0,0:0:0:0:
72,40,103172,5,0,0:0:0:0:
120,48,103287,1,0,0:0:0:0:
168,56,103403,1,0,0:0:0:0:
216,64,103518,1,0,0:0:0:0:
260,80,103633,1,0,0:0:0:0:
304,100,103749,1,0,0:0:0:0:
349,114,103864,6,0,B|400:148|400:236|320:264,1,187.5,2|0,0:0|0:0,0:0:0:0:
88,328,104326,1,2,0:0:0:0:
52,108,104556,1,8,0:0:0:0:
260,196,104786,1,4,0:0:0:0:
84,348,105018,5,0,0:0:0:0:
128,340,105133,1,0,0:0:0:0:
172,328,105249,1,0,0:0:0:0:
216,316,105364,1,0,0:0:0:0:
260,304,105479,1,0,0:0:0:0:
304,292,105595,1,0,0:0:0:0:
348,276,105710,6,0,B|440:188|344:104,1,187.5,2|0,0:0|0:0,0:0:0:0:
304,192,106172,1,2,0:0:0:0:
64,36,106403,1,8,0:0:0:0:
64,280,106633,1,2,0:0:0:0:
296,88,106864,1,8,0:0:0:0:
340,312,107095,1,0,0:0:0:0:
356,280,107210,1,0,0:0:0:0:
372,248,107326,2,0,L|388:212,2,31.25,0|0|0,0:0|0:0|0:0,0:0:0:0:
200,152,107556,6,0,P|136:104|112:44,1,125,4|0,0:0|0:0,0:0:0:0:
72,340,108018,5,2,0:0:0:0:
332,280,108249,1,8,0:0:0:0:
72,204,108480,2,0,P|88:160|116:136,2,75,0|0|0,0:0|0:0|0:0,0:0:0:0:
148,204,108941,1,2,0:0:0:0:
376,140,109172,1,8,0:0:0:0:
451,139,109403,2,0,P|436:88|376:64,2,100,0|0|0,0:0|0:0|0:0,0:0:0:0:
356,320,110095,5,8,0:0:0:0:
176,64,110326,1,2,0:0:0:0:
176,64,110556,1,0,0:0:0:0:
152,256,110787,2,0,B|152:316|152:316|232:316|232:316|232:240,1,200
256,60,111480,5,8,0:0:0:0:
352,232,111710,1,2,0:0:0:0:
256,164,111941,1,8,0:0:0:0:
432,200,112172,2,0,P|432:284|364:312,1,150
256,316,112633,1,2,0:0:0:0:
128,296,112863,5,0,0:0:0:0:
128,296,113094,2,0,L|128:144,1,150
168,60,113556,2,0,L|236:56,3,50,0|0|0|0,0:0|0:0|0:0|0:0,0:0:0:0:
388,68,114018,2,0,L|296:116,1,75.0000028610231
144,164,114480,2,0,L|232:212,1,75.0000028610231
256,192,114825,12,0,116325,0:0:0:0:
88,324,116787,6,0,P|76:309|78:290,2,37.5000014305115,0|0|0,0:0|0:0|0:0,0:0:0:0:
88,224,117133,2,0,P|76:209|78:190,2,37.5000014305115,0|0|0,0:0|0:0|0:0,0:0:0:0:
88,124,117480,2,0,P|76:109|78:90,2,37.5000014305115,0|0|0,0:0|0:0|0:0,0:0:0:0:
180,116,117941,2,0,P|192:48|261:51,1,150.000005722046
416,80,118633,6,0,P|478:116|451:178,1,150.000005722046,0|0,0:0|0:0,0:0:0:0:
392,280,119326,6,0,P|372:349|300:339,1,150.000005722046
64,224,120018,5,2,0:0:0:0:
64,224,120249,1,8,0:0:0:0:
112,120,120480,2,0,L|112:52,2,37.5000014305115,0|0|0,0:0|0:0|0:0,0:0:0:0:
212,152,120826,2,0,L|270:118,2,37.5000014305115,0|0|0,0:0|0:0|0:0,0:0:0:0:
168,248,121172,2,0,L|226:282,2,37.5000014305115,0|0|0,0:0|0:0|0:0,0:0:0:0:
288,296,121633,6,0,L|328:280,1,37.5000014305115,0|0,0:0|0:0,0:0:0:0:
352,224,121864,2,0,L|392:208,1,37.5000014305115,0|0,0:0|0:0,0:0:0:0:
404,148,122095,2,0,L|444:132,1,37.5000014305115,0|0,0:0|0:0,0:0:0:0:
328,84,122326,2,0,L|232:132,1,75.0000028610231
148,264,122787,1,2,0:0:0:0:
152,336,123018,2,0,P|66:297|102:245,1,150.000005722046,0|0,0:0|0:0,0:0:0:0:
156,104,123710,6,0,B|108:60,2,50,4|0|0,0:0|0:0|0:0,0:0:0:0:
280,204,124171,6,0,L|252:332,1,100,0|0,0:0|0:0,0:0:0:0:
176,336,124518,2,0,L|68:272,1,100
88,196,124864,2,0,L|160:120,1,100
176,104,125210,1,0,0:0:0:0:
196,84,125326,1,0,0:0:0:0:
296,80,125556,2,0,L|352:80,2,50,0|0|0,0:0|0:0|0:0,0:0:0:0:
480,104,126018,6,0,L|480:208,1,100
408,136,126364,6,0,L|408:240,1,100
336,168,126710,6,0,L|336:280,1,100
336,288,127056,1,0,0:0:0:0:
336,308,127172,1,0,0:0:0:0:
200,344,127403,2,0,L|268:344,2,50,0|0|0,0:0|0:0|0:0,0:0:0:0:
98,274,127864,6,0,L|128:316,2,50,0|0|0,0:0|0:0|0:0,0:0:0:0:
72,200,128210,2,0,L|116:168,2,50,0|0|0,0:0|0:0|0:0,0:0:0:0:
136,84,128556,2,0,L|168:124,2,50,0|0|0,0:0|0:0|0:0,0:0:0:0:
120,64,128902,1,0,0:0:0:0:
104,44,129018,1,0,0:0:0:0:
264,60,129249,2,0,L|196:60,2,50,0|0|0,0:0|0:0|0:0,0:0:0:0:
384,143,129710,6,0,P|403:128|408:104,2,50,0|0|0,0:0|0:0|0:0,0:0:0:0:
339,191,130056,2,0,P|320:176|316:152,2,50,0|0|0,0:0|0:0|0:0,0:0:0:0:
380,247,130403,2,0,P|399:232|404:208,2,50,0|0|0,0:0|0:0|0:0,0:0:0:0:
372,256,130749,1,0,0:0:0:0:
364,264,130864,1,0,0:0:0:0:
288,332,131095,2,0,L|352:332,2,50,0|0|0,0:0|0:0|0:0,0:0:0:0:
116,332,131556,6,0,L|64:240,1,100,4|0,0:0|0:0,0:0:0:0:
168,264,131903,2,0,L|220:172,1,100
112,184,132249,2,0,L|60:92,1,100
168,76,132710,5,8,0:0:0:0:
168,76,132941,1,2,0:0:0:0:
168,76,133172,1,8,0:0:0:0:
396,52,133403,6,0,L|448:144,1,100
344,120,133748,2,0,L|292:212,1,100
400,200,134094,2,0,L|452:292,1,100
344,308,134557,5,8,0:0:0:0:
344,308,134786,1,2,0:0:0:0:
344,308,135017,1,8,0:0:0:0:
164,304,135249,6,0,L|112:304,2,50,0|0|0,0:0|0:0|0:0,0:0:0:0:
364,232,135595,2,0,L|414:232,2,50,0|0|0,0:0|0:0|0:0,0:0:0:0:
160,156,135941,2,0,L|108:156,2,50,0|0|0,0:0|0:0|0:0,0:0:0:0:
284,60,136403,5,8,0:0:0:0:
284,60,136633,1,2,0:0:0:0:
284,60,136864,1,8,0:0:0:0:
256,192,137094,12,0,138479,0:0:0:0:
36,128,138941,5,2,0:0:0:0:
164,56,139172,1,8,0:0:0:0:
312,56,139403,1,2,0:0:0:0:
444,124,139633,2,0,P|472:196|504:208,1,100,8|0,0:0|0:0,0:0:0:0:
96,128,140095,1,8,0:0:0:0:
396,124,140326,1,4,0:0:0:0:
452,256,140786,5,0,0:0:0:0:
324,328,141018,1,0,0:0:0:0:
176,328,141249,1,0,0:0:0:0:
48,256,141480,2,0,L|26:301,2,50,0|0|0,0:0|0:0|0:0,0:0:0:0:
392,256,141941,1,8,0:0:0:0:
108,256,142172,1,4,0:0:0:0:
212,192,142403,5,0,0:0:0:0:
212,192,142518,1,0,0:0:0:0:
212,192,142633,2,0,P|172:248|108:208,1,150.000005722046,0|0,0:0|0:0,0:0:0:0:
300,192,143326,5,0,0:0:0:0:
300,192,143441,1,0,0:0:0:0:
300,192,143556,2,0,P|340:248|404:208,1,150.000005722046,0|0,0:0|0:0,0:0:0:0:
408,44,144249,6,0,L|401:93,5,50,0|0|0|0|0|0,0:0|0:0|0:0|0:0|0:0|0:0,0:0:0:0:
392,200,144941,2,0,B|432:280|432:280|340:300,1,150
140,288,145403,2,0,L|140:132,2,133.333333333333,2|2|2,0:0|0:0|0:0,0:0:0:0:
68,72,146556,5,0,0:0:0:0:
96,84,146671,1,0,0:0:0:0:
124,96,146787,2,0,B|188:144|188:144|152:212,1,150
88,312,147249,2,0,L|152:312,1,50
176,312,147480,2,0,L|236:312,1,50
264,312,147710,2,0,L|328:312,1,50
420,224,147941,5,8,0:0:0:0:
360,100,148172,1,2,0:0:0:0:
228,56,148403,1,8,0:0:0:0:
92,88,148633,2,0,L|92:56,6,25,0|0|0|0|0|0|0,0:0|0:0|0:0|0:0|0:0|0:0|0:0,0:0:0:0:
92,124,149094,2,0,P|96:192|144:244,1,100
268,284,149556,6,0,P|342:234|360:176,1,150
356,304,150017,2,0,P|396:224|384:168,1,150
440,256,150479,2,0,P|434:166|402:134,1,100
408,60,150941,1,2,0:0:0:0:
252,256,151172,1,8,0:0:0:0:
96,112,151402,2,0,P|56:172|84:244,1,150
148,152,151864,6,0,P|120:184|148:212,1,75.0000028610231,0|0,0:0|0:0,0:0:0:0:
300,284,152326,2,0,P|276:248|292:224,1,75.0000028610231,0|0,0:0|0:0,0:0:0:0:
400,40,152786,6,0,L|440:40,12,31.25,4|0|0|0|0|0|0|0|0|0|0|0|0,0:0|0:0|0:0|0:0|0:0|0:0|0:0|0:0|0:0|0:0|0:0|0:0|0:0,0:0:0:0:
136,40,153710,1,2,0:0:0:0:
400,40,153941,1,8,0:0:0:0:
68,72,154172,2,0,P|56:200|108:256,1,187.5
140,144,154633,1,4,0:0:0:0:
164,304,154864,5,0,0:0:0:0:
208,288,154980,1,0,0:0:0:0:
252,272,155095,1,0,0:0:0:0:
296,256,155211,1,0,0:0:0:0:
340,240,155326,1,0,0:0:0:0:
384,228,155440,1,0,0:0:0:0:
428,212,155556,6,0,B|472:68|472:68|396:60,1,187.5,2|0,0:0|0:0,0:0:0:0:
256,64,156018,1,2,0:0:0:0:
72,132,156249,1,8,0:0:0:0:
256,192,156480,1,4,0:0:0:0:
24,132,156710,5,0,0:0:0:0:
28,180,156826,1,0,0:0:0:0:
44,224,156941,1,0,0:0:0:0:
72,264,157056,1,0,0:0:0:0:
100,304,157172,1,0,0:0:0:0:
136,336,157287,1,0,0:0:0:0:
180,352,157402,6,0,P|336:368|380:356,1,187.5,2|0,0:0|0:0,0:0:0:0:
320,260,157864,2,0,L|396:228,1,62.5,2|0,0:0|0:0,0:0:0:0:
420,88,158095,2,0,L|352:56,1,62.5,8|0,0:0|0:0,0:0:0:0:
300,192,158326,2,0,L|336:192,2,31.25,4|0|0,0:0|0:0|0:0,0:0:0:0:
256,192,158556,5,0,0:0:0:0:
208,192,158672,1,0,0:0:0:0:
160,192,158787,1,0,0:0:0:0:
112,192,158903,1,0,0:0:0:0:
64,192,159017,1,0,0:0:0:0:
232,60,159248,5,0,0:0:0:0:
396,160,159480,2,0,L|444:216,1,62.5,8|0,0:0|0:0,0:0:0:0:
256,60,159710,1,2,0:0:0:0:
456,208,159941,1,8,0:0:0:0:
268,336,160172,1,4,0:0:0:0:
88,360,160403,5,0,0:0:0:0:
88,312,160518,1,0,0:0:0:0:
88,264,160633,1,0,0:0:0:0:
88,216,160749,1,0,0:0:0:0:
88,168,160864,2,0,L|88:92,1,62.5
264,304,161094,5,0,0:0:0:0:
260,108,161326,1,8,0:0:0:0:
440,144,161556,2,0,L|440:206,2,62.5,2|0|0,0:0|0:0|0:0,0:0:0:0:
440,112,161902,1,0,0:0:0:0:
440,80,162017,1,4,0:0:0:0:
36,36,162249,5,0,0:0:0:0:
52,80,162364,1,0,0:0:0:0:
68,124,162480,1,0,0:0:0:0:
92,164,162595,1,0,0:0:0:0:
112,204,162710,1,0,0:0:0:0:
132,248,162826,1,0,0:0:0:0:
156,288,162940,6,0,L|208:360,1,62.5,2|0,0:0|0:0,0:0:0:0:
232,268,163172,1,8,0:0:0:0:
444,316,163402,2,0,L|444:248,1,62.5,2|0,0:0|0:0,0:0:0:0:
256,188,163633,1,0,0:0:0:0:
48,60,163863,1,4,0:0:0:0:
48,60,164095,5,0,0:0:0:0:
88,88,164210,1,0,0:0:0:0:
124,120,164326,1,0,0:0:0:0:
160,152,164441,1,0,0:0:0:0:
200,176,164557,1,0,0:0:0:0:
240,200,164672,1,0,0:0:0:0:
284,216,164786,6,0,P|308:219|340:240,1,62.5,2|0,0:0|0:0,0:0:0:0:
376,272,165018,2,0,P|400:269|436:240,1,62.5,8|0,0:0|0:0,0:0:0:0:
432,112,165249,1,2,0:0:0:0:
88,208,165480,1,8,0:0:0:0:
420,52,165710,1,4,0:0:0:0:
420,52,165941,5,0,0:0:0:0:
416,100,166056,1,0,0:0:0:0:
412,148,166172,1,0,0:0:0:0:
408,196,166287,1,0,0:0:0:0:
400,244,166402,1,0,0:0:0:0:
384,288,166518,1,0,0:0:0:0:
348,320,166633,6,0,B|316:352|208:364|144:328,1,187.5,2|0,0:0|0:0,0:0:0:0:
104,180,167095,2,0,B|180:212|288:200|312:176,1,187.5,2|0,0:0|0:0,0:0:0:0:
104,64,167556,5,2,0:0:0:0:
408,320,167787,1,8,0:0:0:0:
248,44,168018,1,2,0:0:0:0:
264,340,168249,1,8,0:0:0:0:
312,52,168480,2,0,B|344:56|344:56|320:124,1,100,4|0,0:0|0:0,0:0:0:0:
176,328,168941,5,2,0:0:0:0:
112,128,169172,1,8,0:0:0:0:
154,66,169403,2,0,P|119:54|92:60,2,50,0|0|0,0:0|0:0|0:0,0:0:0:0:
312,120,169864,1,2,0:0:0:0:
452,264,170095,1,8,0:0:0:0:
384,300,170326,2,0,P|412:332|440:340,2,50,0|0|0,0:0|0:0|0:0,0:0:0:0:
384,300,170787,1,0,0:0:0:0:
396,52,171018,5,4,0:0:0:0:
276,344,171249,1,2,0:0:0:0:
200,124,171480,1,0,0:0:0:0:
404,232,171710,1,0,0:0:0:0:
200,124,171941,1,0,0:0:0:0:
124,124,172172,2,0,P|132:84|156:68,1,50
236,56,172403,5,0,0:0:0:0:
284,56,172518,1,0,0:0:0:0:
332,56,172633,2,0,P|360:55|388:76,1,50
432,192,172864,1,0,0:0:0:0:
260,192,173095,1,0,0:0:0:0:
88,196,173326,1,0,0:0:0:0:
88,260,173556,6,0,L|88:310,1,50,0|0,0:0|0:0,0:0:0:0:
88,144,173786,6,0,L|88:194,1,50,0|0,0:0|0:0,0:0:0:0:
248,140,174018,2,0,B|284:120|296:148|280:172|284:188|268:220|268:220|308:220,1,150,0|0,0:0|0:0,0:0:0:0:
416,128,174480,2,0,B|440:112|484:136|480:160|312:168|484:188|492:200|436:224|408:216,1,150,4|0,0:0|0:0,0:0:0:0:
408,328,174941,1,2,0:0:0:0:
104,328,175403,1,2,0:0:0:0:
256,68,175864,2,0,L|256:40,4,25,4|0|0|0|0,0:0|0:0|0:0|0:0|0:0,0:0:0:0:
149,205,176556,5,8,0:0:0:0:
362,205,176786,1,8,0:0:0:0:
190,330,177017,1,8,0:0:0:0:
256,128,177248,1,8,0:0:0:0:
321,330,177479,1,8,0:0:0:0:
392,88,177710,6,0,L|392:48,4,25,0|0|0|0|0,0:0|0:0|0:0|0:0|0:0,0:0:0:0:
88,64,178172,2,0,B|40:76|40:76|132:112,1,100,2|0,0:0|0:0,0:0:0:0:
424,64,178633,2,0,B|464:36|464:36|452:120,1,100,2|0,0:0|0:0,0:0:0:0:
424,320,179095,2,0,B|472:312|472:312|412:276,1,100,2|0,0:0|0:0,0:0:0:0:
88,320,179556,2,0,L|88:280,4,25,4|0|0|0|0,0:0|0:0|0:0|0:0|0:0,0:0:0:0:
256,192,180018,12,0,183018,0:0:0:0:
256,192,183710,12,0,186710,0:0:0:0:
124,260,187172,6,0,B|124:324|124:324|232:324,1,150,8|0,0:0|0:0,0:0:0:0:
252,324,187633,1,8,0:0:0:0:
296,324,187749,2,0,B|340:324|340:324|340:248,1,100
340,224,188095,1,8,0:0:0:0:
340,180,188210,2,0,B|340:116|340:116|256:116,1,100
260,116,188556,5,8,0:0:0:0:
216,116,188672,2,0,B|148:116|148:116|148:60,1,100,0|0,0:0|0:0,0:0:0:0:
148,40,189018,1,8,0:0:0:0:
104,40,189133,2,0,B|44:40|44:40|44:104,1,100
44,124,189480,1,8,0:0:0:0:
44,168,189595,2,0,B|43:247|43:247|76:248,1,100
108,248,189941,5,8,0:0:0:0:
152,252,190056,2,0,B|152:320|152:320|72:320,1,100
76,320,190403,1,8,0:0:0:0:
36,320,190518,2,0,L|36:212,1,100
36,176,190864,1,8,0:0:0:0:
36,132,190980,2,0,B|36:80|36:80|84:80|84:80,1,100
128,80,191326,5,8,0:0:0:0:
172,80,191441,2,0,B|228:80|228:80|228:36,1,100
272,36,191787,1,8,0:0:0:0:
316,36,191903,2,0,B|372:36|372:36|372:88,1,100
372,124,192249,1,8,0:0:0:0:
372,168,192364,2,0,B|372:232|372:232|420:232,1,100
452,232,192710,5,8,0:0:0:0:
452,276,192826,2,0,B|452:340|452:340|380:340,1,100
372,340,193172,1,8,0:0:0:0:
328,340,193287,2,0,L|192:340,1,100
184,340,193633,1,8,0:0:0:0:
140,340,193749,1,4,0:0:0:0:
84,164,194095,6,0,L|92:192,2,25,0|0|0,0:0|0:0|0:0,0:0:0:0:
192,128,194556,2,0,L|172:82,1,50
328,104,195018,2,0,L|336:132,2,25,0|0|0,0:0|0:0|0:0,0:0:0:0:
196,268,195480,2,0,L|220:324,1,50
344,244,195941,2,0,L|352:272,2,25,0|0|0,0:0|0:0|0:0,0:0:0:0:
