osu file format v13

[General]
AudioFilename: .mp3
AudioLeadIn: 0
PreviewTime: -1
Countdown: 0
SampleSet: Soft
StackLeniency: 0.7
Mode: 3
LetterboxInBreaks: 1
SpecialStyle: 0
WidescreenStoryboard: 0

[Editor]
DistanceSpacing: 0.8
BeatDivisor: 4
GridSize: 4
TimelineZoom: 2.3

[Metadata]
Title:mi-mo dancing
TitleUnicode:ミーモ・ダンシング
Artist:kagami keishirou
ArtistUnicode:鏡 慶志郎
Creator:AceNic
Version:4K 40G
Source:
Tags:
BeatmapID:541941
BeatmapSetID:233512

[Difficulty]
HPDrainRate:7
CircleSize:4
OverallDifficulty:7
ApproachRate:5
SliderMultiplier:1.4
SliderTickRate:1

[Events]
//Background and Video events
0,0,"kagami_40g.jpg",0,0
//Break Periods
//Storyboard Layer 0 (Background)
//Storyboard Layer 1 (Fail)
//Storyboard Layer 2 (Pass)
//Storyboard Layer 3 (Foreground)
//Storyboard Sound Samples
//Background Colour Transformations
3,100,163,162,255

[TimingPoints]
7282,342.857142857143,4,2,0,15,1,0
45853,-333.333333333333,4,2,0,15,0,0
45939,-66.6666666666667,4,2,0,15,0,0
46196,-333.333333333333,4,2,0,15,0,0
46282,-66.6666666666667,4,2,0,15,0,0
46539,-333.333333333333,4,2,0,15,0,0
46624,-66.6666666666667,4,2,0,15,0,0
46882,-333.333333333333,4,2,0,15,0,0
46967,-66.6666666666667,4,2,0,15,0,0
47224,-333.333333333333,4,2,0,15,0,0
47310,-66.6666666666667,4,2,0,15,0,0
47567,-333.333333333333,4,2,0,15,0,0
47653,-66.6666666666667,4,2,0,15,0,0
47910,-333.333333333333,4,2,0,15,0,0
47996,-66.6666666666667,4,2,0,15,0,0
48253,-333.333333333333,4,2,0,15,0,0
48339,-66.6666666666667,4,2,0,15,0,0
48596,-333.333333333333,4,2,0,15,0,0
48682,-66.6666666666667,4,2,0,15,0,0
48939,-333.333333333333,4,2,0,15,0,0
49024,-66.6666666666667,4,2,0,15,0,0
49282,-333.333333333333,4,2,0,15,0,0
49367,-66.6666666666667,4,2,0,15,0,0
49624,-333.333333333333,4,2,0,15,0,0
49710,-66.6666666666667,4,2,0,15,0,0
49967,-333.333333333333,4,2,0,15,0,0
50053,-100,4,2,0,15,0,0
64282,-66.6666666666667,4,2,0,15,0,0
64710,-100,4,2,0,15,0,0

[HitObjects]
448,192,7281,128,0,7624:0:0:0:0:
64,192,7281,1,0,0:0:0:0:
320,192,7624,128,0,7796:0:0:0:0:
64,192,7624,1,0,0:0:0:0:
448,192,7796,128,0,8139:0:0:0:0:
64,192,7967,1,0,0:0:0:0:
320,192,8139,128,0,8310:0:0:0:0:
448,192,8310,128,0,8481:0:0:0:0:
64,192,8310,1,0,0:0:0:0:
320,192,8481,128,0,8653:0:0:0:0:
64,192,8653,1,0,0:0:0:0:
448,192,8653,1,0,0:0:0:0:
64,192,8824,1,0,0:0:0:0:
320,192,8824,1,0,0:0:0:0:
192,192,8996,1,0,0:0:0:0:
448,192,8996,1,0,0:0:0:0:
320,192,9167,1,0,0:0:0:0:
448,192,9167,1,0,0:0:0:0:
64,192,9510,1,0,0:0:0:0:
448,192,9510,1,0,0:0:0:0:
64,192,9681,1,0,0:0:0:0:
448,192,9681,1,0,0:0:0:0:
64,192,10024,1,0,0:0:0:0:
448,192,10024,1,0,0:0:0:0:
192,192,10196,1,0,0:0:0:0:
320,192,10367,1,0,0:0:0:0:
192,192,10539,1,0,0:0:0:0:
64,192,10710,1,0,0:0:0:0:
448,192,10710,1,0,0:0:0:0:
320,192,10881,1,0,0:0:0:0:
192,192,11053,1,0,0:0:0:0:
320,192,11224,1,0,0:0:0:0:
64,192,11396,1,0,0:0:0:0:
448,192,11396,1,0,0:0:0:0:
192,192,11653,1,0,0:0:0:0:
448,192,11653,1,0,0:0:0:0:
64,192,11910,1,0,0:0:0:0:
320,192,11910,1,0,0:0:0:0:
448,192,12253,1,0,0:0:0:0:
192,192,12339,1,0,0:0:0:0:
320,192,12339,1,0,0:0:0:0:
64,192,12424,1,0,0:0:0:0:
64,192,12767,128,0,13110:0:0:0:0:
448,192,12767,1,0,0:0:0:0:
192,192,13110,128,0,13281:0:0:0:0:
448,192,13110,1,0,0:0:0:0:
64,192,13281,128,0,13624:0:0:0:0:
448,192,13453,1,0,0:0:0:0:
192,192,13624,128,0,13796:0:0:0:0:
64,192,13796,128,0,13967:0:0:0:0:
448,192,13796,1,0,0:0:0:0:
192,192,13967,128,0,14139:0:0:0:0:
64,192,14139,1,0,0:0:0:0:
448,192,14139,1,0,0:0:0:0:
320,192,14310,1,0,0:0:0:0:
448,192,14310,1,0,0:0:0:0:
64,192,14481,1,0,0:0:0:0:
320,192,14482,1,0,0:0:0:0:
192,192,14653,1,0,0:0:0:0:
64,192,14653,1,0,0:0:0:0:
192,192,14996,1,0,0:0:0:0:
320,192,14996,1,0,0:0:0:0:
192,192,15167,1,0,0:0:0:0:
320,192,15167,1,0,0:0:0:0:
64,192,15510,1,0,0:0:0:0:
448,192,15510,1,0,0:0:0:0:
192,192,15682,1,0,0:0:0:0:
64,192,15853,1,0,0:0:0:0:
192,192,16024,1,0,0:0:0:0:
64,192,16196,1,0,0:0:0:0:
448,192,16196,1,0,0:0:0:0:
320,192,16367,1,0,0:0:0:0:
448,192,16539,1,0,0:0:0:0:
320,192,16710,1,0,0:0:0:0:
64,192,16881,1,0,0:0:0:0:
448,192,16882,1,0,0:0:0:0:
320,192,17139,1,0,0:0:0:0:
448,192,17139,1,0,0:0:0:0:
64,192,17396,1,0,0:0:0:0:
192,192,17396,1,0,0:0:0:0:
64,192,17739,1,0,0:0:0:0:
320,192,17739,1,0,0:0:0:0:
192,192,17824,1,0,0:0:0:0:
448,192,17824,1,0,0:0:0:0:
64,192,17910,1,0,0:0:0:0:
320,192,17910,1,0,0:0:0:0:
192,192,17996,1,0,0:0:0:0:
448,192,18082,1,0,0:0:0:0:
192,192,18167,1,0,0:0:0:0:
448,192,18253,1,0,0:0:0:0:
64,192,18253,1,0,0:0:0:0:
192,192,18424,1,0,0:0:0:0:
64,192,18596,1,0,0:0:0:0:
320,192,18767,1,0,0:0:0:0:
64,192,18939,1,0,0:0:0:0:
448,192,19110,1,0,0:0:0:0:
64,192,19281,1,0,0:0:0:0:
320,192,19453,1,0,0:0:0:0:
64,192,19624,1,0,0:0:0:0:
192,192,19796,1,0,0:0:0:0:
64,192,19967,1,0,0:0:0:0:
320,192,20139,1,0,0:0:0:0:
64,192,20310,1,0,0:0:0:0:
448,192,20482,1,0,0:0:0:0:
64,192,20653,1,0,0:0:0:0:
320,192,20824,1,0,0:0:0:0:
448,192,20996,1,0,0:0:0:0:
320,192,21167,1,0,0:0:0:0:
448,192,21339,1,0,0:0:0:0:
192,192,21510,1,0,0:0:0:0:
448,192,21682,1,0,0:0:0:0:
64,192,21853,1,0,0:0:0:0:
448,192,22024,1,0,0:0:0:0:
192,192,22196,1,0,0:0:0:0:
448,192,22367,1,0,0:0:0:0:
320,192,22539,1,0,0:0:0:0:
448,192,22710,1,0,0:0:0:0:
192,192,22882,1,0,0:0:0:0:
64,192,23053,1,0,0:0:0:0:
448,192,23139,1,0,0:0:0:0:
192,192,23224,1,0,0:0:0:0:
320,192,23224,1,0,0:0:0:0:
448,192,23310,1,0,0:0:0:0:
64,192,23396,1,0,0:0:0:0:
320,192,23567,1,0,0:0:0:0:
448,192,23567,1,0,0:0:0:0:
192,192,23653,1,0,0:0:0:0:
448,192,23739,1,0,0:0:0:0:
64,192,23739,1,0,0:0:0:0:
192,192,23910,1,0,0:0:0:0:
64,192,24081,1,0,0:0:0:0:
320,192,24253,1,0,0:0:0:0:
64,192,24424,1,0,0:0:0:0:
448,192,24596,1,0,0:0:0:0:
64,192,24767,1,0,0:0:0:0:
320,192,24939,1,0,0:0:0:0:
64,192,25110,1,0,0:0:0:0:
192,192,25282,1,0,0:0:0:0:
64,192,25453,1,0,0:0:0:0:
320,192,25624,1,0,0:0:0:0:
64,192,25796,1,0,0:0:0:0:
448,192,25967,1,0,0:0:0:0:
64,192,26139,1,0,0:0:0:0:
320,192,26310,1,0,0:0:0:0:
448,192,26482,1,0,0:0:0:0:
320,192,26653,1,0,0:0:0:0:
448,192,26824,1,0,0:0:0:0:
192,192,26996,1,0,0:0:0:0:
448,192,27167,1,0,0:0:0:0:
64,192,27339,1,0,0:0:0:0:
448,192,27510,1,0,0:0:0:0:
192,192,27682,1,0,0:0:0:0:
64,192,27853,1,0,0:0:0:0:
192,192,27939,1,0,0:0:0:0:
448,192,28024,1,0,0:0:0:0:
320,192,28024,1,0,0:0:0:0:
192,192,28110,1,0,0:0:0:0:
64,192,28196,1,0,0:0:0:0:
320,192,28282,1,0,0:0:0:0:
192,192,28367,1,0,0:0:0:0:
448,192,28367,1,0,0:0:0:0:
320,192,28453,1,0,0:0:0:0:
448,192,28539,1,0,0:0:0:0:
64,192,28624,1,0,0:0:0:0:
192,192,28710,1,0,0:0:0:0:
320,192,28710,1,0,0:0:0:0:
448,192,28796,1,0,0:0:0:0:
64,192,28881,1,0,0:0:0:0:
192,192,28882,1,0,0:0:0:0:
64,192,29224,1,0,0:0:0:0:
448,192,29224,1,0,0:0:0:0:
192,192,29310,1,0,0:0:0:0:
320,192,29396,1,0,0:0:0:0:
192,192,29482,1,0,0:0:0:0:
448,192,29567,1,0,0:0:0:0:
192,192,29653,1,0,0:0:0:0:
64,192,29739,1,0,0:0:0:0:
192,192,29824,1,0,0:0:0:0:
448,192,29910,1,0,0:0:0:0:
320,192,29996,1,0,0:0:0:0:
64,192,30082,1,0,0:0:0:0:
320,192,30167,1,0,0:0:0:0:
192,192,30253,1,0,0:0:0:0:
448,192,30339,1,0,0:0:0:0:
64,192,30424,1,0,0:0:0:0:
192,192,30510,1,0,0:0:0:0:
448,192,30596,1,0,0:0:0:0:
192,192,30682,1,0,0:0:0:0:
320,192,30767,1,0,0:0:0:0:
64,192,30853,1,0,0:0:0:0:
448,192,30939,1,0,0:0:0:0:
64,192,31024,1,0,0:0:0:0:
320,192,31110,1,0,0:0:0:0:
192,192,31196,1,0,0:0:0:0:
448,192,31282,1,0,0:0:0:0:
64,192,31367,1,0,0:0:0:0:
192,192,31453,1,0,0:0:0:0:
320,192,31539,1,0,0:0:0:0:
448,192,31624,1,0,0:0:0:0:
192,192,31710,1,0,0:0:0:0:
64,192,31796,1,0,0:0:0:0:
320,192,31882,1,0,0:0:0:0:
64,192,31967,1,0,0:0:0:0:
192,192,32053,1,0,0:0:0:0:
448,192,32139,1,0,0:0:0:0:
320,192,32224,1,0,0:0:0:0:
192,192,32310,1,0,0:0:0:0:
320,192,32396,1,0,0:0:0:0:
448,192,32482,1,0,0:0:0:0:
320,192,32567,1,0,0:0:0:0:
64,192,32653,1,0,0:0:0:0:
192,192,32739,1,0,0:0:0:0:
64,192,32824,1,0,0:0:0:0:
448,192,32910,1,0,0:0:0:0:
320,192,32996,1,0,0:0:0:0:
64,192,33082,1,0,0:0:0:0:
192,192,33167,1,0,0:0:0:0:
448,192,33253,1,0,0:0:0:0:
320,192,33339,1,0,0:0:0:0:
64,192,33424,1,0,0:0:0:0:
320,192,33510,1,0,0:0:0:0:
448,192,33596,1,0,0:0:0:0:
192,192,33682,1,0,0:0:0:0:
64,192,33767,1,0,0:0:0:0:
320,192,33853,1,0,0:0:0:0:
448,192,33939,1,0,0:0:0:0:
64,192,34024,1,0,0:0:0:0:
192,192,34024,128,0,34281:0:0:0:0:
320,192,34024,1,0,0:0:0:0:
320,192,34367,128,0,34624:0:0:0:0:
448,192,34367,1,0,0:0:0:0:
64,192,34367,1,0,0:0:0:0:
64,192,34710,1,0,0:0:0:0:
192,192,34710,1,0,0:0:0:0:
320,192,34796,1,0,0:0:0:0:
192,192,34882,1,0,0:0:0:0:
448,192,34967,1,0,0:0:0:0:
64,192,35053,1,0,0:0:0:0:
192,192,35139,1,0,0:0:0:0:
64,192,35224,1,0,0:0:0:0:
448,192,35310,1,0,0:0:0:0:
320,192,35396,1,0,0:0:0:0:
192,192,35482,1,0,0:0:0:0:
320,192,35567,1,0,0:0:0:0:
64,192,35653,1,0,0:0:0:0:
448,192,35739,1,0,0:0:0:0:
192,192,35824,1,0,0:0:0:0:
64,192,35910,1,0,0:0:0:0:
320,192,35996,1,0,0:0:0:0:
192,192,36082,1,0,0:0:0:0:
448,192,36167,1,0,0:0:0:0:
64,192,36253,1,0,0:0:0:0:
192,192,36339,1,0,0:0:0:0:
320,192,36424,1,0,0:0:0:0:
448,192,36510,1,0,0:0:0:0:
320,192,36596,1,0,0:0:0:0:
64,192,36682,1,0,0:0:0:0:
192,192,36767,1,0,0:0:0:0:
448,192,36853,1,0,0:0:0:0:
64,192,36939,1,0,0:0:0:0:
448,192,37024,1,0,0:0:0:0:
320,192,37110,1,0,0:0:0:0:
192,192,37196,1,0,0:0:0:0:
64,192,37282,1,0,0:0:0:0:
192,192,37367,1,0,0:0:0:0:
448,192,37453,1,0,0:0:0:0:
192,192,37539,1,0,0:0:0:0:
320,192,37624,1,0,0:0:0:0:
192,192,37710,1,0,0:0:0:0:
448,192,37796,1,0,0:0:0:0:
64,192,37882,1,0,0:0:0:0:
320,192,37967,1,0,0:0:0:0:
192,192,38053,1,0,0:0:0:0:
448,192,38139,1,0,0:0:0:0:
192,192,38224,1,0,0:0:0:0:
448,192,38310,1,0,0:0:0:0:
64,192,38396,1,0,0:0:0:0:
192,192,38482,1,0,0:0:0:0:
448,192,38567,1,0,0:0:0:0:
320,192,38653,1,0,0:0:0:0:
64,192,38739,1,0,0:0:0:0:
448,192,38824,1,0,0:0:0:0:
320,192,38910,1,0,0:0:0:0:
192,192,38996,1,0,0:0:0:0:
64,192,39082,1,0,0:0:0:0:
448,192,39167,1,0,0:0:0:0:
320,192,39253,1,0,0:0:0:0:
192,192,39339,1,0,0:0:0:0:
64,192,39424,1,0,0:0:0:0:
192,192,39510,128,0,39767:0:0:0:0:
320,192,39510,128,0,39767:0:0:0:0:
320,192,39853,128,0,40196:0:0:0:0:
192,192,39853,128,0,40196:0:0:0:0:
64,192,40196,1,0,0:0:0:0:
448,192,40196,128,0,40539:0:0:0:0:
320,192,40539,128,0,40710:0:0:0:0:
64,192,40539,1,0,0:0:0:0:
448,192,40710,128,0,41053:0:0:0:0:
64,192,40881,1,0,0:0:0:0:
320,192,41053,128,0,41224:0:0:0:0:
448,192,41224,128,0,41396:0:0:0:0:
64,192,41224,1,0,0:0:0:0:
320,192,41396,128,0,41567:0:0:0:0:
64,192,41567,1,0,0:0:0:0:
448,192,41567,1,0,0:0:0:0:
64,192,41739,1,0,0:0:0:0:
192,192,41739,1,0,0:0:0:0:
448,192,41910,1,0,0:0:0:0:
320,192,41910,1,0,0:0:0:0:
448,192,42082,1,0,0:0:0:0:
192,192,42082,1,0,0:0:0:0:
192,192,42424,1,0,0:0:0:0:
448,192,42424,1,0,0:0:0:0:
448,192,42596,1,0,0:0:0:0:
192,192,42596,1,0,0:0:0:0:
64,192,42939,1,0,0:0:0:0:
192,192,42939,1,0,0:0:0:0:
320,192,43110,1,0,0:0:0:0:
448,192,43282,1,0,0:0:0:0:
320,192,43453,1,0,0:0:0:0:
448,192,43624,1,0,0:0:0:0:
320,192,43624,1,0,0:0:0:0:
64,192,43796,1,0,0:0:0:0:
192,192,43967,1,0,0:0:0:0:
64,192,44139,1,0,0:0:0:0:
64,192,44310,1,0,0:0:0:0:
192,192,44310,1,0,0:0:0:0:
448,192,44567,1,0,0:0:0:0:
320,192,44567,1,0,0:0:0:0:
64,192,44824,1,0,0:0:0:0:
448,192,44824,1,0,0:0:0:0:
320,192,45167,1,0,0:0:0:0:
192,192,45167,1,0,0:0:0:0:
64,192,45253,1,0,0:0:0:0:
448,192,45253,1,0,0:0:0:0:
192,192,45339,1,0,0:0:0:0:
320,192,45339,1,0,0:0:0:0:
192,192,45853,1,0,0:0:0:0:
64,192,45853,1,0,0:0:0:0:
192,192,46196,1,0,0:0:0:0:
320,192,46196,1,0,0:0:0:0:
320,192,46539,1,0,0:0:0:0:
448,192,46539,1,0,0:0:0:0:
192,192,46881,1,0,0:0:0:0:
320,192,46881,1,0,0:0:0:0:
320,192,47224,1,0,0:0:0:0:
64,192,47224,1,0,0:0:0:0:
192,192,47567,1,0,0:0:0:0:
448,192,47567,1,0,0:0:0:0:
320,192,47910,1,0,0:0:0:0:
64,192,47910,1,0,0:0:0:0:
192,192,48253,1,0,0:0:0:0:
448,192,48253,1,0,0:0:0:0:
320,192,48596,1,0,0:0:0:0:
192,192,48596,1,0,0:0:0:0:
320,192,48939,1,0,0:0:0:0:
64,192,48939,1,0,0:0:0:0:
320,192,49281,1,0,0:0:0:0:
192,192,49281,1,0,0:0:0:0:
192,192,49624,1,0,0:0:0:0:
448,192,49624,1,0,0:0:0:0:
64,192,49967,1,0,0:0:0:0:
448,192,49967,1,0,0:0:0:0:
448,192,50310,1,0,0:0:0:0:
320,192,50310,1,0,0:0:0:0:
192,192,50310,1,0,0:0:0:0:
64,192,50310,1,0,0:0:0:0:
192,192,50653,1,0,0:0:0:0:
64,192,50824,1,0,0:0:0:0:
448,192,50824,1,0,0:0:0:0:
320,192,50910,1,0,0:0:0:0:
192,192,50996,1,0,0:0:0:0:
64,192,50996,1,0,0:0:0:0:
320,192,51082,1,0,0:0:0:0:
448,192,51167,1,0,0:0:0:0:
64,192,51167,1,0,0:0:0:0:
320,192,51339,1,0,0:0:0:0:
64,192,51510,1,0,0:0:0:0:
320,192,51682,1,0,0:0:0:0:
64,192,51853,1,0,0:0:0:0:
448,192,51853,1,0,0:0:0:0:
320,192,52024,1,0,0:0:0:0:
64,192,52196,1,0,0:0:0:0:
320,192,52367,1,0,0:0:0:0:
64,192,52539,1,0,0:0:0:0:
448,192,52539,1,0,0:0:0:0:
192,192,52710,1,0,0:0:0:0:
448,192,52882,1,0,0:0:0:0:
192,192,53053,1,0,0:0:0:0:
64,192,53224,1,0,0:0:0:0:
448,192,53224,1,0,0:0:0:0:
192,192,53396,1,0,0:0:0:0:
448,192,53567,1,0,0:0:0:0:
192,192,53739,1,0,0:0:0:0:
64,192,53910,1,0,0:0:0:0:
448,192,53910,1,0,0:0:0:0:
320,192,54082,1,0,0:0:0:0:
64,192,54253,1,0,0:0:0:0:
320,192,54424,1,0,0:0:0:0:
64,192,54596,1,0,0:0:0:0:
448,192,54596,1,0,0:0:0:0:
320,192,54767,1,0,0:0:0:0:
64,192,54939,1,0,0:0:0:0:
320,192,55110,1,0,0:0:0:0:
64,192,55281,1,0,0:0:0:0:
448,192,55282,1,0,0:0:0:0:
192,192,55453,1,0,0:0:0:0:
448,192,55624,1,0,0:0:0:0:
192,192,55796,1,0,0:0:0:0:
64,192,55967,1,0,0:0:0:0:
192,192,56053,1,0,0:0:0:0:
64,192,56139,1,0,0:0:0:0:
320,192,56224,1,0,0:0:0:0:
448,192,56310,1,0,0:0:0:0:
448,192,56482,1,0,0:0:0:0:
320,192,56567,1,0,0:0:0:0:
448,192,56653,1,0,0:0:0:0:
64,192,56653,1,0,0:0:0:0:
320,192,56824,1,0,0:0:0:0:
64,192,56996,1,0,0:0:0:0:
320,192,57167,1,0,0:0:0:0:
64,192,57339,1,0,0:0:0:0:
448,192,57339,1,0,0:0:0:0:
320,192,57510,1,0,0:0:0:0:
64,192,57681,1,0,0:0:0:0:
320,192,57853,1,0,0:0:0:0:
64,192,58024,1,0,0:0:0:0:
448,192,58024,1,0,0:0:0:0:
192,192,58196,1,0,0:0:0:0:
448,192,58367,1,0,0:0:0:0:
192,192,58539,1,0,0:0:0:0:
64,192,58710,1,0,0:0:0:0:
448,192,58710,1,0,0:0:0:0:
192,192,58882,1,0,0:0:0:0:
448,192,59053,1,0,0:0:0:0:
192,192,59224,1,0,0:0:0:0:
64,192,59396,128,0,59739:0:0:0:0:
192,192,59396,1,0,0:0:0:0:
448,192,59739,128,0,60081:0:0:0:0:
320,192,59739,1,0,0:0:0:0:
64,192,60081,128,0,60424:0:0:0:0:
192,192,60082,1,0,0:0:0:0:
448,192,60424,128,0,60767:0:0:0:0:
320,192,60424,1,0,0:0:0:0:
192,192,60767,128,0,61110:0:0:0:0:
64,192,60767,1,0,0:0:0:0:
320,192,61110,128,0,61453:0:0:0:0:
448,192,61110,1,0,0:0:0:0:
192,192,61453,128,0,61796:0:0:0:0:
64,192,61453,1,0,0:0:0:0:
320,192,61796,128,0,62139:0:0:0:0:
448,192,61796,1,0,0:0:0:0:
64,192,62139,1,0,0:0:0:0:
192,192,62139,1,0,0:0:0:0:
192,192,62310,1,0,0:0:0:0:
64,192,62310,1,0,0:0:0:0:
448,192,62653,1,0,0:0:0:0:
320,192,62653,1,0,0:0:0:0:
320,192,62824,1,0,0:0:0:0:
448,192,62824,1,0,0:0:0:0:
64,192,63167,1,0,0:0:0:0:
192,192,63167,1,0,0:0:0:0:
192,192,63339,1,0,0:0:0:0:
64,192,63339,1,0,0:0:0:0:
192,192,63510,1,0,0:0:0:0:
320,192,63510,1,0,0:0:0:0:
320,192,63681,1,0,0:0:0:0:
448,192,63681,1,0,0:0:0:0:
448,192,63853,1,0,0:0:0:0:
320,192,63853,1,0,0:0:0:0:
64,192,64196,128,0,64882:0:0:0:0:
448,192,64196,128,0,64882:0:0:0:0:
192,192,64196,1,0,0:0:0:0:
320,192,64196,1,0,0:0:0:0:
192,192,64882,1,0,0:0:0:0:
320,192,64882,1,0,0:0:0:0:
448,192,65053,1,0,0:0:0:0:
64,192,65224,1,0,0:0:0:0:
192,192,65224,1,0,0:0:0:0:
320,192,65396,1,0,0:0:0:0:
64,192,65567,1,0,0:0:0:0:
448,192,65567,1,0,0:0:0:0:
192,192,65739,1,0,0:0:0:0:
64,192,65910,1,0,0:0:0:0:
320,192,65910,1,0,0:0:0:0:
192,192,66082,1,0,0:0:0:0:
320,192,66253,1,0,0:0:0:0:
448,192,66253,1,0,0:0:0:0:
64,192,66424,1,0,0:0:0:0:
192,192,66596,1,0,0:0:0:0:
448,192,66596,1,0,0:0:0:0:
320,192,66767,1,0,0:0:0:0:
64,192,66939,1,0,0:0:0:0:
448,192,66939,1,0,0:0:0:0:
192,192,67110,1,0,0:0:0:0:
64,192,67282,1,0,0:0:0:0:
320,192,67282,1,0,0:0:0:0:
192,192,67453,1,0,0:0:0:0:
320,192,67624,1,0,0:0:0:0:
448,192,67624,1,0,0:0:0:0:
64,192,67796,1,0,0:0:0:0:
192,192,67967,1,0,0:0:0:0:
448,192,67967,1,0,0:0:0:0:
64,192,68139,1,0,0:0:0:0:
192,192,68310,1,0,0:0:0:0:
320,192,68310,1,0,0:0:0:0:
448,192,68482,1,0,0:0:0:0:
64,192,68653,1,0,0:0:0:0:
320,192,68653,1,0,0:0:0:0:
192,192,68824,1,0,0:0:0:0:
320,192,68996,1,0,0:0:0:0:
448,192,68996,1,0,0:0:0:0:
192,192,69167,1,0,0:0:0:0:
64,192,69339,1,0,0:0:0:0:
448,192,69339,1,0,0:0:0:0:
320,192,69510,1,0,0:0:0:0:
64,192,69682,1,0,0:0:0:0:
192,192,69682,1,0,0:0:0:0:
448,192,69767,1,0,0:0:0:0:
64,192,69853,1,0,0:0:0:0:
448,192,69939,1,0,0:0:0:0:
64,192,70024,1,0,0:0:0:0:
192,192,70024,1,0,0:0:0:0:
192,192,70196,1,0,0:0:0:0:
320,192,70282,1,0,0:0:0:0:
192,192,70367,1,0,0:0:0:0:
448,192,70367,1,0,0:0:0:0:
320,192,70453,1,0,0:0:0:0:
192,192,70539,1,0,0:0:0:0:
320,192,70624,1,0,0:0:0:0:
64,192,70710,1,0,0:0:0:0:
320,192,70796,1,0,0:0:0:0:
192,192,70882,1,0,0:0:0:0:
448,192,70967,1,0,0:0:0:0:
64,192,71053,1,0,0:0:0:0:
192,192,71139,1,0,0:0:0:0:
320,192,71224,1,0,0:0:0:0:
448,192,71310,1,0,0:0:0:0:
192,192,71396,1,0,0:0:0:0:
320,192,71482,1,0,0:0:0:0:
448,192,71567,1,0,0:0:0:0:
64,192,71653,1,0,0:0:0:0:
320,192,71739,1,0,0:0:0:0:
448,192,71824,1,0,0:0:0:0:
192,192,71910,1,0,0:0:0:0:
64,192,71996,1,0,0:0:0:0:
192,192,72082,1,0,0:0:0:0:
448,192,72167,1,0,0:0:0:0:
64,192,72253,1,0,0:0:0:0:
192,192,72339,1,0,0:0:0:0:
448,192,72424,1,0,0:0:0:0:
320,192,72510,1,0,0:0:0:0:
448,192,72596,1,0,0:0:0:0:
192,192,72682,1,0,0:0:0:0:
64,192,72767,1,0,0:0:0:0:
448,192,72853,1,0,0:0:0:0:
192,192,72939,1,0,0:0:0:0:
320,192,73024,1,0,0:0:0:0:
64,192,73110,128,0,73282:0:0:0:0:
192,192,73282,128,0,73453:0:0:0:0:
320,192,73453,128,0,73624:0:0:0:0:
448,192,73624,128,0,73796:0:0:0:0:
64,192,73796,128,0,73967:0:0:0:0:
192,192,73967,128,0,74139:0:0:0:0:
320,192,74139,128,0,74310:0:0:0:0:
448,192,74310,128,0,74482:0:0:0:0:
192,192,74482,1,0,0:0:0:0:
320,192,74482,1,0,0:0:0:0:
192,192,74653,1,0,0:0:0:0:
64,192,74653,1,0,0:0:0:0:
320,192,74996,1,0,0:0:0:0:
192,192,74996,1,0,0:0:0:0:
320,192,75167,1,0,0:0:0:0:
448,192,75167,1,0,0:0:0:0:
64,192,75253,1,0,0:0:0:0:
192,192,75339,1,0,0:0:0:0:
320,192,75424,1,0,0:0:0:0:
64,192,75510,1,0,0:0:0:0:
448,192,75510,128,0,75853:0:0:0:0:
192,192,75853,1,0,0:0:0:0:
320,192,75853,1,0,0:0:0:0:
64,192,76024,1,0,0:0:0:0:
192,192,76196,1,0,0:0:0:0:
448,192,76196,1,0,0:0:0:0:
64,192,76367,1,0,0:0:0:0:
320,192,76539,1,0,0:0:0:0:
448,192,76539,1,0,0:0:0:0:
192,192,76710,1,0,0:0:0:0:
64,192,76882,1,0,0:0:0:0:
320,192,76882,1,0,0:0:0:0:
448,192,77053,1,0,0:0:0:0:
192,192,77224,1,0,0:0:0:0:
320,192,77224,1,0,0:0:0:0:
64,192,77396,1,0,0:0:0:0:
192,192,77567,1,0,0:0:0:0:
448,192,77567,1,0,0:0:0:0:
320,192,77739,1,0,0:0:0:0:
64,192,77910,1,0,0:0:0:0:
192,192,77910,1,0,0:0:0:0:
448,192,78082,1,0,0:0:0:0:
64,192,78253,1,0,0:0:0:0:
320,192,78253,1,0,0:0:0:0:
448,192,78424,1,0,0:0:0:0:
192,192,78596,1,0,0:0:0:0:
320,192,78596,1,0,0:0:0:0:
64,192,78767,1,0,0:0:0:0:
192,192,78939,1,0,0:0:0:0:
448,192,78939,1,0,0:0:0:0:
320,192,79110,1,0,0:0:0:0:
64,192,79282,1,0,0:0:0:0:
448,192,79282,1,0,0:0:0:0:
192,192,79453,1,0,0:0:0:0:
64,192,79624,1,0,0:0:0:0:
320,192,79624,1,0,0:0:0:0:
192,192,79796,1,0,0:0:0:0:
64,192,79967,1,0,0:0:0:0:
448,192,79967,1,0,0:0:0:0:
320,192,80139,1,0,0:0:0:0:
192,192,80310,1,0,0:0:0:0:
448,192,80310,1,0,0:0:0:0:
64,192,80482,1,0,0:0:0:0:
448,192,80653,1,0,0:0:0:0:
320,192,80653,1,0,0:0:0:0:
64,192,80739,1,0,0:0:0:0:
192,192,80739,1,0,0:0:0:0:
448,192,80910,1,0,0:0:0:0:
320,192,80910,1,0,0:0:0:0:
64,192,80996,1,0,0:0:0:0:
192,192,80996,1,0,0:0:0:0:
192,192,81167,1,0,0:0:0:0:
320,192,81253,1,0,0:0:0:0:
192,192,81339,1,0,0:0:0:0:
448,192,81339,1,0,0:0:0:0:
320,192,81424,1,0,0:0:0:0:
192,192,81510,1,0,0:0:0:0:
448,192,81596,1,0,0:0:0:0:
64,192,81682,1,0,0:0:0:0:
192,192,81767,1,0,0:0:0:0:
64,192,81853,1,0,0:0:0:0:
320,192,81939,1,0,0:0:0:0:
448,192,82024,1,0,0:0:0:0:
192,192,82110,1,0,0:0:0:0:
320,192,82196,1,0,0:0:0:0:
64,192,82282,1,0,0:0:0:0:
192,192,82367,1,0,0:0:0:0:
448,192,82453,1,0,0:0:0:0:
320,192,82539,1,0,0:0:0:0:
192,192,82624,1,0,0:0:0:0:
448,192,82710,1,0,0:0:0:0:
64,192,82796,1,0,0:0:0:0:
320,192,82882,1,0,0:0:0:0:
448,192,82967,1,0,0:0:0:0:
64,192,83053,1,0,0:0:0:0:
320,192,83139,1,0,0:0:0:0:
192,192,83224,1,0,0:0:0:0:
64,192,83310,1,0,0:0:0:0:
320,192,83396,1,0,0:0:0:0:
192,192,83482,1,0,0:0:0:0:
448,192,83567,1,0,0:0:0:0:
320,192,83653,1,0,0:0:0:0:
192,192,83739,1,0,0:0:0:0:
448,192,83824,1,0,0:0:0:0:
64,192,83910,1,0,0:0:0:0:
192,192,83996,1,0,0:0:0:0:
448,192,84082,128,0,84253:0:0:0:0:
320,192,84253,128,0,84424:0:0:0:0:
192,192,84424,128,0,84596:0:0:0:0:
64,192,84596,128,0,84767:0:0:0:0:
448,192,84767,128,0,84939:0:0:0:0:
320,192,84939,128,0,85110:0:0:0:0:
192,192,85110,128,0,85282:0:0:0:0:
64,192,85282,128,0,85453:0:0:0:0:
320,192,85453,1,0,0:0:0:0:
192,192,85453,1,0,0:0:0:0:
320,192,85624,1,0,0:0:0:0:
448,192,85624,1,0,0:0:0:0:
192,192,85967,1,0,0:0:0:0:
320,192,85967,1,0,0:0:0:0:
192,192,86139,1,0,0:0:0:0:
64,192,86139,1,0,0:0:0:0:
448,192,86224,1,0,0:0:0:0:
320,192,86310,1,0,0:0:0:0:
192,192,86396,1,0,0:0:0:0:
448,192,86482,1,0,0:0:0:0:
64,192,86482,128,0,86824:0:0:0:0:
320,192,86824,1,0,0:0:0:0:
448,192,86824,1,0,0:0:0:0:
192,192,86824,128,0,87167:0:0:0:0:
320,192,87167,128,0,87339:0:0:0:0:
64,192,87167,1,0,0:0:0:0:
192,192,87510,128,0,87682:0:0:0:0:
448,192,87510,1,0,0:0:0:0:
320,192,87682,128,0,88024:0:0:0:0:
64,192,87682,1,0,0:0:0:0:
192,192,88024,128,0,88367:0:0:0:0:
448,192,88024,1,0,0:0:0:0:
320,192,88367,128,0,88539:0:0:0:0:
64,192,88367,1,0,0:0:0:0:
192,192,88539,128,0,88710:0:0:0:0:
448,192,88539,1,0,0:0:0:0:
320,192,88710,128,0,89224:0:0:0:0:
64,192,88710,1,0,0:0:0:0:
64,192,89567,128,0,89910:0:0:0:0:
320,192,89567,1,0,0:0:0:0:
448,192,89910,128,0,90082:0:0:0:0:
192,192,89910,1,0,0:0:0:0:
64,192,90253,128,0,90424:0:0:0:0:
320,192,90253,1,0,0:0:0:0:
448,192,90424,128,0,90767:0:0:0:0:
192,192,90424,1,0,0:0:0:0:
64,192,90767,128,0,91110:0:0:0:0:
320,192,90767,1,0,0:0:0:0:
448,192,91110,128,0,91282:0:0:0:0:
192,192,91110,1,0,0:0:0:0:
64,192,91282,128,0,91453:0:0:0:0:
320,192,91282,1,0,0:0:0:0:
448,192,91453,128,0,91624:0:0:0:0:
192,192,91453,1,0,0:0:0:0:
320,192,91624,1,0,0:0:0:0:
192,192,91710,1,0,0:0:0:0:
64,192,91796,1,0,0:0:0:0:
448,192,91882,1,0,0:0:0:0:
192,192,91967,1,0,0:0:0:0:
448,192,92139,1,0,0:0:0:0:
192,192,92224,1,0,0:0:0:0:
320,192,92310,128,0,92653:0:0:0:0:
64,192,92310,1,0,0:0:0:0:
192,192,92653,128,0,92824:0:0:0:0:
448,192,92653,1,0,0:0:0:0:
320,192,92996,128,0,93167:0:0:0:0:
64,192,92996,1,0,0:0:0:0:
192,192,93167,128,0,93510:0:0:0:0:
448,192,93167,1,0,0:0:0:0:
320,192,93510,128,0,93853:0:0:0:0:
64,192,93510,1,0,0:0:0:0:
192,192,93853,128,0,94024:0:0:0:0:
448,192,93853,1,0,0:0:0:0:
320,192,94024,128,0,94196:0:0:0:0:
64,192,94024,1,0,0:0:0:0:
192,192,94196,128,0,94710:0:0:0:0:
448,192,94196,1,0,0:0:0:0:
448,192,95053,128,0,95396:0:0:0:0:
192,192,95053,1,0,0:0:0:0:
64,192,95396,128,0,95567:0:0:0:0:
320,192,95396,1,0,0:0:0:0:
448,192,95739,128,0,95910:0:0:0:0:
192,192,95739,1,0,0:0:0:0:
64,192,95910,128,0,96253:0:0:0:0:
320,192,95910,1,0,0:0:0:0:
448,192,96253,128,0,96596:0:0:0:0:
192,192,96253,1,0,0:0:0:0:
64,192,96596,128,0,96767:0:0:0:0:
320,192,96596,1,0,0:0:0:0:
448,192,96767,128,0,96939:0:0:0:0:
192,192,96767,1,0,0:0:0:0:
192,192,96939,128,0,97453:0:0:0:0:
320,192,96939,128,0,97453:0:0:0:0:
448,192,97796,5,0,0:0:0:0:
192,192,97796,1,0,0:0:0:0:
64,192,97796,1,0,0:0:0:0:
320,192,97796,1,0,0:0:0:0:
