osu file format v9

[General]
AudioFilename: trick and treat.mp3
AudioLeadIn: 0
PreviewTime: 170546
Countdown: 0
SampleSet: Soft
StackLeniency: 0.7
Mode: 0
LetterboxInBreaks: 0

[Editor]
DistanceSpacing: 1
BeatDivisor: 4
GridSize: 4

[Metadata]
Title:Trick and Treat
Artist:kaeru x chiying
Creator:wmfchris
Version:Normal
Source:Vocaloid
Tags:OSTER project vocaloid2 saturio kagamine rin len

[Difficulty]
HPDrainRate:4
CircleSize:3
OverallDifficulty:3
ApproachRate:4
SliderMultiplier:1
SliderTickRate:1

[Events]
//Background and Video events
0,0,"bg.jpg"
//Break Periods
2,73191,77893
2,99857,104559
2,156302,161448
//Storyboard Layer 0 (Background)
Sprite,Background,Centre,"bg.jpg",320,240 F,0,102,1880,1,0 S,0,102,1880,0.625 F,0,199213,199435,0,1 F,0,199435,218546,1
//Storyboard Layer 1 (Fail)
//Storyboard Layer 2 (Pass)
//Storyboard Layer 3 (Foreground)
Sprite,Foreground,Centre,"SB\lace1.png",320,240 M,0,1880,192102,320,251 C,0,58768,58769,255,255,255,255,0,0 C,0,72991,72992,255,0,0,255,255,255 R,0,87213,99657,0,1.57 R,0,106768,112991,1.57,3.14 C,0,113213,113214,255,255,255,255,0,0 C,0,113435,113436,255,0,0,255,255,255 S,0,158324,158325,1,1.1 C,0,163657,163658,255,255,255,255,0,0 R,0,170768,192102,3.14,6.28
Sprite,Foreground,Centre,"SB\trick.png",320,240 S,0,5435,,1.6 M,0,5435,8546,200,160
Sprite,Foreground,Centre,"SB\or.png",320,240 S,0,5879,,1.4 M,0,5879,7657,320,240
Sprite,Foreground,Centre,"SB\treat.png",320,240 S,0,6324,,1.6 M,0,6324,8546,440,320
Sprite,Foreground,Centre,"SB\and.png",320,240 S,0,7213,,1.4 C,0,7213,7214,255,255,255,192,0,0 M,0,7213,8546,320,240
Sprite,Foreground,Centre,"SB\vocal.png",320,240 S,0,8991,,1.4 M,0,8991,12102,200,140
Sprite,Foreground,Centre,"SB\kaeru.png",320,240 S,0,9435,,1.2 M,0,9435,12102,250,200
Sprite,Foreground,Centre,"SB\x.png",320,240 C,0,9879,9880,255,255,255,192,0,0 M,0,9879,12102,320,240
Sprite,Foreground,Centre,"SB\chiying.png",320,240 S,0,10324,,1.2 M,0,10324,12102,390,280
Sprite,Foreground,Centre,"SB\beatmap.png",320,240 S,0,12546,,1.4 M,0,12546,15657,200,140 C,0,15435,15436,255,255,255,192,0,0
Sprite,Foreground,Centre,"SB\wmf.png",320,240 M,0,12991,15657,240,200 C,0,15435,15436,255,255,255,192,0,0
Sprite,Foreground,Centre,"SB\saturio.png",320,240 M,0,13102,15657,360,199 C,0,15435,15436,255,255,255,192,0,0
Sprite,Foreground,Centre,"SB\SB.png",320,240 S,0,14324,,1.4 M,0,14324,15657,156,260 C,0,15435,15436,255,255,255,192,0,0
Sprite,Foreground,Centre,"SB\fay.png",320,240 M,0,14768,15657,260,320 C,0,15435,15436,255,255,255,192,0,0
Sprite,Foreground,Centre,"SB\lrc\a-2.png",320,240 M,0,23435,28768,420,440
Sprite,Foreground,Centre,"SB\lrc\a-1.png",320,240 M,0,16324,21657,450,440
Sprite,Foreground,Centre,"SB\lrc\a-3.png",320,240 M,0,30546,35879,440,440
Sprite,Foreground,Centre,"SB\lrc\a-4.png",320,240 M,0,37657,40879,470,440
Sprite,Foreground,Centre,"SB\lrc\a-5.png",320,240 C,0,40991,,255,255,255,255,0,0 M,0,40991,44324,500,440
Sprite,Foreground,Centre,"SB\lrc\b-1.png",320,240 M,0,44435,47879,440,440
Sprite,Foreground,Centre,"SB\lrc\b-2.png",320,240 M,0,48102,51435,440,440
Sprite,Foreground,Centre,"SB\lrc\b-3.png",320,240 M,0,51657,54879,455,440
Sprite,Foreground,Centre,"SB\lrc\b-4.png",320,240 M,0,54991,58546,455,440
Sprite,Foreground,Centre,"SB\lrc\kiai-1.png",320,240 C,0,58768,,255,0,0 M,0,58768,62102,450,440
Sprite,Foreground,Centre,"SB\lrc\kiai-2.png",320,240 C,0,62324,,255,0,0 M,0,62324,65657,450,440
Sprite,Foreground,Centre,"SB\lrc\kiai-3.png",320,240 C,0,65879,,255,0,0 M,0,65879,69213,440,440
Sprite,Foreground,Centre,"SB\lrc\kiai-4.png",320,240 C,0,69435,,255,0,0 M,0,69435,71102,500,440
Sprite,Foreground,Centre,"SB\lrc\kiai-5.png",320,240 C,0,71213,,255,0,0 M,0,71213,72991,510,440
Sprite,Foreground,Centre,"SB\lrc\C-1.png",320,240 M,0,114102,119435,430,440
Sprite,Foreground,Centre,"SB\lrc\c-2.png",320,240 M,0,121213,126546,440,440
Sprite,Foreground,Centre,"SB\lrc\c-3.png",320,240 M,0,128324,133657,430,440
Sprite,Foreground,Centre,"SB\lrc\c-4.png",320,240 M,0,135435,138879,485,440
Sprite,Foreground,Centre,"SB\lrc\c-5.png",320,240 C,0,138991,,255,0,0 M,0,138991,141991,500,440
Sprite,Foreground,Centre,"SB\lrc\d-1.png",320,240 M,0,142102,145768,415,440
Sprite,Foreground,Centre,"SB\lrc\d-2.png",320,240 M,0,145879,149324,430,440
Sprite,Foreground,Centre,"SB\lrc\d-3.png",320,240 M,0,149435,152657,440,440
Sprite,Foreground,Centre,"SB\lrc\kiai-4.png",320,240 M,0,152768,154435,500,440
Sprite,Foreground,Centre,"SB\lrc\kiai-5.png",320,240 M,0,154546,156324,515,440
Sprite,Foreground,Centre,"SB\lrc\nee.png",320,240 M,0,158324,162768,320,240 F,0,161657,161713,1,0.6 F,0,161713,161768,0.6,1 F,0,161768,162991,1 C,0,162657,162658,255,255,255,192,0,0
Sprite,Foreground,Centre,"SB\lrc\kiai2-1.png",320,240 C,0,163657,,255,0,0 M,0,163657,167102,420,440
Sprite,Foreground,Centre,"SB\lrc\kiai2-2.png",320,240 C,0,167213,,255,0,0 M,0,167213,170657,440,440
Sprite,Foreground,Centre,"SB\lrc\kiai2-3.png",320,240 C,0,170768,,255,0,0 M,0,170768,174213,440,440
Sprite,Foreground,Centre,"SB\lrc\kiai2-4.png",320,240 C,0,174324,,255,0,0 M,0,174324,177768,440,440
Sprite,Foreground,Centre,"SB\lrc\kiai3-1.png",320,240 C,0,177879,,255,0,0 M,0,177879,181324,415,440
Sprite,Foreground,Centre,"SB\lrc\kiai3-2.png",320,240 C,0,181435,,255,0,0 M,0,181435,184879,450,440
Sprite,Foreground,Centre,"SB\lrc\kiai3-3.png",320,240 C,0,184991,,255,0,0 M,0,184991,188435,430,440
Sprite,Foreground,Centre,"SB\lrc\kiai3-4.png",320,240 C,0,188546,,255,0,0 M,0,188546,191324,435,440
Sprite,Foreground,Centre,"SB\lrc\kiai3-5.png",320,240 C,0,191435,,255,0,0 M,0,191435,192102,525,440
Sprite,Foreground,Centre,"SB\trick.png",320,240 S,0,192102,,1.6 M,0,192102,195657,240,180
Sprite,Foreground,Centre,"SB\treat.png",320,240 S,0,192102,,1.6 M,0,192102,195657,400,300
Sprite,Foreground,Centre,"SB\and.png",320,240 S,0,192102,,1.4 C,0,192102,,192,0,0 M,0,192102,195657,320,240
//Storyboard Sound Samples
//Background Colour Transformations
3,100,163,162,255

[TimingPoints]
1880,444.444444444444,4,2,1,50,1,0
40991,-100,4,2,1,60,0,0
41879,-100,4,2,1,75,0,0
44546,-100,4,2,1,60,0,0
50768,-100,4,2,1,75,0,0
51657,-100,4,2,1,60,0,0
58768,-100,4,2,1,60,0,1
72991,-100,4,2,1,50,0,0
138768,-100,4,2,1,60,0,0
139657,-100,4,2,1,75,0,0
140546,-100,4,2,1,60,0,0
142324,-100,4,2,1,60,0,1
148546,-100,4,2,1,75,0,1
149435,-100,4,2,1,50,0,1
154768,-100,4,2,1,65,0,1
155657,-100,4,2,1,80,0,1
156546,-100,4,2,1,10,0,0
162768,-100,4,2,1,40,0,0
163657,-100,4,2,1,60,0,1
190324,-133.333333333333,4,2,1,60,0,1
192102,-100,4,2,1,60,0,0

[Colours]
Combo1 : 38,10,201
Combo2 : 252,219,86
Combo3 : 215,147,96
Combo4 : 31,140,250

[HitObjects]
280,240,16102,5,4
88,280,16991,1,0
52,84,17879,2,0,B|100:40|192:140|260:72,1,200,2|0
328,28,19213,2,0,B|360:84|328:144,1,100,0|2
428,88,20102,6,0,B|428:160|396:192,1,100,0|2
328,248,20991,2,0,B|304:304,2,50,0|0|4
292,156,21879,1,2
232,76,22324,1,0
172,156,22768,1,2
172,156,23213,6,0,B|304:132|384:152,1,200,4|0
508,292,24991,2,0,B|376:316|296:296,1,200,2|0
212,276,26324,2,0,B|144:276,2,50,0|0|2
180,180,27213,6,0,B|248:180,2,50,0|0|2
144,88,28102,1,0
144,88,28546,2,0,B|260:88,1,100,4|2
340,60,29435,2,0,B|420:24|476:104,1,150,0|2
440,136,30324,6,0,B|464:224|428:304,1,150,4|2
392,256,31213,2,0,B|348:324|256:332,1,150,0|0
267,330,32102,1,2
168,316,32546,1,0
92,252,32991,2,0,B|32:284,4,50,2|0|0|0|2
64,156,34324,6,0,B|128:124,1,50
152,108,34768,1,2
220,184,35213,2,0,B|284:152,1,50
308,140,35657,1,4
316,40,36102,6,0,B|376:72|376:136,1,100,2|0
472,140,36991,2,0,B|496:200|464:252,1,100,2|4
372,236,37879,6,0,B|376:304|324:340,2,100,0|2|0
272,248,39213,2,0,B|260:184,2,50,0|0|2
172,268,40102,2,0,B|184:336,2,50,0|4|0
96,204,40991,6,0,B|44:240,2,50,2|0|2
64,108,41879,1,4
156,64,42324,2,0,B|208:36|272:56,1,100,6|4
232,148,43213,2,0,B|292:172|348:140,1,100,2|0
440,188,44102,2,0,B|512:188,2,50,2|0|4
348,232,44991,6,0,B|348:352,1,100,8|0
256,296,45879,2,0,B|256:184,1,100,8|0
240,96,46768,1,8
144,64,47213,2,0,B|120:4,2,50,0|0|8
88,148,48102,6,0,B|40:268|172:300,1,200,2|0
264,292,49435,2,0,B|264:352,2,50,8|0|0
320,208,50324,1,8
420,208,50768,2,0,B|484:208,2,50
396,112,51657,5,4
320,48,52102,1,8
220,48,52546,2,0,B|128:48|64:92,1,150,0|2
28,100,53435,1,0
36,200,53879,1,8
124,248,54324,2,0,B|172:264|236:244,1,100,0|8
224,348,55213,6,0,B|296:348|332:320,1,100,0|8
388,252,56102,2,0,B|456:252,2,50,0|2|8
368,152,56991,1,2
348,108,57213,1,0
328,64,57435,2,0,B|224:40|120:64,1,200,4|0
48,120,58768,6,0,B|48:240,1,100,4|8
148,208,59657,2,0,B|148:136,2,50,0|0|8
148,308,60546,2,0,B|200:336|248:308,1,100,0|10
244,212,61435,2,0,B|296:184|344:212,1,100,0|8
416,276,62324,5,0
480,200,62768,1,10
460,100,63213,2,0,B|392:48|300:80,1,150
276,108,64102,2,0,B|184:164|76:100,1,200,0|0
40,84,65213,1,2
12,128,65435,2,0,B|-28:172|8:240,1,100,8|4
52,308,66324,6,0,B|156:308,1,100,8|0
152,208,67213,2,0,B|224:208,2,50,8|0|2
68,156,68102,2,0,B|68:104|144:80,1,100,8|0
216,32,68991,1,8
300,88,69435,6,0,B|416:88,1,100,4|8
412,188,70324,2,8,B|340:188,3,50,2|2|8|0
312,188,71213,2,0,B|228:204|164:248|148:320,1,200,2|0
156,296,72324,1,4
156,296,72546,1,4
84,228,72991,5,4
440,224,79213,6,0,B|348:276|236:236,1,200,2|4
144,68,80991,6,0,B|76:68,2,50,0|2|4
244,48,81879,2,0,B|320:28|360:56,1,100,0|2
400,128,82768,2,0,B|324:148|284:120,1,100,0|2
216,180,83657,6,0,B|216:248,2,50,4|2|2
124,136,84546,1,2
44,196,84991,1,6
256,192,85435,12,4,87213
184,248,88102,6,0,B|296:248,2,100,0|2|0
228,160,89435,1,0
272,72,89879,2,0,B|152:72,2,100,0|2|0
368,40,91213,6,0,B|436:40|476:76,1,100,2|0
392,136,92102,2,0,B|392:244,3,100,2|0|2|0
304,188,93879,6,0,B|304:292,3,100,2|0|2|0
252,288,95435,2,0,B|252:356,2,50,2|0|2
204,288,96102,6,0,B|80:284|80:144,1,200,0|0
80,112,97213,2,0,B|32:112,2,50,2|2|0
84,64,97879,1,2
184,64,98324,1,0
284,64,98768,2,0,B|352:64,2,50,0|2|6
256,160,99657,5,4
268,44,105879,5,0
168,56,106324,1,0
80,104,106768,1,4
40,196,107213,1,0
68,292,107657,6,0,B|120:296|176:252,1,100,0|0
104,180,108546,2,0,B|164:140|212:152,1,100,0|2
276,212,109435,5,0
376,212,109879,2,0,B|448:212,1,50,2|0
476,212,110324,2,0,B|476:96|340:72,1,200,4|0
256,60,111657,5,0
156,76,112102,2,0,B|40:76|16:212,1,200,2|0
19,196,113213,1,4
19,196,113435,1,4
120,200,113879,6,0,B|180:272|284:312,1,200,4|0
392,184,115657,2,0,B|332:112|228:72,1,200,2|0
136,32,116991,1,0
88,120,117435,6,0,B|88:232,1,100,2|0
188,208,118324,2,0,B|188:272,4,50,0|0|2|0|0
276,156,119657,1,2
356,220,120102,2,0,B|408:240|460:216,2,100,0|2|4
212,80,121879,6,0,B|128:136|72:244,1,200,2|0
268,300,123657,2,0,B|352:240|392:140,1,200,2|2
324,72,124991,1,0
232,36,125435,2,0,B|176:32|120:64,1,100,2|0
44,96,126324,1,4
60,196,126768,2,0,B|60:300,2,100,2|0|2
156,168,128102,5,4
228,236,128546,2,0,B|300:312,2,100,2|0|0
304,172,129879,1,0
404,172,130324,2,0,B|472:172,1,50,0|2
402,76,130991,2,0,B|452:76,2,50
402,76,131657,5,0
316,28,132102,1,2
228,76,132546,1,0
140,32,132991,2,0,B|120:96|160:144,1,100,2|4
148,128,133879,1,2
56,164,134324,2,0,B|0:200,2,50,0|0|2
132,228,135213,5,4
216,280,135657,2,0,B|324:280,2,100,0|2|0
260,188,136991,2,2,B|328:188,2,50
208,104,137879,2,0,B|236:52|304:52,1,100,0|2
388,56,138768,6,0,B|432:8,2,50
440,140,139657,2,0,B|472:228|420:288|356:292,1,200,2|4
268,252,140991,1,2
176,292,141435,2,0,B|68:252,1,100,0|2
36,236,142102,2,0,B|36:168,1,50,2|4
88,100,142768,5,8
176,52,143213,1,0
264,100,143657,1,8
176,148,144102,2,0,B|230:224|329:196|353:131,1,200
432,88,145435,2,0,B|432:32,2,50,8|2|0
480,176,146324,5,8
412,252,146768,2,0,B|380:308|312:312,1,100,0|8
236,288,147657,1,0
312,224,148102,1,8
280,128,148546,2,0,B|212:128,2,50,0|0|8
364,64,149435,6,0,B|268:20|168:60,1,200,4|0
68,76,150768,2,0,B|68:180,1,100,8|0
68,276,151657,2,0,B|68:344,2,50,0|0|2
164,252,152546,1,8
260,280,152991,6,0,B|316:304|376:272,1,100,0|8
412,192,153879,2,0,B|356:168|296:200,1,100,0|8
216,164,154768,2,0,B|144:164,4,50,0|2|8|2|0
276,84,156102,1,8
24,196,162768,6,0,B|44:88|168:60,1,200,0|4
352,100,164546,6,0,B|408:128|408:192,2,100,2|8|0
256,68,165880,1,8
156,88,166324,2,0,B|156:204,1,100,0|10
156,188,167213,5,0
64,144,167657,2,0,B|52:204|80:248,1,100,8|0
112,276,168324,2,0,B|72:324,2,50,2|8|2
164,276,168991,2,0,B|380:276,1,200,0|0
440,208,170324,1,8
440,108,170768,5,4
352,60,171213,2,0,B|288:32|236:72,1,100,8|0
300,148,172102,2,0,B|240:172|192:136,1,100,8|0
136,72,172991,2,0,B|92:40,2,50,10|2|0
72,148,173880,1,8
72,248,174324,6,0,B|136:296|204:308|280:304,1,200,4|0
356,276,175657,1,8
392,184,176102,2,0,B|320:120|224:88|200:88,1,200
120,116,177435,1,8
140,212,177880,5,4
228,164,178324,2,0,B|216:96|252:48,2,100,8|0|8
320,124,179657,2,0,B|424:160|440:272,1,200
440,368,180991,1,8
356,320,181435,6,0,B|352:168|312:112,1,200,4|0
232,80,182768,1,8
132,80,183213,2,0,B|132:236|184:284,1,200
260,324,184546,1,8
348,280,184991,5,4
392,192,185435,1,8
340,108,185880,2,0,B|232:64,1,100,0|10
216,108,186546,1,0
176,140,186768,6,0,B|68:96,1,100,0|8
32,188,187657,1,2
120,236,188102,2,0,B|84:288,2,50,0|0|4
204,288,188991,5,8
300,320,189435,2,0,B|344:344|400:320,1,100,0|8
348,244,190324,6,0,B|348:40,1,187.499994412065,0|4
348,56,191657,1,4
348,56,191879,1,4
348,56,192102,1,4
