osu file format v6

[General]
AudioFilename: jun with Alison - SUNKiSS DROP ~jun side~2.mp3
AudioLeadIn: 2007
PreviewTime: -1
Countdown: 1
SampleSet: Soft
StackLeniency: 0.3
Mode: 0
LetterboxInBreaks: 1

[Editor]
DistanceSpacing: 0.800000011920929
BeatDivisor: 8
GridSize: 8

[Metadata]
Title:SUNKiSS DROP -jun side-
Artist:jun with Alison
Creator:Shifty
Version:Insane
Source:DDR
Tags:DDR, Jun, Alison, Sunkiss

[Difficulty]
HPDrainRate:7
CircleSize:4
OverallDifficulty:7
SliderMultiplier:2
SliderTickRate:0.5

[Events]
//Background and Video events
0,0,"sunkissdrop.jpg"
//Break Periods
//Storyboard Layer 0 (Background)
//Storyboard Layer 1 (Fail)
//Storyboard Layer 2 (Pass)
//Storyboard Layer 3 (Foreground)
//Storyboard Sound Samples
//Background Colour Transformations
3,100,163,162,255

[TimingPoints]
350,324.324324324324,4,2,1,100,1,0
5620,-100,4,1,0,100,0,0
10404,-100,4,2,1,100,0,0
15674,-100,4,1,1,100,0,0

[Colours]
Combo1 : 255,51,51
Combo2 : 0,0,0

[HitObjects]
184,104,350,1,12
256,144,512,1,0
184,184,674,1,0
256,224,836,1,0
184,264,998,1,0
328,104,1322,5,0
256,144,1484,1,0
328,184,1646,1,0
256,224,1808,1,0
328,264,1970,1,0
256,120,2295,6,0,B|256:16,2,100,0|0|8
256,200,2782,1,0
256,280,2944,1,12
256,200,3106,1,0
256,280,3268,2,0,B|256:380,2,75
120,192,3917,6,12,B|0:192,2,100,0|0|12
192,232,4404,1,0
256,192,4566,1,0
416,192,4890,5,8
336,192,5052,2,0,B|336:72,2,100,0|12|0
416,192,5539,1,14
336,192,5701,1,0
256,192,5863,2,0,B|256:292,2,100,0|0|0
256,32,6512,5,0
256,112,6674,1,0
256,192,6836,2,0,B|256:292,2,100,0|0|0
96,192,7485,5,0
176,192,7647,2,0,B|176:92,2,100
256,192,8133,1,0
256,272,8295,2,0,B|376:272,2,100
400,192,8944,5,0
448,256,9106,1,0
424,328,9268,1,0
344,352,9431,1,0
264,328,9593,1,0
224,256,9755,1,0
272,192,9917,1,4
88,48,10728,5,0
144,104,10890,1,0
144,104,10971,1,0
144,104,11052,1,2
200,48,11214,1,0
144,104,11377,1,0
144,264,11701,5,2
88,320,11863,1,0
248,328,12187,5,0
288,328,12268,1,0
328,328,12349,1,2
408,328,12512,2,0,B|408:208,2,100,0|0|0
488,328,12998,1,2
488,168,13322,5,0
440,104,13485,1,0
440,104,13565,1,0
440,104,13647,1,2
368,72,13809,1,0
296,104,13971,1,0
296,104,14052,1,0
296,104,14133,1,0
256,168,14295,1,2
176,168,14458,1,0
176,328,14782,5,0
96,328,14944,1,2
256,328,15268,5,0
256,328,15349,1,0
256,328,15431,2,0,B|256:224,1,100,2|12
160,104,15917,6,0,B|368:104,1,200
496,192,16566,1,0
360,280,16890,1,0
360,360,17052,2,0,B|160:360,1,200
160,280,17539,1,0
32,192,17863,5,0
32,32,18187,1,0
112,32,18349,1,0
192,32,18512,2,0,B|352:64|440:208,1,300
416,272,19160,1,0
256,272,19485,5,0
112,192,19809,5,0
256,120,20133,5,0
400,192,20458,5,0
256,272,20782,5,0
256,112,21106,5,4
200,56,21268,1,0
120,56,21431,1,8
64,112,21593,1,0
120,168,21755,5,0
200,168,21917,1,0
256,112,22079,1,8
312,56,22241,1,0
392,56,22404,5,0
448,112,22566,1,0
392,168,22728,1,8
312,168,22890,1,0
256,112,23052,5,0
200,56,23214,1,0
120,56,23377,1,8
64,112,23539,1,0
112,176,23701,6,4,B|152:216|216:168,1,100,4|0
272,128,24025,6,4,B|312:168|264:232,1,100,12|0
224,280,24349,6,4,B|264:320|328:272,1,100,4|0
384,320,24674,6,4,B|424:280|376:216,1,100,12|0
384,152,24998,5,4
256,56,25322,5,8
256,136,25485,1,0
120,56,25809,6,0,B|120:168,1,100,0|8
120,232,26133,2,0,B|120:352,1,100
200,332,26458,1,0
256,275,26620,1,8
313,332,26782,1,0
472,336,27106,6,0,B|472:224,1,100,0|8
472,152,27431,2,0,B|368:152,1,100,0|0
368,72,27755,1,0
288,72,27917,2,0,B|288:184,2,100,8|0|0
208,72,28404,1,0
128,72,28566,2,0,B|8:72,2,100,8|0|0
128,232,29214,5,8
128,312,29377,1,0
288,312,29701,5,0
328,240,29863,1,8
160,96,30025,1,0
160,96,30187,1,0
160,96,30349,1,0
160,96,30512,1,8
160,96,30674,1,0
160,96,30836,1,0
160,96,30998,1,0
160,96,31160,1,8
160,96,31485,5,0
160,96,31647,1,0
160,96,31809,1,8
160,96,31971,1,0
160,96,32133,1,0
160,96,32295,1,0
160,96,32458,1,8
160,96,32782,5,0
160,96,33106,5,8
160,96,33268,1,0
160,96,33431,1,0
160,96,33593,1,0
160,96,33755,5,8
160,96,33917,1,0
160,96,34079,1,0
160,96,34241,1,0
160,96,34404,5,8
160,96,34566,1,0
160,96,34728,1,0
160,96,34890,1,0
160,96,35052,5,8
160,96,35214,1,0
160,96,35377,1,0
