osu file format v9

[General]
AudioFilename: SILVER DREAM (Twinkle Mix).mp3
AudioLeadIn: 0
PreviewTime: 33200
Countdown: 0
SampleSet: Soft
StackLeniency: 0.7
Mode: 0
LetterboxInBreaks: 1

[Editor]
DistanceSpacing: 1
BeatDivisor: 4
GridSize: 8

[Metadata]
Title:SILVER DREAM (Twinkle Mix)
Artist:jun
Creator:ouranhshc
Version:Insane
Source:Dance Dance Revolution X OST
Tags:Rucker Samiljul CrimmiSkye

[Difficulty]
HPDrainRate:8
CircleSize:4
OverallDifficulty:8
ApproachRate:8
SliderMultiplier:2
SliderTickRate:2

[Events]
//Background and Video events
0,0,"SILVER DREAM (Twinkle Mix)-bg.png"
//Break Periods
2,54338,62606
//Storyboard Layer 0 (Background)
//Storyboard Layer 1 (Fail)
//Storyboard Layer 2 (Pass)
//Storyboard Layer 3 (Foreground)
//Storyboard Sound Samples
//Background Colour Transformations
3,100,163,162,255

[TimingPoints]
2888,312.5,4,2,0,100,1,0
4763,-100,4,2,0,80,0,0
5388,-100,4,2,0,60,0,0
6013,-100,4,2,0,40,0,0
7731,-100,4,2,0,100,0,0
34138,-100,4,2,0,100,0,1
53825,-100,4,2,0,100,0,0
54138,-100,4,2,0,100,0,1
54216,-100,4,2,0,100,0,0

[Colours]
Combo1 : 0,0,0
Combo2 : 128,255,255
Combo3 : 5,5,240
Combo4 : 255,255,255

[HitObjects]
256,56,2888,1,2
168,104,3044,1,0
256,152,3200,1,2
168,200,3356,1,0
256,248,3513,2,0,B|256:352,2,100,2|2|2
344,200,3981,1,2
464,40,4294,6,0,B|464:144,2,100,0|2|0
344,200,4919,6,0,B|344:304,2,100,0|2|0
168,200,5544,6,0,B|168:304,2,100,0|2|0
48,40,6169,6,0,B|48:144,2,100,0|2|0
256,24,6794,5,2
304,112,6950,1,0
208,112,7106,1,2
256,200,7263,2,0,B|256:304,1,100,2|0
256,300,7575,1,2
256,300,7888,5,2
344,344,8044,1,0
408,272,8200,1,2
312,152,8434,1,0
312,152,8513,1,2
304,56,8669,2,0,B|256:32|208:56,1,100,0|2
256,300,9138,5,2
168,344,9294,1,0
104,272,9450,1,2
200,152,9684,1,0
200,152,9763,1,2
208,56,9919,2,0,B|256:32|304:56,1,100,0|2
456,192,10388,6,0,B|352:192,1,100,2|0
424,264,10700,2,0,B|320:264,1,100
392,336,11013,2,0,B|288:336,1,100,2|0
256,240,11325,1,0
256,240,11481,1,0
256,136,11638,6,0,B|256:80,4,50,2|0|0|0|0
64,192,12263,2,0,B|120:192,8,50,2|0|0|0|0|0|0|0|4
128,264,13044,6,0,B|232:264,1,100,2|0
384,264,13356,2,0,B|280:264,1,100,2|0
256,64,13825,1,2
176,128,13981,2,0,B|208:192|304:192|344:128,1,200,2|0
342,130,14372,1,0
342,130,14450,1,2
424,192,14606,1,0
416,96,14763,1,2
432,288,15075,1,2
256,352,15544,5,2
176,296,15700,1,0
256,352,15856,1,2
336,296,16013,2,0,B|336:96,1,200,2|0
176,96,16481,2,0,B|176:296,1,200,2|0
176,296,16872,1,0
176,296,16950,1,0
256,240,17106,1,2
256,352,17263,1,2
256,352,17575,1,2
448,120,18044,5,2
448,264,18200,1,0
352,192,18356,1,2
352,192,18513,1,0
256,16,18825,1,2
160,16,18981,2,0,B|160:72|240:136|320:88,2,200,2|0|2
64,16,19763,1,2
64,216,20075,5,2
112,304,20231,1,0
208,280,20388,2,0,B|160:240|160:128|216:104,1,200,2|0
297,104,20856,2,0,B|352:128|352:240|304:280,1,200,2|0
256,192,21325,1,2
256,192,21481,1,0
208,280,21638,2,0,B|120:224|144:80|256:72|328:120,2,300,2|0|2
298,104,22888,1,6
368,40,23044,5,2
408,64,23122,1,0
448,96,23200,1,0
416,192,23356,1,2
448,288,23513,2,0,B|392:304|352:264,2,100,2|0|0
416,192,23981,2,0,B|352:152|264:176|256:264,1,200,2|0
256,304,24372,1,0
256,352,24450,1,0
168,304,24606,1,2
168,200,24763,1,2
256,16,25075,1,2
344,200,25388,1,0
256,160,25544,6,2,B|272:104|336:104,1,100,2|2
256,160,25856,2,0,B|240:104|176:104,1,100,2|0
256,288,26325,1,2
160,320,26481,2,0,B|152:232|224:176|296:200,2,200,2|0|2
240,376,27263,2,0,B|344:376,1,100,2|0
440,376,27575,1,2
352,88,28044,5,2
256,40,28200,1,0
160,88,28356,1,2
256,40,28513,1,2
256,240,28825,1,2
304,328,28981,2,0,B|352:296|352:240|352:240|448:240,1,200,2|0
256,240,29606,1,2
208,328,29763,1,0
128,144,30075,5,2
200,80,30231,1,0
128,16,30388,2,0,B|40:56|40:56|40:160,1,200,6|0
40,264,30856,2,0,B|128:264|128:264|184:256|224:200,1,200,2|0
264,120,31325,1,0
352,72,31481,1,2
432,136,31638,6,0,B|432:240|432:240|400:272|344:280,1,200,6|0
166,279,32106,2,0,B|112:272|80:240|80:240|80:136,1,200,4|0
256,40,32575,2,0,B|256:96,4,50
256,240,33200,5,2
256,264,33278,1,0
256,288,33356,2,0,B|256:344|256:344|336:384|392:344,1,200,2|0
328,264,33825,2,0,B|328:160,1,100,2|0
256,88,34138,6,0,B|336:24,2,100,6|0|2
160,88,34606,2,2,B|160:176|256:200|312:176,2,200,2|2|0
72,128,35388,6,0,B|24:104,2,50,0|0|0
72,256,35700,2,0,B|24:280,2,50
152,192,36013,1,0
168,288,36169,5,2
256,352,36325,1,0
344,288,36481,1,2
256,232,36638,1,2
256,208,36716,1,0
256,184,36794,1,0
256,88,36950,1,2
312,8,37106,2,0,B|400:16|400:16|456:64|424:120,2,200,2|2|2
112,32,38044,5,2
64,48,38122,1,0
48,96,38200,1,0
144,128,38356,1,2
88,216,38513,2,0,B|88:272|88:272|128:344|216:320,1,200,2|0
344,224,38981,5,2
344,320,39137,2,0,B|416:328|464:240|432:176,1,200,6|0
344,128,39606,2,0,B|272:120|224:208|256:272,1,200,2|0
64,336,40231,5,2
144,272,40388,1,0
112,176,40544,1,2
176,96,40700,1,0
80,88,40856,2,0,B|16:96|-8:192|48:256,1,200,2|0
144,272,41325,5,2
256,336,41481,1,0
368,272,41638,1,4
368,72,41950,6,0,B|472:72,1,100,0|4
256,72,42419,6,0,B|256:176,1,100,0|4
144,72,42888,6,0,B|40:72,1,100,0|4
72,272,43356,5,2
160,320,43513,1,0
256,344,43669,1,2
352,320,43825,1,0
440,272,43982,1,2
352,232,44138,6,0,B|296:232|264:176,2,100,6|0|2
352,136,44606,1,0
352,40,44763,2,0,B|408:32|440:88,1,100,2|2
352,136,45075,1,0
272,80,45231,2,0,B|72:80,2,200,2|0|2
200,152,46013,6,0,B|152:184|160:240,1,100,2|0
352,237,46325,2,0,B|360:184|312:152,1,100,2|0
256,240,46638,6,0,B|240:288|176:296,1,100,2|0
256,240,46950,2,0,B|272:288|336:296,1,100,2|0
256,344,47263,1,2
160,368,47419,1,0
88,296,47575,1,2
32,216,47731,2,0,B|96:184|160:232|160:232|160:168,1,200,2|0
256,96,48200,1,2
352,167,48356,6,0,B|352:232|352:232|416:184|480:216,1,200,2|0
424,296,48825,1,2
328,304,48981,1,0
256,240,49138,2,0,B|256:136,1,100,6|0
208,56,49450,2,0,B|256:32|304:56,1,100,2|0
392,112,49763,5,2
448,192,49919,1,0
392,272,50075,1,2
296,304,50231,2,0,B|216:328|216:328|152:296|152:232,1,200,2|0
64,192,50700,1,2
152,147,50856,2,0,B|152:88|216:56|216:56|296:80,1,200,2|0
448,192,51481,6,0,B|344:192,1,100,2|6
64,192,51950,1,0
256,304,52263,5,4
184,232,52419,1,0
256,168,52575,1,0
328,232,52731,1,0
256,304,52888,5,4
160,192,53044,1,0
256,80,53200,1,0
352,192,53356,1,0
256,304,53513,5,2
256,280,53591,1,2
256,256,53669,1,2
256,232,53747,1,2
256,208,53825,1,2
256,208,54138,5,4
120,280,63356,6,0,B|192:368|304:328,1,200,2|0
256,240,63825,1,2
168,200,63981,1,0
80,152,64138,6,0,B|64:88|184:112|216:24,1,200,6|0
296,24,64606,2,0,B|328:112|448:88|432:152,1,200,2|0
432,256,65075,1,2
360,328,65231,1,2
112,192,66169,6,0,B|8:192,2,100,2|0|2
160,96,66638,1,6
256,48,66794,1,0
352,96,66950,1,2
400,192,67106,2,0,B|400:288|400:288|344:328|288:288,2,200,2|0|2
200,192,68044,1,2
256,272,68200,1,0
312,192,68356,1,2
352,104,68513,2,0,B|256:48|160:104,1,200,2|0
104,184,68981,5,2
112,288,69138,1,6
192,352,69294,1,0
320,352,69450,1,2
400,288,69606,2,0,B|216:200,1,200,2|0
408,200,70231,5,2
400,96,70388,1,2
320,32,70544,1,0
192,32,70700,1,2
112,96,70856,2,0,B|296:184,1,200,2|0
256,272,71325,6,0,B|256:376,1,100,0|0
360,360,71638,2,0,B|360:240|360:240|344:192|312:176,1,200,4|0
199,176,72106,2,0,B|168:192|152:240|152:240|152:360,1,200,4|0
256,360,72575,2,0,B|256:256,1,100,4|0
256,160,72888,2,0,B|256:56,2,100,4|0|0
368,56,73356,6,2,B|480:64|496:192,1,200
496,288,73825,1,2
432,360,73981,1,0
328,352,74138,2,0,B|288:312|296:256,1,100,6|0
184,352,74450,2,0,B|224:312|216:256,1,100,2|0
256,168,74763,2,0,B|256:64,2,100,2|0|2
168,112,75231,2,0,B|96:112|40:192|96:272,2,200,2|0|0
168,216,76013,5,0
200,312,76169,1,0
312,312,76325,1,0
344,216,76481,1,0
256,264,76638,6,0,B|256:56,1,200,2|2
456,32,77263,1,2
356,49,77419,1,0
256,64,77575,1,2
160,80,77731,2,0,B|160:280,1,200,2|0
256,360,78200,1,2
352,280,78356,2,0,B|352:80,1,200,2|0
256,120,78825,5,2
256,216,78981,1,0
168,168,79138,2,0,B|64:168|64:168|24:128|48:72,2,200,6|0|0
168,72,79919,1,0
256,24,80075,1,2
344,72,80231,2,0,B|344:160|344:160|384:208|448:184,1,200,2|0
448,88,80700,1,2
445,184,80856,2,0,B|446:271|446:271|392:304|336:272,1,200,2|0
256,208,81325,1,0
56,208,81638,6,0,B|96:320|232:320,1,200,4|0
360,192,82263,1,4
288,128,82419,1,0
216,192,82575,1,0
288,256,82731,1,0
360,192,82888,5,4
264,104,83044,1,0
168,192,83200,1,0
264,280,83356,1,0
360,192,83513,5,2
336,192,83591,1,2
312,192,83669,1,2
288,192,83747,1,2
264,192,83825,1,2
264,192,84138,6,0,B|192:112,1,100,4|0
96,120,84450,2,0,B|144:32,1,100
248,32,84763,2,0,B|352:32,2,100
264,192,85388,6,0,B|192:272,1,100
96,264,85700,2,0,B|144:352,1,100
248,352,86013,2,0,B|352:352,2,100
448,352,86638,5,0
472,256,86794,1,0
376,280,86950,1,0
408,184,87106,1,0
312,200,87263,2,0,B|312:96,1,100
200,100,87575,2,0,B|200:200,1,100
200,304,87888,6,0,B|240:344,4,50
32,192,88513,2,0,B|88:192,4,50
136,24,89138,6,0,B|192:32|208:88,1,100,4|0
376,24,89450,2,0,B|320:32|304:88,1,100
304,184,89763,2,0,B|256:160|208:184,1,100
256,272,90075,1,0
256,272,90231,1,0
304,360,90388,6,0,B|352:328|352:272,1,100
208,360,90700,2,0,B|160:328|160:272,1,100
256,272,91013,2,0,B|256:168,1,100
208,88,91325,1,0
304,88,91481,1,0
256,0,91638,5,4
392,32,91794,1,0
416,160,91950,1,0
256,0,92263,5,4
120,32,92419,1,0
96,160,92575,1,0
256,344,93044,5,4
168,240,93200,1,4
256,128,93356,1,4
256,344,93669,5,4
344,240,93825,1,4
256,128,93981,1,4
