osu file format v13

[General]
AudioFilename: KIMONO - PRINCESS.mp3
AudioLeadIn: 0
PreviewTime: 31913
Countdown: 0
SampleSet: Soft
StackLeniency: 0.7
Mode: 3
LetterboxInBreaks: 0
SpecialStyle: 0
WidescreenStoryboard: 1

[Editor]
DistanceSpacing: 1
BeatDivisor: 4
GridSize: 8
TimelineZoom: 1.699999

[Metadata]
Title:KIMONO PRINCESS
TitleUnicode:KIMONO♥PRINCESS
Artist:jun
ArtistUnicode:jun
Creator:Sky_Demon
Version:MX
Source:Dance Dance Revolution
Tags:DanceMasters DanceEvolution ARCADE pop'n music 20 fantasia REFLEC BEAT limelight plus Kuo Kyoka Simple_Star Taiwan-NAK
BeatmapID:364572
BeatmapSetID:147232

[Difficulty]
HPDrainRate:8
CircleSize:4
OverallDifficulty:9
ApproachRate:5
SliderMultiplier:1.4
SliderTickRate:1

[Events]
//Background and Video events
0,0,"01.jpg",0,0
//Break Periods
//Storyboard Layer 0 (Background)
//Storyboard Layer 1 (Fail)
//Storyboard Layer 2 (Pass)
//Storyboard Layer 3 (Foreground)
//Storyboard Sound Samples
//Background Colour Transformations
3,100,163,162,255

[TimingPoints]
1282,315.789473684211,4,2,1,60,1,0
30333,-50,4,2,1,60,0,0
30491,-100,4,2,1,60,0,0
30570,-200,4,2,1,60,0,0
30807,-50,4,2,1,60,0,0
30886,-100,4,2,1,60,0,0
30965,-200,4,2,1,60,0,0
31123,-100,4,2,1,60,0,0
69491,-50,4,2,1,60,0,0
69649,-100,4,2,1,60,0,0
69728,-250,4,2,1,60,0,0
69807,-500,4,2,1,60,0,0
70044,-100,4,2,1,60,0,0
70123,-50,4,2,1,60,0,0
70281,-100,4,2,1,60,0,0
70359,-250,4,2,1,60,0,0
70438,-500,4,2,1,60,0,0
70675,-100,4,2,1,60,0,0
70754,-66.6666666666667,4,2,1,60,0,0
70833,-133.333333333333,4,2,1,60,0,0
70912,-200,4,2,1,60,0,0
70991,-100,4,2,1,60,0,0
71070,-66.6666666666667,4,2,1,60,0,0
71149,-133.333333333333,4,2,1,60,0,0
71228,-200,4,2,1,60,0,0
71307,-100,4,2,1,60,0,0
71386,-66.6666666666667,4,2,1,60,0,0
71465,-133.333333333333,4,2,1,60,0,0
71544,-200,4,2,1,60,0,0
71623,-100,4,2,1,60,0,0
72017,-100,4,2,1,60,0,1
101702,-100,4,2,1,60,0,0

[HitObjects]
448,192,1282,5,4,3:0:0:0:
64,192,1282,1,0,0:0:0:0:
320,192,1282,1,0,0:0:0:0:
64,192,1439,1,0,0:0:0:0:
320,192,1439,1,0,0:0:0:0:
192,192,1597,1,0,0:0:0:0:
448,192,1597,1,4,3:0:0:0:
64,192,1755,1,0,0:0:0:0:
448,192,1755,1,0,0:0:0:0:
320,192,1913,1,4,3:0:0:0:
192,192,1913,1,0,0:0:0:0:
64,192,2071,1,0,0:0:0:0:
448,192,2071,1,0,0:0:0:0:
192,192,2229,1,0,0:0:0:0:
448,192,2229,1,4,3:0:0:0:
320,192,2387,1,0,0:0:0:0:
192,192,2387,1,0,0:0:0:0:
64,192,2545,1,4,3:0:0:0:
192,192,2624,1,0,0:0:0:0:
320,192,2703,1,0,0:0:0:0:
448,192,2703,1,0,0:0:0:0:
448,192,2860,1,4,3:0:0:0:
192,192,2860,1,0,0:0:0:0:
320,192,3018,1,0,0:0:0:0:
64,192,3018,1,0,0:0:0:0:
192,192,3176,1,4,1:0:0:0:
320,192,3176,1,4,1:0:0:0:
448,192,3176,1,0,0:0:0:0:
64,192,3334,1,0,0:0:0:0:
448,192,3334,1,0,0:0:0:0:
192,192,3492,1,4,1:0:0:0:
320,192,3492,1,4,1:0:0:0:
64,192,3492,1,0,0:0:0:0:
320,192,3650,1,0,0:0:0:0:
64,192,3650,1,0,0:0:0:0:
64,192,3808,1,0,0:0:0:0:
448,192,3808,1,4,3:0:0:0:
448,192,3966,1,0,0:0:0:0:
192,192,3966,1,0,0:0:0:0:
320,192,4124,1,4,3:0:0:0:
64,192,4124,1,0,0:0:0:0:
64,192,4282,1,0,0:0:0:0:
320,192,4282,1,0,0:0:0:0:
448,192,4439,1,4,3:0:0:0:
192,192,4439,1,0,0:0:0:0:
64,192,4597,1,0,0:0:0:0:
448,192,4597,1,0,0:0:0:0:
64,192,4755,1,0,0:0:0:0:
320,192,4755,1,4,3:0:0:0:
64,192,4913,128,0,5229:0:0:0:0:
320,192,4913,1,0,0:0:0:0:
448,192,5229,128,0,5387:0:0:0:0:
192,192,5229,1,0,0:0:0:0:
320,192,5387,128,0,5545:0:0:0:0:
64,192,5387,1,0,0:0:0:0:
192,192,5545,128,0,5703:0:0:0:0:
64,192,5545,1,0,0:0:0:0:
448,192,5703,1,4,1:0:0:0:
320,192,5703,1,4,1:0:0:0:
192,192,5860,1,4,1:0:0:0:
320,192,5860,1,4,1:0:0:0:
64,192,6018,1,4,1:0:0:0:
192,192,6018,1,4,1:0:0:0:
320,192,6176,1,4,3:0:0:0:
192,192,6255,1,4,3:0:0:0:
448,192,6334,1,4,3:0:0:0:
64,192,6334,1,4,3:0:0:0:
192,192,6492,1,0,0:0:0:0:
448,192,6492,1,0,0:0:0:0:
64,192,6650,1,0,0:0:0:0:
448,192,6650,1,4,3:0:0:0:
448,192,6808,1,0,0:0:0:0:
192,192,6808,1,0,0:0:0:0:
192,192,6966,1,0,0:0:0:0:
64,192,6966,1,4,3:0:0:0:
192,192,7124,1,0,0:0:0:0:
448,192,7124,1,0,0:0:0:0:
320,192,7282,1,0,0:0:0:0:
192,192,7282,1,4,3:0:0:0:
64,192,7439,1,0,0:0:0:0:
320,192,7439,1,0,0:0:0:0:
64,192,7597,1,4,3:0:0:0:
448,192,7597,1,0,0:0:0:0:
192,192,7676,1,0,0:0:0:0:
320,192,7755,1,0,0:0:0:0:
448,192,7913,1,0,0:0:0:0:
64,192,7913,1,4,3:0:0:0:
320,192,7992,1,0,0:0:0:0:
192,192,8071,1,0,0:0:0:0:
448,192,8229,1,4,1:0:0:0:
64,192,8229,1,4,1:0:0:0:
192,192,8387,1,0,0:0:0:0:
320,192,8466,1,0,0:0:0:0:
448,192,8545,1,4,1:0:0:0:
64,192,8545,1,4,1:0:0:0:
320,192,8703,1,0,0:0:0:0:
192,192,8782,1,0,0:0:0:0:
320,192,8860,1,4,2:0:0:0:
64,192,8860,1,4,2:0:0:0:
448,192,8860,1,4,2:0:0:0:
192,192,9018,1,0,0:0:0:0:
448,192,9018,1,0,0:0:0:0:
320,192,9176,1,4,3:0:0:0:
64,192,9176,1,0,0:0:0:0:
64,192,9334,128,0,9650:0:0:0:0:
448,192,9334,1,0,0:0:0:0:
448,192,9492,1,4,2:0:0:0:
192,192,9492,1,4,2:0:0:0:
320,192,9492,1,0,0:0:0:0:
320,192,9650,1,0,0:0:0:0:
448,192,9808,1,4,3:0:0:0:
192,192,9808,1,0,0:0:0:0:
192,192,9966,1,0,0:0:0:0:
320,192,9966,1,0,0:0:0:0:
64,192,10124,1,4,0:0:0:0:
448,192,10124,1,4,0:0:0:0:
192,192,10124,1,0,0:0:0:0:
320,192,10282,1,0,0:0:0:0:
64,192,10439,1,4,0:0:0:0:
192,192,10439,1,0,0:0:0:0:
448,192,10439,1,4,2:0:0:0:
320,192,10597,1,0,0:0:0:0:
64,192,10755,1,4,1:0:0:0:
192,192,10755,1,4,1:0:0:0:
448,192,10755,1,4,2:0:0:0:
320,192,10913,1,4,1:0:0:0:
64,192,10913,1,0,0:0:0:0:
448,192,10913,1,4,1:0:0:0:
320,192,11071,1,4,1:0:0:0:
448,192,11071,1,4,1:0:0:0:
64,192,11071,1,0,0:0:0:0:
192,192,11229,1,0,0:0:0:0:
64,192,11387,1,4,2:0:0:0:
192,192,11387,1,4,2:0:0:0:
448,192,11387,1,0,0:0:0:0:
320,192,11466,1,0,0:0:0:0:
448,192,11545,1,0,0:0:0:0:
64,192,11703,1,4,3:0:0:0:
448,192,11703,1,0,0:0:0:0:
192,192,11782,1,0,0:0:0:0:
320,192,11860,1,0,0:0:0:0:
64,192,12018,1,4,3:0:0:0:
448,192,12018,1,0,0:0:0:0:
320,192,12097,1,0,0:0:0:0:
192,192,12176,1,0,0:0:0:0:
320,192,12334,1,4,3:0:0:0:
448,192,12334,1,0,0:0:0:0:
64,192,12413,1,0,0:0:0:0:
192,192,12492,1,0,0:0:0:0:
64,192,12650,1,4,3:0:0:0:
448,192,12650,1,0,0:0:0:0:
320,192,12729,1,0,0:0:0:0:
192,192,12808,1,0,0:0:0:0:
64,192,12887,1,0,0:0:0:0:
320,192,12966,1,4,3:0:0:0:
448,192,12966,1,0,0:0:0:0:
192,192,13045,1,0,0:0:0:0:
64,192,13124,1,0,0:0:0:0:
64,192,13282,1,0,0:0:0:0:
192,192,13282,1,4,3:0:0:0:
320,192,13360,1,0,0:0:0:0:
448,192,13439,1,0,0:0:0:0:
64,192,13597,1,4,3:0:0:0:
448,192,13597,1,0,0:0:0:0:
192,192,13676,1,0,0:0:0:0:
320,192,13755,1,0,0:0:0:0:
192,192,13913,1,4,3:0:0:0:
64,192,13913,1,0,0:0:0:0:
320,192,13992,1,0,0:0:0:0:
448,192,14071,1,0,0:0:0:0:
64,192,14229,1,4,3:0:0:0:
448,192,14229,1,0,0:0:0:0:
320,192,14387,1,0,0:0:0:0:
64,192,14387,1,0,0:0:0:0:
64,192,14545,1,0,0:0:0:0:
192,192,14545,1,4,3:0:0:0:
448,192,14624,1,0,0:0:0:0:
320,192,14703,1,0,0:0:0:0:
448,192,14860,1,4,3:0:0:0:
64,192,14860,1,0,0:0:0:0:
192,192,14939,1,0,0:0:0:0:
320,192,15018,1,0,0:0:0:0:
64,192,15176,1,4,3:0:0:0:
448,192,15176,1,0,0:0:0:0:
192,192,15255,1,0,0:0:0:0:
320,192,15334,1,0,0:0:0:0:
448,192,15413,1,0,0:0:0:0:
192,192,15492,1,0,0:0:0:0:
64,192,15492,1,4,3:0:0:0:
448,192,15650,1,0,0:0:0:0:
320,192,15729,1,0,0:0:0:0:
192,192,15808,1,0,0:0:0:0:
64,192,15808,1,4,3:0:0:0:
448,192,15887,1,0,0:0:0:0:
320,192,15966,1,0,0:0:0:0:
448,192,16124,1,4,3:0:0:0:
320,192,16203,1,0,0:0:0:0:
192,192,16282,1,0,0:0:0:0:
64,192,16360,1,0,0:0:0:0:
320,192,16439,1,4,3:0:0:0:
448,192,16439,1,0,0:0:0:0:
192,192,16518,1,0,0:0:0:0:
320,192,16597,1,0,0:0:0:0:
448,192,16676,1,0,0:0:0:0:
64,192,16755,1,0,0:0:0:0:
320,192,16755,1,4,3:0:0:0:
192,192,16834,1,0,0:0:0:0:
64,192,16913,1,0,0:0:0:0:
320,192,17071,1,4,3:0:0:0:
448,192,17071,1,0,0:0:0:0:
192,192,17150,1,0,0:0:0:0:
64,192,17229,1,0,0:0:0:0:
192,192,17387,1,4,3:0:0:0:
320,192,17387,1,0,0:0:0:0:
64,192,17466,1,0,0:0:0:0:
448,192,17545,1,0,0:0:0:0:
64,192,17703,1,4,3:0:0:0:
448,192,17703,1,0,0:0:0:0:
192,192,17782,1,0,0:0:0:0:
64,192,17860,1,0,0:0:0:0:
64,192,18018,1,0,0:0:0:0:
448,192,18018,1,4,3:0:0:0:
320,192,18097,1,0,0:0:0:0:
192,192,18176,1,0,0:0:0:0:
192,192,18334,1,4,3:0:0:0:
64,192,18334,1,0,0:0:0:0:
320,192,18413,1,0,0:0:0:0:
448,192,18492,1,0,0:0:0:0:
448,192,18650,1,0,0:0:0:0:
320,192,18650,1,4,3:0:0:0:
64,192,18729,1,0,0:0:0:0:
192,192,18808,1,0,0:0:0:0:
320,192,18887,1,0,0:0:0:0:
64,192,18966,1,4,2:0:0:0:
192,192,18966,1,4,3:0:0:0:
320,192,19045,1,0,0:0:0:0:
448,192,19124,1,0,0:0:0:0:
64,192,19282,1,4,3:0:0:0:
448,192,19282,1,0,0:0:0:0:
320,192,19360,1,0,0:0:0:0:
192,192,19439,1,0,0:0:0:0:
64,192,19597,1,4,3:0:0:0:
448,192,19597,1,0,0:0:0:0:
192,192,19676,1,0,0:0:0:0:
320,192,19755,1,0,0:0:0:0:
192,192,19834,1,0,0:0:0:0:
64,192,19913,1,4,3:0:0:0:
448,192,19913,1,0,0:0:0:0:
192,192,19992,1,0,0:0:0:0:
320,192,20071,1,0,0:0:0:0:
64,192,20229,1,4,3:0:0:0:
448,192,20229,1,0,0:0:0:0:
192,192,20308,1,0,0:0:0:0:
320,192,20387,1,0,0:0:0:0:
448,192,20466,1,0,0:0:0:0:
192,192,20545,1,0,0:0:0:0:
64,192,20545,1,4,3:0:0:0:
320,192,20624,1,0,0:0:0:0:
448,192,20703,1,0,0:0:0:0:
320,192,20782,1,0,0:0:0:0:
192,192,20860,1,4,3:0:0:0:
64,192,20939,1,0,0:0:0:0:
320,192,21018,1,0,0:0:0:0:
448,192,21018,1,0,0:0:0:0:
192,192,21097,1,0,0:0:0:0:
64,192,21176,1,4,3:0:0:0:
448,192,21176,1,0,0:0:0:0:
320,192,21255,1,0,0:0:0:0:
448,192,21334,1,4,3:0:0:0:
64,192,21334,1,0,0:0:0:0:
448,192,21413,1,4,3:0:0:0:
64,192,21413,1,0,0:0:0:0:
192,192,21492,1,4,2:0:0:0:
64,192,21492,1,4,2:0:0:0:
320,192,21492,1,0,0:0:0:0:
64,192,21650,1,0,0:0:0:0:
320,192,21650,1,0,0:0:0:0:
64,192,21808,1,0,0:0:0:0:
448,192,21808,1,4,3:0:0:0:
64,192,21966,1,0,0:0:0:0:
448,192,21966,1,0,0:0:0:0:
64,192,22124,128,0,22439:0:0:0:0:
320,192,22124,1,4,3:0:0:0:
192,192,22282,1,0,0:0:0:0:
448,192,22282,1,0,0:0:0:0:
320,192,22439,1,4,3:0:0:0:
192,192,22518,1,0,0:0:0:0:
64,192,22597,1,0,0:0:0:0:
64,192,22755,1,4,3:0:0:0:
448,192,22755,1,0,0:0:0:0:
320,192,22834,1,0,0:0:0:0:
192,192,22913,1,0,0:0:0:0:
448,192,23071,1,4,3:0:0:0:
64,192,23071,1,0,0:0:0:0:
320,192,23229,1,0,0:0:0:0:
64,192,23229,1,0,0:0:0:0:
192,192,23387,1,4,3:0:0:0:
64,192,23387,128,0,23703:0:0:0:0:
448,192,23466,1,0,0:0:0:0:
320,192,23545,1,0,0:0:0:0:
448,192,23703,1,4,3:0:0:0:
192,192,23703,1,0,0:0:0:0:
320,192,23782,1,0,0:0:0:0:
192,192,23860,1,0,0:0:0:0:
448,192,24018,1,4,3:0:0:0:
64,192,24018,1,0,0:0:0:0:
192,192,24097,1,0,0:0:0:0:
320,192,24176,1,0,0:0:0:0:
448,192,24334,1,0,0:0:0:0:
64,192,24334,1,4,3:0:0:0:
192,192,24492,1,0,0:0:0:0:
448,192,24492,1,0,0:0:0:0:
448,192,24650,1,4,3:0:0:0:
320,192,24650,1,0,0:0:0:0:
192,192,24729,1,0,0:0:0:0:
320,192,24808,1,0,0:0:0:0:
448,192,24887,1,0,0:0:0:0:
64,192,24966,1,0,0:0:0:0:
192,192,24966,1,4,3:0:0:0:
320,192,25045,1,0,0:0:0:0:
448,192,25124,1,0,0:0:0:0:
64,192,25282,1,4,3:0:0:0:
192,192,25282,1,0,0:0:0:0:
448,192,25360,1,0,0:0:0:0:
320,192,25439,1,0,0:0:0:0:
448,192,25597,1,4,3:0:0:0:
192,192,25597,1,0,0:0:0:0:
64,192,25676,1,0,0:0:0:0:
192,192,25755,1,0,0:0:0:0:
320,192,25913,1,4,3:0:0:0:
448,192,25913,1,0,0:0:0:0:
192,192,25992,1,0,0:0:0:0:
64,192,26071,1,0,0:0:0:0:
448,192,26229,1,4,3:0:0:0:
320,192,26229,1,4,3:0:0:0:
192,192,26308,1,0,0:0:0:0:
64,192,26387,1,0,0:0:0:0:
64,192,26545,1,4,2:0:0:0:
448,192,26545,1,4,2:0:0:0:
192,192,26545,1,0,0:0:0:0:
320,192,26624,1,0,0:0:0:0:
192,192,26703,1,0,0:0:0:0:
320,192,26782,1,0,0:0:0:0:
64,192,26860,1,4,3:0:0:0:
192,192,26860,1,0,0:0:0:0:
448,192,26939,1,0,0:0:0:0:
320,192,27018,1,0,0:0:0:0:
192,192,27097,1,0,0:0:0:0:
64,192,27176,1,4,3:0:0:0:
448,192,27176,128,0,27492:0:0:0:0:
320,192,27334,1,0,0:0:0:0:
192,192,27334,1,0,0:0:0:0:
64,192,27492,1,4,3:0:0:0:
192,192,27492,1,0,0:0:0:0:
320,192,27571,1,0,0:0:0:0:
192,192,27650,1,0,0:0:0:0:
320,192,27729,1,0,0:0:0:0:
448,192,27808,1,4,3:0:0:0:
64,192,27808,1,0,0:0:0:0:
192,192,27966,1,0,0:0:0:0:
320,192,27966,1,0,0:0:0:0:
64,192,28124,1,0,0:0:0:0:
448,192,28124,1,4,3:0:0:0:
320,192,28282,1,0,0:0:0:0:
64,192,28282,1,0,0:0:0:0:
64,192,28439,128,0,28755:0:0:0:0:
448,192,28439,1,0,0:0:0:0:
192,192,28439,1,4,3:0:0:0:
448,192,28597,1,0,0:0:0:0:
320,192,28755,1,4,3:0:0:0:
192,192,28755,1,0,0:0:0:0:
192,192,28913,1,0,0:0:0:0:
448,192,28913,1,0,0:0:0:0:
64,192,29071,1,4,2:0:0:0:
448,192,29071,1,4,2:0:0:0:
192,192,29071,1,0,0:0:0:0:
320,192,29150,1,0,0:0:0:0:
448,192,29229,1,0,0:0:0:0:
64,192,29387,1,0,0:0:0:0:
448,192,29387,1,4,3:0:0:0:
320,192,29466,1,0,0:0:0:0:
448,192,29545,1,0,0:0:0:0:
64,192,29703,1,0,0:0:0:0:
448,192,29703,1,4,3:0:0:0:
320,192,29782,1,0,0:0:0:0:
448,192,29860,1,0,0:0:0:0:
448,192,30018,1,4,3:0:0:0:
64,192,30018,1,0,0:0:0:0:
320,192,30097,1,0,0:0:0:0:
192,192,30176,1,2,0:0:0:0:
448,192,30176,1,0,0:0:0:0:
64,192,30334,1,4,2:0:0:0:
448,192,30334,1,4,3:0:0:0:
320,192,30334,1,0,0:0:0:0:
192,192,30808,1,0,0:0:0:0:
320,192,30808,1,4,3:0:0:0:
320,192,31124,1,4,3:0:0:0:
192,192,31124,1,0,0:0:0:0:
448,192,31282,1,4,3:0:0:0:
64,192,31282,1,0,0:0:0:0:
192,192,31282,1,0,0:0:0:0:
192,192,31439,1,4,3:0:0:0:
320,192,31518,1,4,3:0:0:0:
64,192,31597,1,4,2:0:0:0:
448,192,31597,1,4,3:0:0:0:
320,192,31676,1,0,0:0:0:0:
192,192,31755,1,0,0:0:0:0:
448,192,31913,1,4,3:0:0:0:
64,192,31913,1,0,0:0:0:0:
192,192,32071,1,0,0:0:0:0:
448,192,32229,1,4,1:0:0:0:
64,192,32229,1,4,1:0:0:0:
320,192,32229,1,0,0:0:0:0:
320,192,32387,1,4,1:0:0:0:
192,192,32387,1,4,1:0:0:0:
448,192,32387,1,0,0:0:0:0:
64,192,32545,1,4,1:0:0:0:
448,192,32545,1,4,1:0:0:0:
320,192,32545,1,0,0:0:0:0:
192,192,32703,1,0,0:0:0:0:
448,192,32703,1,0,0:0:0:0:
64,192,32860,1,0,0:0:0:0:
192,192,32860,1,4,3:0:0:0:
320,192,32939,1,0,0:0:0:0:
448,192,33018,1,0,0:0:0:0:
64,192,33176,1,4,3:0:0:0:
448,192,33176,1,0,0:0:0:0:
192,192,33334,1,0,0:0:0:0:
320,192,33334,1,0,0:0:0:0:
448,192,33492,1,0,0:0:0:0:
64,192,33492,1,4,3:0:0:0:
320,192,33571,1,0,0:0:0:0:
448,192,33650,1,0,0:0:0:0:
192,192,33808,1,4,3:0:0:0:
64,192,33808,1,0,0:0:0:0:
320,192,33966,1,0,0:0:0:0:
448,192,34045,1,0,0:0:0:0:
192,192,34124,1,0,0:0:0:0:
64,192,34203,1,0,0:0:0:0:
320,192,34282,1,0,0:0:0:0:
448,192,34282,1,0,0:0:0:0:
64,192,34439,1,0,0:0:0:0:
192,192,34439,1,4,3:0:0:0:
192,192,34597,1,0,0:0:0:0:
448,192,34597,1,0,0:0:0:0:
320,192,34755,1,4,3:0:0:0:
448,192,34755,1,0,0:0:0:0:
192,192,34834,1,0,0:0:0:0:
64,192,34913,1,0,0:0:0:0:
64,192,35071,1,4,3:0:0:0:
448,192,35071,1,0,0:0:0:0:
192,192,35229,1,0,0:0:0:0:
320,192,35229,1,0,0:0:0:0:
64,192,35387,128,0,35545:0:0:0:0:
448,192,35387,1,4,3:0:0:0:
320,192,35387,1,0,0:0:0:0:
192,192,35545,128,0,35703:0:0:0:0:
320,192,35703,128,0,35860:0:0:0:0:
64,192,35703,1,4,3:0:0:0:
448,192,35860,128,0,36018:0:0:0:0:
64,192,36018,128,0,36176:0:0:0:0:
192,192,36018,1,4,3:0:0:0:
192,192,36176,128,0,36334:0:0:0:0:
320,192,36334,128,0,36492:0:0:0:0:
448,192,36334,1,4,3:0:0:0:
448,192,36492,128,0,36650:0:0:0:0:
64,192,36650,1,4,2:0:0:0:
192,192,36650,1,4,2:0:0:0:
320,192,36729,1,0,0:0:0:0:
448,192,36808,1,0,0:0:0:0:
64,192,36966,1,0,0:0:0:0:
448,192,36966,1,4,3:0:0:0:
320,192,37124,1,0,0:0:0:0:
64,192,37124,1,0,0:0:0:0:
64,192,37282,1,4,1:0:0:0:
320,192,37282,1,4,1:0:0:0:
448,192,37282,1,0,0:0:0:0:
320,192,37439,1,4,1:0:0:0:
64,192,37439,1,4,1:0:0:0:
448,192,37439,1,0,0:0:0:0:
64,192,37597,1,4,1:0:0:0:
448,192,37597,1,4,1:0:0:0:
192,192,37597,1,0,0:0:0:0:
320,192,37755,1,0,0:0:0:0:
192,192,37834,1,0,0:0:0:0:
64,192,37913,1,0,0:0:0:0:
448,192,37913,1,4,3:0:0:0:
320,192,37992,1,0,0:0:0:0:
192,192,38071,1,0,0:0:0:0:
448,192,38229,1,4,3:0:0:0:
64,192,38229,1,0,0:0:0:0:
192,192,38387,1,0,0:0:0:0:
448,192,38387,1,0,0:0:0:0:
64,192,38545,1,0,0:0:0:0:
320,192,38545,1,4,3:0:0:0:
320,192,38703,1,0,0:0:0:0:
64,192,38703,1,0,0:0:0:0:
192,192,38860,1,0,0:0:0:0:
448,192,38860,1,4,3:0:0:0:
192,192,39018,1,0,0:0:0:0:
192,192,39097,1,0,0:0:0:0:
448,192,39176,1,4,3:0:0:0:
320,192,39176,1,0,0:0:0:0:
64,192,39255,1,0,0:0:0:0:
192,192,39334,1,0,0:0:0:0:
64,192,39492,1,0,0:0:0:0:
448,192,39492,1,4,3:0:0:0:
320,192,39650,1,0,0:0:0:0:
64,192,39650,1,0,0:0:0:0:
64,192,39808,1,0,0:0:0:0:
448,192,39808,1,4,3:0:0:0:
320,192,39966,1,0,0:0:0:0:
448,192,39966,1,0,0:0:0:0:
192,192,40124,1,4,3:0:0:0:
64,192,40124,1,0,0:0:0:0:
448,192,40203,1,0,0:0:0:0:
320,192,40282,1,0,0:0:0:0:
320,192,40439,1,4,3:0:0:0:
192,192,40439,1,0,0:0:0:0:
64,192,40597,1,0,0:0:0:0:
192,192,40676,1,0,0:0:0:0:
320,192,40755,1,4,3:0:0:0:
448,192,40755,1,0,0:0:0:0:
64,192,40913,1,0,0:0:0:0:
192,192,40913,1,0,0:0:0:0:
448,192,41071,1,0,0:0:0:0:
64,192,41071,1,4,3:0:0:0:
320,192,41150,1,0,0:0:0:0:
192,192,41229,1,0,0:0:0:0:
64,192,41387,1,0,0:0:0:0:
448,192,41387,1,4,3:0:0:0:
64,192,41545,1,0,0:0:0:0:
448,192,41545,1,4,3:0:0:0:
64,192,41703,1,4,2:0:0:0:
448,192,41703,1,4,2:0:0:0:
320,192,41703,1,4,2:0:0:0:
192,192,41782,1,0,0:0:0:0:
320,192,41860,1,0,0:0:0:0:
448,192,41939,1,0,0:0:0:0:
64,192,42018,1,4,3:0:0:0:
320,192,42018,1,0,0:0:0:0:
320,192,42176,1,0,0:0:0:0:
64,192,42176,1,0,0:0:0:0:
448,192,42334,1,4,1:0:0:0:
320,192,42334,1,0,0:0:0:0:
64,192,42334,1,4,1:0:0:0:
320,192,42492,1,4,1:0:0:0:
448,192,42492,1,4,1:0:0:0:
192,192,42492,1,0,0:0:0:0:
448,192,42650,1,4,1:0:0:0:
320,192,42650,1,0,0:0:0:0:
192,192,42650,1,4,1:0:0:0:
64,192,42808,1,0,0:0:0:0:
192,192,42887,1,0,0:0:0:0:
448,192,42966,1,4,3:0:0:0:
320,192,42966,1,0,0:0:0:0:
192,192,43045,1,0,0:0:0:0:
64,192,43124,1,0,0:0:0:0:
448,192,43282,1,4,3:0:0:0:
64,192,43282,1,0,0:0:0:0:
192,192,43439,1,0,0:0:0:0:
320,192,43439,1,0,0:0:0:0:
64,192,43597,1,0,0:0:0:0:
448,192,43597,1,4,3:0:0:0:
192,192,43755,1,0,0:0:0:0:
448,192,43755,1,0,0:0:0:0:
320,192,43913,1,4,3:0:0:0:
192,192,43913,1,0,0:0:0:0:
448,192,44071,1,0,0:0:0:0:
448,192,44150,1,0,0:0:0:0:
64,192,44229,1,0,0:0:0:0:
192,192,44229,1,4,3:0:0:0:
320,192,44308,1,0,0:0:0:0:
448,192,44387,1,0,0:0:0:0:
320,192,44545,1,4,3:0:0:0:
64,192,44545,1,0,0:0:0:0:
192,192,44703,1,0,0:0:0:0:
448,192,44703,1,0,0:0:0:0:
192,192,44860,1,0,0:0:0:0:
448,192,44860,1,4,3:0:0:0:
64,192,45018,1,0,0:0:0:0:
320,192,45018,1,0,0:0:0:0:
64,192,45176,1,0,0:0:0:0:
320,192,45176,1,4,3:0:0:0:
192,192,45334,1,0,0:0:0:0:
448,192,45334,1,0,0:0:0:0:
64,192,45492,1,0,0:0:0:0:
448,192,45492,1,4,3:0:0:0:
320,192,45571,1,0,0:0:0:0:
192,192,45650,1,0,0:0:0:0:
64,192,45808,1,0,0:0:0:0:
320,192,45808,1,4,3:0:0:0:
192,192,45966,1,0,0:0:0:0:
448,192,45966,1,0,0:0:0:0:
448,192,46124,1,4,3:0:0:0:
64,192,46124,1,0,0:0:0:0:
320,192,46282,1,0,0:0:0:0:
192,192,46282,1,0,0:0:0:0:
64,192,46439,1,0,0:0:0:0:
448,192,46439,1,4,3:0:0:0:
64,192,46597,1,0,0:0:0:0:
448,192,46597,1,4,3:0:0:0:
448,192,46755,1,4,2:0:0:0:
64,192,46755,1,4,2:0:0:0:
192,192,46755,1,4,2:0:0:0:
192,192,46913,1,0,0:0:0:0:
320,192,47071,1,4,3:0:0:0:
448,192,47071,1,0,0:0:0:0:
64,192,47229,1,0,0:0:0:0:
192,192,47387,1,4,1:0:0:0:
320,192,47387,1,4,1:0:0:0:
448,192,47545,1,0,0:0:0:0:
320,192,47703,1,4,1:0:0:0:
448,192,47703,1,4,1:0:0:0:
64,192,47860,1,0,0:0:0:0:
192,192,47939,1,0,0:0:0:0:
448,192,48018,1,4,3:0:0:0:
320,192,48018,1,0,0:0:0:0:
64,192,48176,1,0,0:0:0:0:
192,192,48334,1,4,3:0:0:0:
448,192,48334,1,0,0:0:0:0:
320,192,48492,1,0,0:0:0:0:
192,192,48650,1,4,1:0:0:0:
448,192,48650,1,4,1:0:0:0:
64,192,48808,1,0,0:0:0:0:
192,192,48966,1,4,1:0:0:0:
64,192,48966,1,4,1:0:0:0:
448,192,49124,1,0,0:0:0:0:
320,192,49203,1,0,0:0:0:0:
64,192,49282,1,0,0:0:0:0:
192,192,49282,1,4,3:0:0:0:
448,192,49282,1,0,0:0:0:0:
320,192,49439,1,0,0:0:0:0:
448,192,49597,1,4,3:0:0:0:
320,192,49597,1,0,0:0:0:0:
192,192,49755,1,0,0:0:0:0:
64,192,49913,1,4,1:0:0:0:
448,192,49913,1,4,1:0:0:0:
320,192,50071,1,0,0:0:0:0:
192,192,50229,1,4,1:0:0:0:
64,192,50229,1,4,1:0:0:0:
448,192,50387,1,0,0:0:0:0:
320,192,50466,1,4,3:0:0:0:
64,192,50545,1,4,0:0:0:0:
192,192,50545,1,4,3:0:0:0:
448,192,50545,1,0,0:0:0:0:
320,192,50703,1,0,0:0:0:0:
192,192,50860,1,0,0:0:0:0:
448,192,50860,1,4,3:0:0:0:
320,192,51018,1,0,0:0:0:0:
64,192,51176,1,0,0:0:0:0:
192,192,51176,1,4,3:0:0:0:
448,192,51176,1,0,0:0:0:0:
192,192,51334,1,0,0:0:0:0:
448,192,51492,1,4,3:0:0:0:
320,192,51492,1,0,0:0:0:0:
64,192,51650,1,0,0:0:0:0:
192,192,51729,1,4,3:0:0:0:
320,192,51808,1,4,3:0:0:0:
448,192,51808,1,0,0:0:0:0:
64,192,51808,1,0,0:0:0:0:
192,192,51966,1,0,0:0:0:0:
64,192,52124,1,0,0:0:0:0:
448,192,52124,1,4,3:0:0:0:
192,192,52282,1,0,0:0:0:0:
448,192,52439,1,4,1:0:0:0:
64,192,52439,1,4,1:0:0:0:
320,192,52597,1,4,1:0:0:0:
64,192,52755,1,4,1:0:0:0:
448,192,52755,1,4,1:0:0:0:
192,192,52913,1,0,0:0:0:0:
448,192,53071,128,0,53703:0:0:0:0:
320,192,53071,1,4,3:0:0:0:
192,192,53150,1,0,0:0:0:0:
64,192,53229,1,0,0:0:0:0:
320,192,53387,1,4,3:0:0:0:
64,192,53387,1,0,0:0:0:0:
192,192,53545,1,0,0:0:0:0:
320,192,53703,1,4,3:0:0:0:
64,192,53703,1,0,0:0:0:0:
192,192,53860,1,0,0:0:0:0:
320,192,53939,1,0,0:0:0:0:
64,192,54018,1,0,0:0:0:0:
448,192,54018,1,4,3:0:0:0:
192,192,54097,1,0,0:0:0:0:
320,192,54176,1,0,0:0:0:0:
448,192,54255,1,0,0:0:0:0:
64,192,54334,128,4,56860:0:0:0:0:
320,192,54334,1,4,2:0:0:0:
192,192,54334,1,4,2:0:0:0:
448,192,54492,1,0,0:0:0:0:
320,192,54650,1,4,3:0:0:0:
192,192,54808,1,0,0:0:0:0:
192,192,54887,1,0,0:0:0:0:
320,192,54966,1,0,0:0:0:0:
448,192,54966,1,4,3:0:0:0:
448,192,55124,1,0,0:0:0:0:
320,192,55282,1,4,3:0:0:0:
192,192,55439,1,0,0:0:0:0:
192,192,55518,1,4,3:0:0:0:
320,192,55597,1,4,1:0:0:0:
448,192,55597,1,4,1:0:0:0:
448,192,55755,1,0,0:0:0:0:
448,192,55834,1,4,3:0:0:0:
320,192,55913,1,4,1:0:0:0:
192,192,55913,1,0,0:0:0:0:
448,192,56071,1,0,0:0:0:0:
448,192,56150,1,4,3:0:0:0:
320,192,56229,1,4,1:0:0:0:
192,192,56229,1,0,0:0:0:0:
448,192,56545,128,0,56860:0:0:0:0:
320,192,56860,1,4,3:0:0:0:
192,192,56860,1,0,0:0:0:0:
448,192,57018,1,0,0:0:0:0:
192,192,57018,1,0,0:0:0:0:
448,192,57176,1,4,3:0:0:0:
320,192,57176,1,0,0:0:0:0:
64,192,57334,1,0,0:0:0:0:
320,192,57334,1,0,0:0:0:0:
192,192,57492,1,0,0:0:0:0:
448,192,57492,1,0,0:0:0:0:
192,192,57650,1,0,0:0:0:0:
64,192,57650,1,0,0:0:0:0:
64,192,57808,1,0,0:0:0:0:
320,192,57808,1,4,3:0:0:0:
448,192,57966,128,0,58282:0:0:0:0:
192,192,57966,128,0,58282:0:0:0:0:
64,192,58124,1,4,3:0:0:0:
64,192,58282,1,0,0:0:0:0:
320,192,58282,1,0,0:0:0:0:
64,192,58439,1,4,3:0:0:0:
448,192,58439,1,0,0:0:0:0:
448,192,58597,1,0,0:0:0:0:
64,192,58597,1,0,0:0:0:0:
320,192,58755,1,4,1:0:0:0:
192,192,58755,1,4,1:0:0:0:
64,192,58755,128,0,59071:0:0:0:0:
320,192,59071,1,4,1:0:0:0:
192,192,59071,1,4,1:0:0:0:
448,192,59071,128,0,59387:0:0:0:0:
64,192,59387,1,4,2:0:0:0:
320,192,59387,1,4,3:0:0:0:
64,192,59545,1,0,0:0:0:0:
448,192,59545,1,0,0:0:0:0:
192,192,59703,1,0,0:0:0:0:
320,192,59703,1,4,3:0:0:0:
320,192,59860,1,0,0:0:0:0:
192,192,59860,1,0,0:0:0:0:
192,192,60018,1,0,0:0:0:0:
448,192,60018,1,0,0:0:0:0:
448,192,60176,1,0,0:0:0:0:
64,192,60176,1,0,0:0:0:0:
64,192,60334,1,0,0:0:0:0:
320,192,60334,1,4,3:0:0:0:
64,192,60492,128,0,60808:0:0:0:0:
448,192,60492,1,0,0:0:0:0:
320,192,60808,1,0,0:0:0:0:
448,192,60808,128,0,60966:0:0:0:0:
320,192,60966,128,0,61124:0:0:0:0:
64,192,60966,1,4,3:0:0:0:
448,192,61124,128,0,61282:0:0:0:0:
192,192,61124,1,0,0:0:0:0:
64,192,61282,1,4,1:0:0:0:
320,192,61282,1,4,1:0:0:0:
448,192,61597,128,0,61913:0:0:0:0:
64,192,61597,1,4,1:0:0:0:
192,192,61597,1,0,0:0:0:0:
64,192,61913,1,4,0:0:0:0:
320,192,61913,1,4,3:0:0:0:
64,192,62071,1,0,0:0:0:0:
320,192,62071,1,0,0:0:0:0:
448,192,62229,1,0,3:0:0:0:
192,192,62229,1,0,0:0:0:0:
448,192,62387,1,0,0:0:0:0:
192,192,62387,1,0,0:0:0:0:
64,192,62545,1,0,0:0:0:0:
192,192,62545,1,0,0:0:0:0:
64,192,62703,1,0,0:0:0:0:
320,192,62703,1,0,0:0:0:0:
64,192,62860,1,0,0:0:0:0:
448,192,62860,1,4,3:0:0:0:
448,192,63018,128,0,63334:0:0:0:0:
64,192,63018,128,0,63334:0:0:0:0:
192,192,63176,1,4,3:0:0:0:
320,192,63176,1,0,0:0:0:0:
192,192,63334,1,0,0:0:0:0:
192,192,63492,1,0,0:0:0:0:
448,192,63492,1,4,3:0:0:0:
64,192,63650,1,0,0:0:0:0:
448,192,63650,1,0,0:0:0:0:
192,192,63808,1,4,1:0:0:0:
64,192,63808,128,0,64124:0:0:0:0:
448,192,63808,1,0,0:0:0:0:
320,192,64124,1,4,1:0:0:0:
192,192,64124,1,4,1:0:0:0:
448,192,64124,128,0,64439:0:0:0:0:
64,192,64439,1,4,2:0:0:0:
320,192,64439,1,4,2:0:0:0:
192,192,64439,1,0,0:0:0:0:
64,192,64597,1,0,0:0:0:0:
448,192,64597,1,0,0:0:0:0:
320,192,64755,1,0,0:0:0:0:
192,192,64755,1,4,3:0:0:0:
64,192,64913,1,0,0:0:0:0:
448,192,64913,1,0,0:0:0:0:
320,192,65071,1,4,3:0:0:0:
448,192,65071,1,0,0:0:0:0:
320,192,65229,1,0,0:0:0:0:
64,192,65229,1,0,0:0:0:0:
320,192,65387,1,4,3:0:0:0:
64,192,65387,1,0,0:0:0:0:
448,192,65545,1,0,0:0:0:0:
192,192,65545,1,0,0:0:0:0:
64,192,65703,1,0,2:0:0:0:
448,192,65703,1,4,2:0:0:0:
192,192,65703,1,4,3:0:0:0:
448,192,65860,1,0,0:0:0:0:
64,192,65860,1,0,0:0:0:0:
320,192,66018,1,4,3:0:0:0:
192,192,66018,1,0,0:0:0:0:
448,192,66176,1,0,0:0:0:0:
64,192,66176,1,0,0:0:0:0:
448,192,66255,1,0,0:0:0:0:
192,192,66334,1,0,0:0:0:0:
320,192,66334,1,4,3:0:0:0:
64,192,66650,1,0,0:0:0:0:
192,192,66729,1,0,0:0:0:0:
448,192,66808,1,0,0:0:0:0:
320,192,66887,1,0,0:0:0:0:
192,192,66966,1,0,0:0:0:0:
64,192,66966,1,4,0:0:0:0:
448,192,66966,1,0,0:0:0:0:
64,192,67282,1,0,0:0:0:0:
64,192,67597,1,0,0:0:0:0:
64,192,67913,1,0,0:0:0:0:
64,192,68071,1,0,0:0:0:0:
320,192,68229,1,4,3:0:0:0:
448,192,68229,1,4,3:0:0:0:
64,192,68545,1,0,0:0:0:0:
64,192,69176,5,0,0:0:0:0:
192,192,69255,1,0,0:0:0:0:
320,192,69334,1,0,0:0:0:0:
448,192,69413,1,0,0:0:0:0:
192,192,69492,5,4,3:0:0:0:
64,192,69492,1,0,0:0:0:0:
320,192,69492,1,0,0:0:0:0:
192,192,70124,1,0,0:0:0:0:
320,192,70124,1,4,3:0:0:0:
448,192,70124,1,4,3:0:0:0:
64,192,70755,1,0,0:0:0:0:
192,192,70755,1,4,3:0:0:0:
320,192,70755,1,4,3:0:0:0:
64,192,71071,1,0,0:0:0:0:
192,192,71071,1,4,3:0:0:0:
320,192,71071,1,4,3:0:0:0:
448,192,71387,1,4,3:0:0:0:
320,192,71387,1,4,3:0:0:0:
192,192,71387,1,0,0:0:0:0:
320,192,71703,1,4,3:0:0:0:
320,192,71860,1,4,3:0:0:0:
320,192,71939,1,4,3:0:0:0:
64,192,72018,1,4,3:0:0:0:
320,192,72018,1,0,0:0:0:0:
448,192,72018,1,0,0:0:0:0:
192,192,72176,1,0,0:0:0:0:
448,192,72176,1,0,0:0:0:0:
64,192,72334,1,0,0:0:0:0:
448,192,72334,1,4,3:0:0:0:
320,192,72492,1,0,0:0:0:0:
64,192,72492,1,0,0:0:0:0:
192,192,72650,1,0,0:0:0:0:
448,192,72650,1,4,3:0:0:0:
320,192,72808,1,0,0:0:0:0:
64,192,72808,1,0,0:0:0:0:
64,192,72966,1,4,3:0:0:0:
448,192,72966,1,0,0:0:0:0:
64,192,73124,1,0,0:0:0:0:
192,192,73203,1,0,0:0:0:0:
448,192,73282,1,4,3:0:0:0:
64,192,73282,1,0,0:0:0:0:
320,192,73360,1,0,0:0:0:0:
192,192,73439,1,0,0:0:0:0:
64,192,73597,1,4,3:0:0:0:
448,192,73597,1,0,0:0:0:0:
320,192,73755,1,0,0:0:0:0:
64,192,73755,1,0,0:0:0:0:
64,192,73913,1,4,1:0:0:0:
192,192,73913,1,4,1:0:0:0:
448,192,74071,1,4,1:0:0:0:
192,192,74071,1,4,1:0:0:0:
64,192,74229,1,4,1:0:0:0:
448,192,74229,1,4,1:0:0:0:
320,192,74387,1,0,0:0:0:0:
320,192,74466,1,0,0:0:0:0:
64,192,74545,1,0,0:0:0:0:
448,192,74545,1,4,3:0:0:0:
192,192,74545,1,0,0:0:0:0:
320,192,74624,1,0,0:0:0:0:
448,192,74703,1,0,0:0:0:0:
448,192,74860,1,4,3:0:0:0:
192,192,74860,1,0,0:0:0:0:
64,192,75018,128,0,75492:0:0:0:0:
320,192,75018,1,0,0:0:0:0:
192,192,75176,1,4,3:0:0:0:
448,192,75176,1,0,0:0:0:0:
192,192,75334,1,0,0:0:0:0:
448,192,75492,1,4,3:0:0:0:
320,192,75492,1,0,0:0:0:0:
192,192,75650,1,0,0:0:0:0:
320,192,75650,1,0,0:0:0:0:
64,192,75808,1,0,0:0:0:0:
192,192,75808,1,4,3:0:0:0:
448,192,75966,1,0,0:0:0:0:
320,192,76045,1,0,0:0:0:0:
64,192,76124,1,0,0:0:0:0:
192,192,76124,1,4,3:0:0:0:
448,192,76282,1,0,0:0:0:0:
192,192,76282,1,0,0:0:0:0:
320,192,76439,1,4,3:0:0:0:
64,192,76439,1,0,0:0:0:0:
192,192,76597,1,0,0:0:0:0:
448,192,76597,1,0,0:0:0:0:
448,192,76755,1,4,3:0:0:0:
64,192,76755,1,0,0:0:0:0:
448,192,76913,1,4,3:0:0:0:
64,192,76913,1,0,0:0:0:0:
192,192,77071,1,4,2:0:0:0:
448,192,77071,1,0,0:0:0:0:
320,192,77071,1,4,2:0:0:0:
64,192,77229,1,0,0:0:0:0:
320,192,77229,1,0,0:0:0:0:
448,192,77387,1,4,3:0:0:0:
448,192,77466,1,0,0:0:0:0:
64,192,77545,1,0,0:0:0:0:
320,192,77545,1,0,0:0:0:0:
64,192,77703,1,4,1:0:0:0:
64,192,77782,1,0,0:0:0:0:
192,192,77860,1,4,1:0:0:0:
448,192,77860,1,4,1:0:0:0:
64,192,78018,1,4,3:0:0:0:
64,192,78097,1,0,0:0:0:0:
448,192,78176,1,0,0:0:0:0:
192,192,78176,1,0,0:0:0:0:
64,192,78334,1,4,3:0:0:0:
64,192,78413,1,0,0:0:0:0:
192,192,78492,1,0,0:0:0:0:
448,192,78492,1,0,0:0:0:0:
320,192,78650,1,4,3:0:0:0:
320,192,78729,1,0,0:0:0:0:
64,192,78808,1,0,0:0:0:0:
448,192,78808,1,0,0:0:0:0:
192,192,78966,1,4,3:0:0:0:
192,192,79045,1,0,0:0:0:0:
64,192,79124,1,0,0:0:0:0:
448,192,79124,1,0,0:0:0:0:
320,192,79282,1,4,3:0:0:0:
192,192,79282,1,0,0:0:0:0:
448,192,79360,1,0,0:0:0:0:
64,192,79439,1,0,0:0:0:0:
192,192,79518,1,0,0:0:0:0:
320,192,79597,1,0,0:0:0:0:
448,192,79597,1,4,1:0:0:0:
64,192,79676,1,0,0:0:0:0:
192,192,79755,1,0,0:0:0:0:
64,192,79913,1,0,0:0:0:0:
448,192,79913,1,4,3:0:0:0:
64,192,80071,128,0,80545:0:0:0:0:
448,192,80071,1,0,0:0:0:0:
192,192,80229,1,0,0:0:0:0:
320,192,80229,1,4,1:0:0:0:
320,192,80387,1,4,1:0:0:0:
192,192,80387,1,0,0:0:0:0:
192,192,80545,1,0,0:0:0:0:
448,192,80545,1,4,1:0:0:0:
192,192,80703,1,0,0:0:0:0:
320,192,80703,1,0,0:0:0:0:
64,192,80860,1,0,0:0:0:0:
448,192,80860,1,4,3:0:0:0:
320,192,80939,1,0,0:0:0:0:
192,192,81018,1,0,0:0:0:0:
192,192,81176,1,0,0:0:0:0:
448,192,81176,1,4,3:0:0:0:
64,192,81334,1,0,0:0:0:0:
192,192,81413,1,0,0:0:0:0:
448,192,81492,1,4,3:0:0:0:
320,192,81492,1,0,0:0:0:0:
320,192,81650,1,0,0:0:0:0:
64,192,81650,1,0,0:0:0:0:
64,192,81808,1,0,0:0:0:0:
448,192,81808,1,4,3:0:0:0:
192,192,81966,1,0,0:0:0:0:
320,192,81966,1,4,3:0:0:0:
448,192,82124,1,4,2:0:0:0:
64,192,82124,1,4,2:0:0:0:
192,192,82124,1,0,0:0:0:0:
320,192,82203,1,0,0:0:0:0:
192,192,82282,1,0,0:0:0:0:
448,192,82439,1,0,0:0:0:0:
192,192,82439,1,4,3:0:0:0:
64,192,82597,1,0,0:0:0:0:
448,192,82755,1,4,1:0:0:0:
192,192,82755,1,0,0:0:0:0:
320,192,82913,1,0,0:0:0:0:
448,192,83071,1,4,1:0:0:0:
320,192,83071,1,0,0:0:0:0:
64,192,83229,1,0,0:0:0:0:
192,192,83387,1,4,3:0:0:0:
448,192,83387,1,0,0:0:0:0:
320,192,83545,1,0,0:0:0:0:
192,192,83703,1,4,3:0:0:0:
64,192,83703,1,0,0:0:0:0:
320,192,83860,1,0,0:0:0:0:
448,192,84018,1,0,0:0:0:0:
64,192,84018,1,4,1:0:0:0:
192,192,84176,1,0,0:0:0:0:
448,192,84334,1,0,0:0:0:0:
64,192,84334,1,4,1:0:0:0:
320,192,84492,1,0,0:0:0:0:
192,192,84650,1,0,0:0:0:0:
448,192,84650,1,4,3:0:0:0:
64,192,84650,1,0,0:0:0:0:
64,192,84808,1,0,0:0:0:0:
192,192,84966,1,0,0:0:0:0:
320,192,84966,1,4,3:0:0:0:
448,192,85124,1,0,0:0:0:0:
448,192,85282,1,4,1:0:0:0:
192,192,85282,1,0,0:0:0:0:
64,192,85439,1,0,0:0:0:0:
192,192,85597,1,0,0:0:0:0:
448,192,85597,1,4,1:0:0:0:
320,192,85755,1,0,0:0:0:0:
192,192,85913,1,0,0:0:0:0:
448,192,85913,1,4,3:0:0:0:
64,192,85913,1,0,0:0:0:0:
320,192,86071,1,0,0:0:0:0:
192,192,86229,1,4,1:0:0:0:
64,192,86229,1,0,0:0:0:0:
320,192,86387,1,0,0:0:0:0:
192,192,86545,1,4,1:0:0:0:
448,192,86545,1,0,0:0:0:0:
64,192,86545,1,0,0:0:0:0:
320,192,86703,1,0,0:0:0:0:
448,192,86860,1,4,3:0:0:0:
64,192,86860,1,0,0:0:0:0:
64,192,87018,1,0,0:0:0:0:
448,192,87018,1,4,3:0:0:0:
192,192,87176,1,4,2:0:0:0:
64,192,87176,1,0,0:0:0:0:
320,192,87176,1,4,2:0:0:0:
192,192,87334,1,0,0:0:0:0:
448,192,87334,1,0,0:0:0:0:
448,192,87492,1,4,3:0:0:0:
64,192,87492,1,0,0:0:0:0:
320,192,87650,1,0,0:0:0:0:
192,192,87650,1,0,0:0:0:0:
64,192,87808,1,0,0:0:0:0:
448,192,87808,1,4,3:0:0:0:
320,192,87966,1,0,0:0:0:0:
64,192,87966,1,0,0:0:0:0:
64,192,88124,1,0,0:0:0:0:
448,192,88124,1,4,3:0:0:0:
192,192,88282,1,0,0:0:0:0:
320,192,88282,1,0,0:0:0:0:
192,192,88439,1,0,0:0:0:0:
64,192,88439,1,4,3:0:0:0:
448,192,88439,1,0,0:0:0:0:
320,192,88518,1,0,0:0:0:0:
448,192,88597,1,0,0:0:0:0:
64,192,88755,1,4,3:0:0:0:
320,192,88755,1,0,0:0:0:0:
448,192,88913,1,0,0:0:0:0:
64,192,88913,1,0,0:0:0:0:
192,192,89071,1,4,3:0:0:0:
448,192,89071,1,0,0:0:0:0:
448,192,89229,1,0,0:0:0:0:
64,192,89229,1,0,0:0:0:0:
448,192,89387,1,0,0:0:0:0:
64,192,89387,1,4,3:0:0:0:
192,192,89466,1,0,0:0:0:0:
320,192,89545,1,0,0:0:0:0:
448,192,89624,1,0,0:0:0:0:
192,192,89703,1,4,2:0:0:0:
320,192,89703,1,4,2:0:0:0:
64,192,89703,128,0,91913:0:0:0:0:
320,192,89860,1,0,0:0:0:0:
320,192,90018,1,0,0:0:0:0:
448,192,90018,1,4,3:0:0:0:
192,192,90176,1,0,0:0:0:0:
320,192,90255,1,4,3:0:0:0:
448,192,90334,1,4,3:0:0:0:
192,192,90334,1,0,0:0:0:0:
192,192,90492,1,0,0:0:0:0:
320,192,90571,1,0,0:0:0:0:
448,192,90650,1,4,3:0:0:0:
192,192,90650,1,0,0:0:0:0:
192,192,90808,1,0,0:0:0:0:
320,192,90887,1,4,3:0:0:0:
448,192,90966,1,0,0:0:0:0:
192,192,90966,1,4,3:0:0:0:
448,192,91124,1,0,0:0:0:0:
320,192,91203,1,4,3:0:0:0:
448,192,91282,1,4,3:0:0:0:
192,192,91282,1,0,0:0:0:0:
448,192,91439,1,0,0:0:0:0:
320,192,91518,1,4,3:0:0:0:
192,192,91597,1,4,3:0:0:0:
448,192,91597,1,0,0:0:0:0:
448,192,91755,1,0,0:0:0:0:
320,192,91834,1,4,3:0:0:0:
192,192,91913,1,0,0:0:0:0:
448,192,91913,1,4,3:0:0:0:
320,192,91992,1,0,0:0:0:0:
192,192,92071,1,4,3:0:0:0:
64,192,92150,1,4,3:0:0:0:
320,192,92229,1,4,2:0:0:0:
448,192,92229,1,4,2:0:0:0:
192,192,92229,1,0,0:0:0:0:
320,192,92387,1,0,0:0:0:0:
64,192,92387,1,0,0:0:0:0:
448,192,92545,1,4,3:0:0:0:
192,192,92545,1,0,0:0:0:0:
448,192,92703,1,0,0:0:0:0:
192,192,92703,1,0,0:0:0:0:
320,192,92860,1,4,3:0:0:0:
64,192,92860,1,0,0:0:0:0:
64,192,93018,1,0,0:0:0:0:
320,192,93018,1,0,0:0:0:0:
192,192,93176,1,0,0:0:0:0:
448,192,93176,1,4,3:0:0:0:
448,192,93334,128,0,93650:0:0:0:0:
64,192,93334,1,0,0:0:0:0:
192,192,93492,1,4,3:0:0:0:
64,192,93650,1,0,0:0:0:0:
320,192,93650,1,0,0:0:0:0:
320,192,93808,1,4,3:0:0:0:
64,192,93808,1,0,0:0:0:0:
192,192,93966,1,0,0:0:0:0:
448,192,93966,1,0,0:0:0:0:
64,192,94124,1,4,1:0:0:0:
320,192,94124,1,4,1:0:0:0:
448,192,94124,128,0,94282:0:0:0:0:
192,192,94282,1,0,0:0:0:0:
448,192,94439,1,4,1:0:0:0:
192,192,94439,1,4,1:0:0:0:
64,192,94439,128,0,94597:0:0:0:0:
320,192,94597,1,0,0:0:0:0:
320,192,94755,1,4,2:0:0:0:
192,192,94755,1,0,0:0:0:0:
192,192,94913,1,0,0:0:0:0:
320,192,94913,1,0,0:0:0:0:
64,192,95071,1,0,0:0:0:0:
448,192,95071,1,4,3:0:0:0:
64,192,95229,1,0,0:0:0:0:
448,192,95229,1,0,0:0:0:0:
192,192,95387,1,4,3:0:0:0:
320,192,95387,1,0,0:0:0:0:
192,192,95545,1,0,0:0:0:0:
448,192,95545,1,0,0:0:0:0:
192,192,95703,1,0,0:0:0:0:
320,192,95703,1,4,3:0:0:0:
64,192,95860,128,0,96176:0:0:0:0:
320,192,95860,128,0,96176:0:0:0:0:
448,192,95860,1,0,0:0:0:0:
192,192,96176,128,0,96334:0:0:0:0:
448,192,96176,1,0,0:0:0:0:
320,192,96334,128,0,96492:0:0:0:0:
64,192,96334,1,4,3:0:0:0:
448,192,96492,128,0,96650:0:0:0:0:
64,192,96492,1,0,0:0:0:0:
192,192,96650,1,4,1:0:0:0:
64,192,96650,1,4,1:0:0:0:
320,192,96650,1,0,0:0:0:0:
320,192,96808,1,4,1:0:0:0:
192,192,96808,1,4,1:0:0:0:
64,192,96808,1,0,0:0:0:0:
448,192,96966,1,4,1:0:0:0:
320,192,96966,1,4,1:0:0:0:
64,192,96966,1,0,0:0:0:0:
320,192,97124,1,0,0:0:0:0:
64,192,97124,1,4,3:0:0:0:
448,192,97282,1,4,2:0:0:0:
320,192,97282,1,4,2:0:0:0:
192,192,97282,1,4,3:0:0:0:
64,192,97439,1,0,0:0:0:0:
320,192,97439,1,0,0:0:0:0:
64,192,97597,1,0,0:0:0:0:
448,192,97597,1,4,3:0:0:0:
192,192,97755,1,0,0:0:0:0:
448,192,97755,1,0,0:0:0:0:
320,192,97913,1,4,3:0:0:0:
64,192,97913,1,0,0:0:0:0:
64,192,98071,1,0,0:0:0:0:
320,192,98071,1,0,0:0:0:0:
448,192,98229,1,0,0:0:0:0:
64,192,98229,1,4,3:0:0:0:
64,192,98387,128,0,98703:0:0:0:0:
320,192,98545,1,0,0:0:0:0:
448,192,98545,1,4,3:0:0:0:
320,192,98703,1,0,0:0:0:0:
448,192,98860,1,4,3:0:0:0:
64,192,98860,1,0,0:0:0:0:
64,192,99018,1,0,0:0:0:0:
448,192,99018,1,0,0:0:0:0:
320,192,99176,1,4,1:0:0:0:
192,192,99176,1,4,1:0:0:0:
64,192,99176,128,0,99334:0:0:0:0:
448,192,99334,1,0,0:0:0:0:
64,192,99492,1,4,1:0:0:0:
448,192,99492,128,0,99808:0:0:0:0:
320,192,99492,1,4,1:0:0:0:
64,192,99650,1,0,0:0:0:0:
192,192,99729,1,4,3:0:0:0:
320,192,99808,1,4,2:0:0:0:
64,192,99808,1,4,2:0:0:0:
192,192,99966,1,0,0:0:0:0:
448,192,99966,1,0,0:0:0:0:
64,192,100124,1,0,0:0:0:0:
320,192,100124,1,0,0:0:0:0:
192,192,100282,1,0,0:0:0:0:
64,192,100360,1,0,3:0:0:0:
448,192,100439,1,0,0:0:0:0:
192,192,100439,1,4,2:0:0:0:
320,192,100439,1,4,2:0:0:0:
64,192,100597,1,0,0:0:0:0:
320,192,100597,1,0,0:0:0:0:
448,192,100755,1,4,3:0:0:0:
192,192,100755,1,0,0:0:0:0:
320,192,100913,1,0,0:0:0:0:
64,192,100913,1,0,0:0:0:0:
64,192,101071,1,4,2:0:0:0:
448,192,101071,1,4,2:0:0:0:
192,192,101071,1,0,0:0:0:0:
320,192,101229,1,0,0:0:0:0:
64,192,101229,1,0,0:0:0:0:
64,192,101387,1,4,2:0:0:0:
448,192,101387,1,4,2:0:0:0:
192,192,101387,1,4,1:0:0:0:
192,192,101545,1,0,0:0:0:0:
320,192,101545,1,0,0:0:0:0:
64,192,101703,128,0,104229:0:0:0:0:
320,192,101703,128,0,104229:0:0:0:0:
448,192,101703,128,0,104229:0:0:0:0:
192,192,101703,128,4,104229:1:0:0:0:
