osu file format v9

[General]
AudioFilename: CRAZY LOVE.mp3
AudioLeadIn: 0
PreviewTime: -1
Countdown: 1
SampleSet: Normal
StackLeniency: 0.7
Mode: 0
LetterboxInBreaks: 1

[Editor]
DistanceSpacing: 0.8
BeatDivisor: 2
GridSize: 8

[Metadata]
Title:CRAZYLOVE
Artist:jun
Creator:Sonic1021
Version:Hard
Source:
Tags:

[Difficulty]
HPDrainRate:5
CircleSize:5
OverallDifficulty:5
ApproachRate:5
SliderMultiplier:1.4
SliderTickRate:1

[Events]
//Background and Video events
0,0,"CRAZY LOVE-bg.png"
//Break Periods
//Storyboard Layer 0 (Background)
//Storyboard Layer 1 (Fail)
//Storyboard Layer 2 (Pass)
//Storyboard Layer 3 (Foreground)
//Storyboard Sound Samples
//Background Colour Transformations
3,100,163,162,255

[TimingPoints]
0,171.184022824536,4,1,0,100,1,0

[HitObjects]
229,125,5392,1,0
120,169,5820,1,0
175,272,6162,1,0
387,167,6504,1,0
295,64,6847,1,0
169,197,7189,1,0
318,279,7617,1,0
239,85,7960,1,0
114,116,8302,1,0
163,283,8644,1,0
268,181,9072,1,0
374,138,9329,1,0
217,6,9586,1,0
126,161,9928,1,0
135,229,10271,1,0
255,277,10527,1,0
331,83,10784,1,0
185,122,11126,1,0
195,227,11469,1,0
362,116,11726,1,0
264,156,12068,1,0
237,194,12325,1,0
343,173,12667,1,0
281,252,13009,1,0
255,237,13352,1,0
327,229,13609,1,0
299,172,13951,1,0
279,148,14208,1,0
229,153,14379,1,0
182,245,14721,1,0
248,232,15064,1,0
316,252,15320,1,0
224,262,15663,1,0
237,316,16091,1,0
369,281,16348,1,0
348,174,16604,1,0
250,225,16947,1,0
289,280,17289,1,0
301,194,17631,1,0
251,124,17974,1,0
174,184,18316,1,0
149,249,18659,1,0
243,281,18915,1,0
362,247,19343,1,0
356,131,19600,1,0
239,77,19857,1,0
192,140,20199,1,0
215,248,20542,1,0
272,255,20884,1,0
215,320,21141,1,0
136,244,21483,1,0
173,111,21740,1,0
338,138,22082,1,0
324,223,22339,1,0
210,244,22681,1,0
236,206,22938,1,0
272,169,23366,1,0
238,111,23623,1,0
204,123,23965,1,0
176,159,24222,1,0
162,202,24479,1,0
179,237,24736,1,0
212,254,24992,1,0
254,250,25335,1,0
310,231,25677,1,0
319,203,25934,1,0
284,147,26276,1,0
253,139,26533,1,0
219,168,26790,1,0
233,196,27047,1,0
256,217,27303,1,0
256,217,27560,1,0
256,217,27902,1,0
256,217,28159,1,0
256,217,28502,1,0
302,177,28844,1,0
302,177,29101,1,0
315,144,29443,1,0
315,144,29786,1,0
287,80,30128,1,0
256,77,30385,1,0
226,92,30727,1,0
204,109,31069,1,0
179,158,31326,1,0
171,190,31669,1,0
209,227,32011,1,0
187,59,32524,1,0
242,142,32696,1,0
358,129,33295,5,0
228,92,33466,1,0
310,82,33637,1,0
187,59,33808,1,0
237,131,33980,1,0
138,141,34065,1,0
221,213,34407,1,0
333,151,34835,1,0
310,82,35178,1,0
192,94,35606,1,0
170,194,35948,1,0
271,226,36376,1,0
309,121,36718,1,0
192,94,37061,1,0
122,184,37403,1,0
202,253,37660,1,0
399,167,38002,1,0
279,130,38345,1,0
235,130,38601,1,0
380,143,38944,1,0
279,130,39372,1,0
327,140,39629,1,0
293,156,40057,1,0
256,170,40313,1,0
256,170,40570,1,0
239,203,40827,1,0
239,203,41084,1,0
204,240,41340,1,0
164,248,41768,1,0
122,216,42025,1,0
106,162,42368,1,0
141,122,42796,1,0
202,105,43138,1,0
241,130,43395,1,0
243,181,43737,1,0
221,242,43994,1,0
174,269,44336,1,0
101,258,44679,1,0
82,185,45192,1,0
82,185,45449,1,0
143,136,45791,1,0
311,141,46305,1,0
263,223,46733,1,0
167,218,47075,1,0
200,113,47417,1,0
327,90,47760,1,0
371,147,48188,1,0
341,202,48616,1,0
203,234,48873,1,0
221,122,49557,1,0
273,179,49900,1,0
247,262,50242,1,0
107,209,50756,1,0
221,122,51098,1,0
286,80,51526,1,0
336,161,51868,1,0
248,216,52211,1,0
163,202,52553,1,0
146,133,52810,1,0
237,143,53152,1,0
237,143,53580,1,0
237,143,53922,1,0
237,143,54265,1,0
341,154,54693,1,0
268,255,55035,1,0
153,218,55378,1,0
257,112,55720,1,0
318,83,55977,1,0
161,64,56233,1,0
109,176,56490,1,0
200,239,56833,1,0
325,237,57175,1,0
421,86,57517,1,0
276,53,57774,1,0
240,101,58116,1,0
219,182,58373,1,0
176,191,58801,1,0
139,136,59144,1,0
179,102,59572,1,0
333,86,59914,1,0
319,192,60256,1,0
195,227,60684,1,0
120,120,61112,1,0
229,59,61455,1,0
272,165,61797,1,0
349,185,62310,1,0
278,219,62653,1,0
369,80,62738,5,0
291,137,62995,1,0
185,233,63081,1,0
160,149,63423,1,0
287,105,63766,1,0
403,111,64194,1,0
340,211,64536,1,0
235,184,64964,1,0
239,94,65306,1,0
351,80,65649,1,0
391,162,65905,1,0
240,225,66333,1,0
149,159,66761,1,0
166,97,67104,1,0
332,178,67532,1,0
332,178,67874,1,0
221,130,68216,1,0
278,62,68644,1,0
306,149,68987,1,0
222,239,69415,1,0
126,206,69843,1,0
141,40,70271,1,0
289,74,70613,1,0
311,184,70955,1,0
214,180,71298,1,0
161,251,71726,1,0
246,294,72068,1,0
374,276,72410,1,0
347,161,72838,1,0
274,139,73181,1,0
375,152,73609,1,0
358,226,74037,1,0
268,252,74379,1,0
274,139,74721,1,0
244,167,75064,1,0
236,209,75492,1,0
282,218,75834,1,0
316,158,76176,1,0
281,141,76519,1,0
233,180,76947,1,0
282,218,77289,1,0
311,202,77631,1,0
312,159,77974,1,0
266,149,78316,1,0
237,163,78659,1,0
232,194,79001,1,0
273,234,79258,1,0
273,234,79600,1,0
209,258,79857,1,0
209,258,80114,1,0
169,239,80456,1,0
156,209,80713,1,0
156,173,80970,1,0
156,173,81312,1,0
177,121,81569,1,0
177,121,81825,1,0
221,101,82253,1,0
251,94,82596,1,0
251,94,82938,1,0
251,94,83195,1,0
269,134,83452,1,0
269,134,83794,1,0
308,151,84393,1,0
344,120,84821,1,0
359,99,85164,1,0
359,99,85592,1,0
399,114,85934,1,0
399,114,86191,1,0
415,154,86533,1,0
405,191,86961,1,0
405,191,87303,1,0
376,229,87646,1,0
351,246,87902,1,0
324,267,88245,1,0
297,279,88502,1,0
269,286,88844,1,0
269,286,89186,1,0
223,242,89443,1,0
207,221,89786,1,0
190,189,90213,1,0
190,189,90556,1,0
175,159,90898,1,0
175,159,91241,1,0
166,134,91497,1,0
166,134,91840,1,0
166,134,92353,1,0
156,95,92610,1,0
156,95,92952,1,0
246,62,93466,1,0
280,72,93723,1,0
314,84,94065,1,0
338,133,94407,1,0
313,229,94921,1,0
169,239,95263,1,0
138,187,95606,1,0
239,224,96205,1,0
259,92,96890,1,0
174,150,97489,1,0
319,308,98259,1,0
357,143,98858,1,0
191,216,99372,1,0
61,139,100570,2,0,B|339:64|453:143|269:191,6,350
256,192,104593,12,0,106818
