osu file format v5

[General]
AudioFilename: Jubeat-IN THE NAME OF LOVE.mp3
AudioLeadIn: 0
PreviewTime: -1
Countdown: 1
SampleSet: Normal
StackLeniency: 0.7
Mode: 0
LetterboxInBreaks: 1

[Metadata]
Title:IN THE NAME OF LOVE
Artist:
Creator:verochan
Version:Hard
Source:
Tags:

[Difficulty]
HPDrainRate:5
CircleSize:5
OverallDifficulty:5
SliderMultiplier:1.4
SliderTickRate:1

[Events]
//Background and Video events
//Break Periods
2,25603,35090
2,87925,97703
//Storyboard Layer 0 (Background)
//Storyboard Layer 1 (Failing)
//Storyboard Layer 2 (Passing)
//Storyboard Layer 3 (Foreground)
//Storyboard Sound Samples
//Background Colour Transformations
3,100,163,162,255

[TimingPoints]
0,387.096774193548,4,1,0,100,1,0

[HitObjects]
256,192,5419,5,0
256,192,5806,5,0
256,192,6193,5,0
256,192,6580,5,0
352,192,6967,6,2,B|320:224|352:224,2,35
352,96,7548,5,0
288,96,7935,2,0,B|224:96,1,52.5,0|0
192,96,8322,1,0
128,160,8758,2,0,B|192:160,2,52.5
160,224,9483,1,0
160,224,9677,1,0
224,224,9870,5,8
256,224,10258,1,8
288,224,10645,1,8
320,224,11032,1,8
384,224,11419,6,2,B|384:128|320:96,1,140
224,128,12677,6,0,B|192:160,2,35
288,128,13354,2,2,B|320:96,1,35
352,128,13741,2,2,B|384:96,1,35
416,128,14129,2,2,B|448:96,1,35
416,192,14516,2,2,B|448:224,1,35
440,216,14903,1,10
352,224,15290,6,0,B|288:224,2,52.5
352,288,15774,1,0
352,288,15919,1,0
352,288,16161,1,0
288,320,16403,2,0,B|256:288,1,35
224,320,16693,2,0,B|160:256,1,87.5
160,256,17032,2,0,B|192:224,1,35
256,224,17419,1,0
256,224,17612,1,0
320,224,17806,1,0
320,224,17999,1,0
352,288,18241,2,2,B|384:224,3,70
448,224,19112,2,0,B|448:128|352:128,1,140
320,128,19741,5,8
320,128,19935,1,8
256,128,20177,2,8,B|192:128,1,52.5
160,128,20516,5,8
160,128,20709,1,8
96,128,20903,2,8,B|64:160|96:192,2,70
128,64,21483,1,8
128,64,21677,2,8,B|192:64,1,52.5
256,64,21967,1,8
256,64,22161,1,8
256,64,22354,1,8
320,64,22548,2,2,B|320:128,1,52.5
384,128,23032,5,0
416,192,23225,2,2,B|352:224,1,70
352,224,23661,2,2,B|288:192,1,70
224,192,24048,6,0,B|192:256,1,70
160,192,24532,2,8,B|128:256,1,70
128,254,24870,1,2
256,192,25016,12,2,25403
256,192,36291,5,0
288,160,36629,1,0
320,128,36871,1,0
345,164,37161,6,0,B|352:256|288:256,1,122.5
256,256,37693,1,2
192,256,38612,6,0,B|160:224,2,35
256,192,39629,2,0,B|192:128|128:192,1,140
128,128,40354,1,0
160,96,40644,2,2,B|160:64|256:32,1,105
256,128,41564,6,2,B|320:128,2,52.5
256,128,41999,1,2
384,160,42629,1,10
352,192,43016,1,10
320,224,43258,2,10,B|256:288|192:224,1,140
256,192,44322,5,8
320,128,44709,1,8
256,128,44999,2,8,B|160:96|128:192|128:256|192:288|288:256,1,315
288,256,46160,2,8,B|384:160,1,122.5
314,128,47419,6,0,B|160:128,1,140
160,160,48193,1,0
192,192,48387,2,0,B|320:192,1,122.5
224,128,50177,5,0
224,128,50322,1,0
224,128,50467,2,0,B|320:128,1,87.5
352,160,51096,1,0
320,192,51434,1,0
288,224,51773,1,0
224,224,52209,1,0
160,224,52402,2,2,B|128:160|192:96,1,140
224,64,53564,6,0,B|256:96,1,35
288,96,54193,1,0
320,96,54581,1,0
352,64,54919,1,0
384,96,55306,1,0
448,64,55548,2,2,B|448:160|416:192,1,122.5
352,224,56612,6,0,B|288:192,1,70
289,192,57048,2,0,B|224:224,1,70
224,224,57532,2,0,B|192:192|160:224,1,70
128,224,58161,1,2
128,192,58354,1,2
160,160,58645,1,2
224,192,59806,6,0,B|256:160|224:128,1,70
288,128,60338,1,0
352,128,60774,2,2,B|448:128|448:320|96:256,1,420
128,192,62516,5,0
128,192,62661,1,0
128,192,62806,2,0,B|128:96,1,87.5
192,96,63483,1,0
256,96,63822,1,0
320,96,64161,1,0
384,96,64596,1,0
416,96,64741,2,2,B|480:160|384:256,1,175
320,288,66000,6,0,B|288:256,1,35
256,256,66532,1,0
224,288,66919,1,0
192,256,67306,1,0
128,256,67887,2,2,B|96:192|192:128,1,140
224,96,69096,6,0,B|288:64,1,70
320,96,69532,2,0,B|255:128,1,70
384,96,70016,2,0,B|416:128|384:160,1,70
352,224,70693,1,2
320,224,70886,1,2
288,224,71177,1,0
288,160,72580,5,8
256,128,72774,1,8
224,160,72967,1,10
224,224,73693,5,8
256,256,73886,1,8
288,224,74225,1,10
96,128,74903,6,0,B|128:96,2,35,2|0|0
192,96,75677,2,2,B|160:128,1,35
256,96,76064,2,2,B|224:128,1,35
320,96,76452,2,2,B|288:128,1,35
384,96,76839,2,2,B|352:128,1,35
416,160,77226,1,10
416,224,77613,6,0,B|352:224,2,52.5
288,224,78097,1,0
288,224,78242,1,0
288,224,78386,1,0
224,288,78628,2,0,B|192:256,1,35
160,288,78918,2,0,B|96:224,1,87.5
96,224,79257,2,0,B|128:192,1,35
128,128,79741,1,0
128,128,79984,1,0
128,128,80128,1,0
192,96,80466,2,2,B|224:32,3,70
256,32,81337,2,0,B|352:64|352:160,1,157.5
416,160,82015,5,8
416,160,82209,1,8
416,224,82451,2,8,B|352:224,1,52.5
288,224,82790,5,8
288,224,82983,1,8
224,224,83177,2,8,B|192:256|160:224,2,70
96,224,83757,1,8
96,224,83951,2,8,B|96:160,1,52.5
96,96,84241,1,8
96,96,84435,1,8
96,96,84628,1,8
160,96,84822,2,2,B|224:96,1,52.5
288,96,85306,5,0
352,96,85499,2,8,B|480:160|352:288,1,227.5
320,256,87193,5,8
256,256,87435,1,8
256,256,87532,1,8
256,256,87629,1,8
256,256,87725,1,8
384,128,100451,6,8,B|320:160,2,70
256,64,101177,6,8,B|256:128,1,52.5
128,128,101661,6,8,B|192:160,2,70
256,192,102677,5,2
256,192,102871,5,2
