osu file format v14

[General]
AudioFilename: seal.mp4.mp3
AudioLeadIn: 0
PreviewTime: 6694
Countdown: 0
SampleSet: Normal
StackLeniency: 0.7
Mode: 1
LetterboxInBreaks: 0
WidescreenStoryboard: 0

[Editor]
DistanceSpacing: 1.5
BeatDivisor: 3
GridSize: 32
TimelineZoom: 1.5

[Metadata]
Title:seal.mp4
TitleUnicode:seal.mp4
Artist:joeyclassic
ArtistUnicode:joeyclassic
Creator:IntelliTroodon
Version:Oni
Source:
Tags:seal adorable snow white swing retro jazz jazzy thirds Super Mario Land Muda Kingdom remix Prophecy Surono
BeatmapID:729936
BeatmapSetID:329268

[Difficulty]
HPDrainRate:7
CircleSize:5
OverallDifficulty:6
ApproachRate:5
SliderMultiplier:1.4
SliderTickRate:1

[Events]
//Background and Video events
0,0,"seal1bg.jpg",0,50
//Break Periods
//Storyboard Layer 0 (Background)
//Storyboard Layer 1 (Fail)
//Storyboard Layer 2 (Pass)
//Storyboard Layer 3 (Foreground)
//Storyboard Sound Samples

[TimingPoints]
3156,366.032210834554,4,1,0,50,1,0
6084,-100,4,1,0,70,0,0
17797,-100,4,1,0,70,0,1
29510,-100,4,1,0,60,0,0
36098,-100,4,1,0,50,0,0
37441,-100,4,1,0,40,0,0
38295,-100,4,1,0,30,0,0

[HitObjects]
192,256,3156,5,2,0:0:0:0:
192,256,3522,1,2,0:0:0:0:
192,128,3888,1,0,0:0:0:0:
192,128,4254,1,0,0:0:0:0:
192,256,4620,1,2,0:0:0:0:
192,256,4986,1,2,0:0:0:0:
192,128,5352,1,0,0:0:0:0:
192,128,5474,1,0,0:0:0:0:
192,128,5596,1,0,0:0:0:0:
192,128,5718,1,0,0:0:0:0:
192,128,5840,1,0,0:0:0:0:
192,128,5962,1,0,0:0:0:0:
320,128,6084,1,0,0:0:0:0:
192,128,6694,1,0,0:0:0:0:
192,256,6816,1,2,0:0:0:0:
192,256,7060,1,2,0:0:0:0:
192,128,7182,1,0,0:0:0:0:
192,256,7426,1,2,0:0:0:0:
192,128,8158,1,0,0:0:0:0:
192,256,8280,1,2,0:0:0:0:
192,256,8524,1,2,0:0:0:0:
192,128,8646,1,0,0:0:0:0:
192,128,9012,1,0,0:0:0:0:
192,256,9378,1,2,0:0:0:0:
192,128,9622,1,0,0:0:0:0:
192,128,10110,1,0,0:0:0:0:
192,256,10354,1,2,0:0:0:0:
192,128,10476,1,0,0:0:0:0:
192,128,10842,1,0,0:0:0:0:
192,256,11086,1,2,0:0:0:0:
192,128,11208,1,0,0:0:0:0:
192,128,11574,1,0,0:0:0:0:
192,256,11818,1,2,0:0:0:0:
192,256,11940,1,2,0:0:0:0:
192,256,12306,1,2,0:0:0:0:
192,128,12550,1,0,0:0:0:0:
192,128,12672,1,2,0:0:0:0:
192,256,12916,1,2,0:0:0:0:
192,128,13038,1,0,0:0:0:0:
192,256,13282,1,2,0:0:0:0:
192,256,13770,1,2,0:0:0:0:
192,128,14014,1,0,0:0:0:0:
192,256,14136,1,2,0:0:0:0:
192,256,14380,1,2,0:0:0:0:
192,128,14502,1,0,0:0:0:0:
192,128,14869,1,0,0:0:0:0:
192,256,15235,1,2,0:0:0:0:
192,128,15479,1,0,0:0:0:0:
192,128,15967,1,0,0:0:0:0:
192,256,16211,1,2,0:0:0:0:
192,128,16333,1,0,0:0:0:0:
192,128,16699,1,0,0:0:0:0:
192,256,16943,1,2,0:0:0:0:
192,128,17065,1,0,0:0:0:0:
192,128,17431,1,0,0:0:0:0:
192,256,17675,1,2,0:0:0:0:
192,256,17797,1,2,0:0:0:0:
192,256,18163,1,2,0:0:0:0:
192,128,18407,1,0,0:0:0:0:
192,256,18529,1,2,0:0:0:0:
192,256,18773,1,2,0:0:0:0:
192,256,19139,1,2,0:0:0:0:
192,128,19627,1,0,0:0:0:0:
192,256,19871,1,2,0:0:0:0:
192,128,19993,1,0,0:0:0:0:
192,128,20359,1,0,0:0:0:0:
192,128,20725,1,0,0:0:0:0:
192,256,20969,1,2,0:0:0:0:
192,256,21335,1,2,0:0:0:0:
192,128,21457,1,0,0:0:0:0:
192,128,21823,1,0,0:0:0:0:
192,256,22067,1,2,0:0:0:0:
192,128,22189,1,0,0:0:0:0:
192,128,22555,1,0,0:0:0:0:
192,256,22799,1,2,0:0:0:0:
192,128,22921,1,0,0:0:0:0:
192,128,23287,1,0,0:0:0:0:
192,256,23531,1,2,0:0:0:0:
192,256,23653,1,2,0:0:0:0:
192,256,24019,1,2,0:0:0:0:
192,128,24263,1,0,0:0:0:0:
192,256,24385,1,2,0:0:0:0:
192,256,24629,1,2,0:0:0:0:
192,256,24995,1,2,0:0:0:0:
192,128,25483,1,0,0:0:0:0:
192,256,25727,1,2,0:0:0:0:
192,128,25849,1,0,0:0:0:0:
192,128,26216,1,0,0:0:0:0:
192,128,26460,1,0,0:0:0:0:
320,256,26582,1,6,0:0:0:0:
192,256,26948,1,2,0:0:0:0:
320,128,27314,1,4,0:0:0:0:
192,128,27680,1,0,0:0:0:0:
320,256,28046,1,6,0:0:0:0:
192,256,28412,1,2,0:0:0:0:
320,128,28778,1,4,0:0:0:0:
192,128,29144,1,0,0:0:0:0:
192,128,29266,1,0,0:0:0:0:
192,128,29388,1,0,0:0:0:0:
192,128,29510,1,0,0:0:0:0:
192,128,29876,1,0,0:0:0:0:
192,128,30120,1,0,0:0:0:0:
192,128,30242,1,0,0:0:0:0:
192,256,30471,1,2,0:0:0:0:
192,256,30852,1,2,0:0:0:0:
192,128,31340,1,0,0:0:0:0:
192,128,31584,1,0,0:0:0:0:
192,256,31706,1,2,0:0:0:0:
192,256,31950,1,2,0:0:0:0:
192,128,32072,1,0,0:0:0:0:
192,128,32438,1,0,0:0:0:0:
192,256,32804,1,2,0:0:0:0:
192,128,33048,1,0,0:0:0:0:
192,128,33536,1,0,0:0:0:0:
192,256,33780,1,2,0:0:0:0:
192,128,33902,1,0,0:0:0:0:
192,128,34268,1,0,0:0:0:0:
192,256,34512,1,2,0:0:0:0:
192,128,34634,1,0,0:0:0:0:
192,128,35000,1,0,0:0:0:0:
192,256,35244,1,2,0:0:0:0:
192,256,35366,1,2,0:0:0:0:
192,256,35732,1,2,0:0:0:0:
192,128,35976,1,0,0:0:0:0:
192,128,36098,1,0,0:0:0:0:
192,256,36342,1,2,0:0:0:0:
192,256,36708,1,2,0:0:0:0:
192,256,37196,1,2,0:0:0:0:
192,128,37441,1,0,0:0:0:0:
192,256,37563,1,2,0:0:0:0:
192,256,37807,1,2,0:0:0:0:
192,128,37929,1,0,0:0:0:0:
192,128,38295,1,0,0:0:0:0:
192,256,38661,1,2,0:0:0:0:
192,128,38905,1,0,0:0:0:0:
