osu file format v11

[General]
AudioFilename: IA.mp3
AudioLeadIn: 1500
PreviewTime: 107485
Countdown: 0
SampleSet: Soft
StackLeniency: 0.7
Mode: 0
LetterboxInBreaks: 0

[Editor]
DistanceSpacing: 1
BeatDivisor: 4
GridSize: 4

[Metadata]
Title:Heisei Kataku Rhythm
TitleUnicode:ヘイセイカタクリズム
Artist:jippusu
ArtistUnicode:じっぷす
Creator:HelloSCV
Version:Normal
Source:
Tags:vocaloid3 Kaburagi Kotetsu Sanjenin Nagi IA
BeatmapID:209440
BeatmapSetID:71720

[Difficulty]
HPDrainRate:3
CircleSize:3
OverallDifficulty:4
ApproachRate:5
SliderMultiplier:1
SliderTickRate:1

[Events]
//Background and Video events
0,0,"IA.png"
//Break Periods
2,142940,146103
//Storyboard Layer 0 (Background)
//Storyboard Layer 1 (Fail)
//Storyboard Layer 2 (Pass)
//Storyboard Layer 3 (Foreground)
//Storyboard Sound Samples
//Background Colour Transformations
3,100,163,162,255

[TimingPoints]
1122,272.727272727273,4,2,1,45,1,0
3303,-100,4,2,1,70,0,1
3372,-100,4,2,1,70,0,0
36303,-100,4,2,2,70,0,0
36985,-100,4,2,1,70,0,0
55122,-100,4,2,1,45,0,0
55667,-100,4,2,2,70,0,1
64326,-100,4,2,2,70,0,0
64394,-100,4,2,2,70,0,1
72576,-100,4,2,1,70,0,0
88667,-100,4,2,2,70,0,0
89349,-100,4,2,1,70,0,0
108031,-100,4,2,2,70,0,1
116690,-100,4,2,2,70,0,0
116758,-100,4,2,2,70,0,1
124940,-100,4,2,1,70,0,0
125485,-100,4,2,1,70,0,1
125553,-100,4,2,2,70,0,0
134212,-100,4,2,1,70,0,1
134281,-100,4,2,2,70,0,0
147303,-100,4,2,1,70,0,0
151667,-100,4,2,2,70,0,1
160326,-100,4,2,2,70,0,0
160394,-100,4,2,2,70,0,1
168576,-100,4,2,1,70,0,0
169122,-100,4,2,1,70,0,1
170758,-100,4,2,1,70,0,0
171303,-100,4,2,1,70,0,1
171372,-100,4,2,1,70,0,0

[Colours]
Combo1 : 0,255,255
Combo2 : 255,0,128
Combo3 : 17,136,255
Combo4 : 255,255,255

[HitObjects]
168,68,1122,1,2,0:0:0
348,68,1667,1,2,0:0:0
256,244,2212,2,0,P|216:184|292:108|256:48,1,200,0|2,0:0|0:0,0:0:0
416,168,3303,6,0,P|320:200,1,100,4|8,0:0|0:0,0:0:0
324,300,3849,2,0,P|418:268,1,100,0|8,0:0|0:0,0:0:0
464,248,4258,2,0,P|504:200|484:112,1,150,0|8,0:0|0:0,0:0:0
396,84,4939,2,0,P|288:56,1,100,0|8,0:0|0:0,0:0:0
208,16,5485,6,0,P|196:68|216:116,1,100,0|8,0:0|0:0,0:0:0
236,156,5894,2,0,P|260:216|240:296,1,150,0|8,0:0|0:0,0:0:0
144,328,6576,2,0,P|92:344,1,50
28,268,6985,2,0,P|108:244|108:244|144:184,1,150,0|4,0:0|0:0,0:0:0
160,88,7667,6,0,P|208:100|236:140,1,100,4|8,0:0|0:0,0:0:0
260,236,8212,2,0,P|264:284|300:328,1,100,0|8,0:0|0:0,0:0:0
340,348,8622,2,0,P|404:308|492:316,1,150,0|8,0:0|0:0,0:0:0
492,212,9303,2,0,P|504:108,1,100,0|8,0:0|0:0,0:0:0
416,64,9849,6,0,P|404:163,1,100,0|8,0:0|0:0,0:0:0
392,212,10258,2,0,P|348:264|256:276,1,150,0|8,0:0|0:0,0:0:0
292,184,10940,2,0,P|240:92,1,100,0|8,0:0|0:0,0:0:0
204,68,11349,2,0,P|124:52|64:92,1,150,0|8,0:0|0:0,0:0:0
28,180,12031,6,0,P|24:288,1,100,4|8,0:0|0:0,0:0:0
116,324,12576,2,0,P|119:224,1,100,0|8,0:0|0:0,0:0:0
120,172,12985,2,0,P|204:200|264:184,1,150,0|8,0:0|0:0,0:0:0
312,100,13667,2,0,P|352:128|364:184,1,100,0|8,0:0|0:0,0:0:0
388,272,14212,6,0,P|304:332,1,100,0|8,0:0|0:0,0:0:0
260,348,14622,2,0,P|200:304|124:308,1,150,0|8,0:0|0:0,0:0:0
96,212,15303,2,0,P|84:160,1,50
184,168,15712,2,0,P|160:80|160:80|200:16,1,150,0|4,0:0|0:0,0:0:0
260,104,16394,6,0,P|286:200,1,100,4|8,0:0|0:0,0:0:0
240,292,16940,2,0,P|196:264|184:220,1,100,0|8,0:0|0:0,0:0:0
184,168,17349,2,0,P|168:88|100:52,1,150,0|8,0:0|0:0,0:0:0
92,152,18031,2,0,P|32:232,1,100,0|12,0:0|0:0,0:0:0
112,288,18576,6,0,P|64:352,2,75,4|0|0,0:0|0:0|0:0,0:0:0
164,288,19122,2,0,P|204:352,2,75,4|0|0,0:0|0:0|0:0,0:0:0
140,244,19667,2,0,P|108:172|144:60,1,200,4|4,0:0|0:0,0:0:0
336,108,20758,6,0,P|324:160|336:208,1,100,0|2,0:0|0:0,0:0:0
436,204,21303,2,0,P|396:280|336:296,1,150
192,260,22122,1,2,0:0:0
176,160,22394,2,0,P|160:108|120:72,1,100,0|2,0:0|0:0,0:0:0
76,164,22940,6,0,P|68:212|84:260,1,100,0|2,0:0|0:0,0:0:0
40,352,23485,2,0,P|88:364|136:344,1,100,0|2,0:0|0:0,0:0:0
184,332,23894,2,0,P|244:308|348:344,1,150,0|2,0:0|0:0,0:0:0
416,364,24576,2,0,P|400:264,1,100,0|2,0:0|0:0,0:0:0
480,200,25122,6,0,P|388:132,1,100,0|2,0:0|0:0,0:0:0
308,100,25667,2,0,P|260:88|208:100,1,100,0|2,0:0|0:0,0:0:0
172,132,26076,2,0,P|156:188|72:216,1,150,0|2,0:0|0:0,0:0:0
48,312,26758,2,0,P|32:364,2,50,0|0|2,0:0|0:0|0:0,0:0:0
148,300,27303,6,0,P|216:264|256:204,1,150,0|0,0:0|0:0,0:0:0
216,60,28121,1,2,0:0:0
296,120,28394,2,0,P|340:164|328:252,1,150
396,112,29212,1,2,0:0:0
296,120,29485,6,0,P|244:104|192:116,1,100,4|8,0:0|0:0,0:0:0
104,80,30031,2,0,P|104:128|132:172,1,100,0|8,0:0|0:0,0:0:0
172,200,30440,2,0,P|216:248|236:328,1,150,0|8,0:0|0:0,0:0:0
332,304,31122,2,0,P|432:280,1,100,0|8,0:0|0:0,0:0:0
452,184,31667,6,0,P|354:207,1,100,0|8,0:0|0:0,0:0:0
292,128,32212,2,0,P|256:168|252:216,1,100,0|8,0:0|0:0,0:0:0
252,264,32622,2,0,P|244:332|176:380,1,150,0|8,0:0|0:0,0:0:0
152,284,33303,2,0,P|96:300,2,50,0|0|12,0:0|0:0|0:0,0:0:0
84,212,33849,6,0,P|40:180|28:128,1,100,4|8,0:0|0:0,0:0:0
124,108,34394,2,0,P|140:36,2,50,0|0|8,0:0|0:0|0:0,0:0:0
172,124,34803,2,0,P|232:160|248:248,1,150,0|8,0:0|0:0,0:0:0
224,332,35485,2,0,P|336:356,1,100,0|8,0:0|0:0,0:0:0
420,332,36031,6,0,P|404:276|364:256|364:256|320:232|304:172,2,200,4|0|0,0:0|0:0|0:0,0:0:0
468,244,37394,1,8,0:0:0
396,176,37667,2,0,P|372:128,2,50,4|0|8,0:0|0:0|0:0,0:0:0
452,92,38212,6,0,P|392:48|288:108,1,200,4|2,0:0|0:0,0:0:0
220,288,39304,2,0,P|118:340|58:296,1,200,0|2,0:0|0:0,0:0:0
64,96,40394,5,0,0:0:0
256,40,40939,1,2,0:0:0
256,192,41349,6,0,P|256:296,1,100
164,336,41894,2,0,P|164:236,1,100
100,100,42576,6,0,P|144:76|192:76,1,100,4|8,0:0|0:0,0:0:0
168,172,43122,2,0,P|124:196|76:196,1,100,0|8,0:0|0:0,0:0:0
24,188,43531,2,0,P|4:268|52:328,1,150,0|8,0:0|0:0,0:0:0
140,332,44212,2,0,P|200:336,1,50
340,336,44758,5,0,0:0:0
412,268,45031,2,0,P|464:188|436:84,1,200,0|4,0:0|0:0,0:0:0
392,96,45712,2,0,P|348:128|256:108,1,150,0|8,0:0|0:0,0:0:0
216,84,46258,2,0,P|136:64|68:112,1,150,0|8,0:0|0:0,0:0:0
64,196,46940,6,0,P|120:184,1,50,4|0,0:0|0:0,0:0:0
204,148,47349,2,0,P|212:200|148:268,1,150,0|8,0:0|0:0,0:0:0
100,276,47894,2,0,P|52:296|32:384,1,150,0|8,0:0|0:0,0:0:0
128,360,48576,2,0,P|184:360,1,50
276,352,48985,6,0,P|340:336|380:260,1,150,0|2,0:0|0:0,0:0:0
380,216,49531,2,0,P|376:116,1,100,0|2,0:0|0:0,0:0:0
308,44,50076,2,0,P|260:52|216:92,1,100,0|2,0:0|0:0,0:0:0
132,40,50622,2,0,P|116:96|136:144,1,100,0|2,0:0|0:0,0:0:0
148,180,51030,5,4,0:0:0
244,208,51303,2,0,P|184:284|88:276,2,200,4|8|0,0:0|0:0|0:0,0:0:0
308,132,52667,1,0,0:0:0
392,80,52940,2,0,P|444:64|492:80,1,100,8|0,0:0|0:0,0:0:0
444,168,53485,6,0,P|464:276,1,100,4|8,0:0|0:0,0:0:0
464,316,53894,2,0,P|432:352|380:368,2,100,4|4|4,0:0|0:0|0:0,0:0:0
304,124,55121,1,2,0:0:0
204,124,55394,1,2,0:0:0
176,220,55667,6,0,P|136:324,1,100,4|8,0:0|0:0,0:0:0
40,316,56212,2,0,P|96:172,1,150
112,128,56758,2,0,P|160:48|260:48,1,200,0|0,0:0|0:0,0:0:0
204,124,57576,1,8,0:0:0
220,224,57849,6,0,P|236:300,2,75,4|0|0,0:0|0:0|0:0,0:0:0
208,176,58394,2,0,P|204:120|264:44,1,150
308,56,58940,2,0,P|356:68|408:52,2,100,0|8|0,0:0|0:0|0:0,0:0:0
316,156,59758,1,12,0:0:0
384,228,60031,6,0,P|340:336,1,100,4|8,0:0|0:0,0:0:0
248,344,60576,2,0,P|304:204,1,150
316,156,61122,2,0,P|272:72|172:44,1,200,0|0,0:0|0:0,0:0:0
76,52,61939,1,8,0:0:0
136,132,62212,6,0,P|136:192|88:272,1,150,4|0,0:0|0:0,0:0:0
52,300,62758,2,0,P|128:304|192:344,1,150
240,344,63303,2,0,P|284:368|340:364,2,100,0|8|4,0:0|0:0|0:0,0:0:0
304,268,64121,1,4,0:0:0
336,172,64394,6,0,P|372:68,1,100,4|8,0:0|0:0,0:0:0
468,76,64939,2,0,P|416:232,1,150
404,264,65485,2,0,P|404:304|460:352,2,100,0|8|0,0:0|0:0|0:0,0:0:0
312,228,66303,1,8,0:0:0
276,136,66576,6,0,P|248:52,2,75,4|0|0,0:0|0:0|0:0,0:0:0
292,184,67122,2,0,P|248:260|184:264,1,150
144,256,67667,2,0,P|96:244|52:264,2,100,0|8|0,0:0|0:0|0:0,0:0:0
200,172,68485,1,12,0:0:0
240,76,68758,6,0,P|188:64|140:80,1,100,4|8,0:0|0:0,0:0:0
48,104,69303,2,0,P|76:180|60:244,1,150
32,288,69849,2,0,P|20:336|44:384,2,100,0|8|4,0:0|0:0|0:0,0:0:0
128,320,70667,5,8,0:0:0
224,292,70940,2,0,P|272:272|292:224,1,100,4|8,0:0|0:0,0:0:0
284,132,71485,2,0,P|236:152|216:200,1,100,4|8,0:0|0:0,0:0:0
124,232,72031,2,0,P|48:136,2,100,4|12|4,0:0|0:0|0:0,0:0:0
312,304,73122,6,0,P|364:284|392:228,1,100,0|2,0:0|0:0,0:0:0
428,156,73667,2,0,P|440:104,1,50,0|2,0:0|0:0,0:0:0
340,128,74076,2,0,P|296:156|148:64,1,250,2|2,0:0|0:0,0:0:0
52,32,75031,1,0,0:0:0
32,128,75303,6,0,P|40:240,1,100,0|2,0:0|0:0,0:0:0
48,328,75849,2,0,P|108:336,1,50,0|2,0:0|0:0,0:0:0
196,324,76258,2,0,P|208:276|140:236|152:184,1,150,0|0,0:0|0:0,0:0:0
192,92,76940,1,2,0:0:0
288,64,77212,1,0,0:0:0
388,48,77485,6,0,P|384:100|344:144,1,100,0|2,0:0|0:0,0:0:0
264,180,78031,2,0,P|220:204,1,50,0|2,0:0|0:0,0:0:0
124,176,78440,2,0,P|120:224|148:272,1,100,2|0,0:0|0:0,0:0:0
192,288,78849,2,0,P|240:296|284:332,2,100,0|2|0,0:0|0:0|0:0,0:0:0
108,348,79667,6,0,P|56:280|40:168,1,200,2|0,0:0|0:0,0:0:0
104,92,80485,1,2,0:0:0
188,144,80758,2,0,P|228:172|284:176,1,100
376,148,81303,1,2,0:0:0
444,76,81576,1,0,0:0:0
348,52,81849,6,0,P|256:96,1,100,4|8,0:0|0:0,0:0:0
192,20,82394,2,0,P|136:104,1,100,0|8,0:0|0:0,0:0:0
132,152,82803,2,0,P|140:240|88:292,1,150,0|8,0:0|0:0,0:0:0
8,316,83485,2,0,P|28:360|80:380,1,100,0|8,0:0|0:0,0:0:0
168,352,84031,6,0,P|216:332|268:332,1,100,0|8,0:0|0:0,0:0:0
364,336,84576,2,0,P|360:288|324:244,1,100,0|8,0:0|0:0,0:0:0
280,244,84985,2,0,P|224:244|144:184,1,150,0|8,0:0|0:0,0:0:0
124,96,85667,2,0,P|112:44,2,50,0|0|12,0:0|0:0|0:0,0:0:0
204,36,86212,6,0,P|225:133,1,100,4|8,0:0|0:0,0:0:0
320,96,86758,2,0,P|328:144|312:200,1,100,0|8,0:0|0:0,0:0:0
304,244,87167,2,0,P|300:312|364:368,1,150,0|8,0:0|0:0,0:0:0
392,272,87849,2,0,P|412:168,1,100,0|8,0:0|0:0,0:0:0
404,72,88394,6,0,P|336:48|224:128,2,200,4|0|0,0:0|0:0|0:0,0:0:0
332,144,89758,1,8,0:0:0
268,224,90031,2,0,P|228:276,2,50,4|0|8,0:0|0:0|0:0,0:0:0
304,316,90576,6,0,P|220:344|152:264,1,200,4|2,0:0|0:0,0:0:0
204,76,91667,2,0,P|288:48|356:128,1,200,0|2,0:0|0:0,0:0:0
356,324,92758,5,0,0:0:0
164,276,93303,1,10,0:0:0
64,164,93712,2,0,P|28:124|16:72,1,100,0|0,0:0|0:0,0:0:0
116,84,94258,2,0,P|152:124|164:176,1,100,0|0,0:0|0:0,0:0:0
144,316,94940,6,0,P|200:316,1,50,4|0,0:0|0:0,0:0:0
292,308,95349,2,0,P|272:248|236:232,1,100
168,168,95894,2,0,P|192:96|264:72,1,150,0|8,0:0|0:0,0:0:0
356,76,96576,2,0,P|408:76,1,50
488,200,97121,5,0,0:0:0
428,280,97394,2,0,P|372:324|244:292,1,200,0|4,0:0|0:0,0:0:0
216,264,98076,2,0,P|172:204|100:188,1,150,0|8,0:0|0:0,0:0:0
52,188,98622,2,0,P|16:128|12:24,1,150,0|8,0:0|0:0,0:0:0
108,48,99303,6,0,P|164:48,1,50,4|0,0:0|0:0,0:0:0
260,44,99712,2,0,P|260:88|216:132,1,100
148,192,100258,2,0,P|104:244|136:328,1,150,0|8,0:0|0:0,0:0:0
212,272,100940,2,0,P|260:283,2,50,0|0|8,0:0|0:0|0:0,0:0:0
284,204,101485,6,0,P|368:200|420:96,1,200,0|2,0:0|0:0,0:0:0
400,60,102167,2,0,P|356:72|292:48,1,100,0|2,0:0|0:0,0:0:0
208,36,102712,1,0,0:0:0
140,108,102985,2,0,P|116:156|120:204,1,100,2|0,0:0|0:0,0:0:0
136,248,103394,5,4,0:0:0
228,284,103667,2,0,P|344:272|400:364,2,200,4|8|0,0:0|0:0|0:0,0:0:0
148,344,105031,1,0,0:0:0
56,304,105303,2,0,P|36:256|56:200,1,100,8|0,0:0|0:0,0:0:0
120,140,105849,6,0,P|208:88,1,100,4|8,0:0|0:0,0:0:0
256,76,106258,2,0,P|304:64|360:80,2,100,4|4|4,0:0|0:0|0:0,0:0:0
304,320,107485,1,2,0:0:0
204,320,107758,1,2,0:0:0
104,312,108031,6,0,P|64:288|40:240,1,100,4|8,0:0|0:0,0:0:0
136,220,108576,2,0,P|112:172|132:80,1,150
180,80,109122,2,0,P|280:120|364:64,1,200
444,36,109939,1,8,0:0:0
480,128,110212,6,0,P|512:208,2,75,4|0|0,0:0|0:0|0:0,0:0:0
460,80,110758,2,0,P|376:68|316:116,1,150,0|0,0:0|0:0,0:0:0
276,116,111303,2,0,P|228:92|204:44,2,100,0|8|0,0:0|0:0|0:0,0:0:0
248,212,112121,1,12,0:0:0
304,296,112394,6,0,P|392:352,1,100,0|8,0:0|0:0,0:0:0
464,284,112940,2,0,P|336:204,1,150
296,176,113485,2,0,P|256:140|240:84,2,100,0|8|0,0:0|0:0|0:0,0:0:0
348,88,114303,1,8,0:0:0
392,180,114576,6,0,P|360:244|280:272,1,150,4|0,0:0|0:0,0:0:0
240,264,115122,2,0,P|172:224|88:248,1,150
60,260,115667,2,0,P|24:224|16:176,2,100,0|8|4,0:0|0:0|0:0,0:0:0
144,316,116485,1,12,0:0:0
236,356,116758,6,0,P|288:356|336:328,1,100,4|8,0:0|0:0,0:0:0
428,344,117303,2,0,P|416:272|344:232,1,150
308,216,117849,2,0,P|260:196|232:156,2,100,0|8|0,0:0|0:0|0:0,0:0:0
336,120,118667,1,8,0:0:0
256,64,118940,6,0,P|184:8,2,75,4|0|0,0:0|0:0|0:0,0:0:0
300,88,119485,2,0,P|360:68|436:108,1,150
448,152,120031,2,0,P|476:260,2,100,0|8|0,0:0|0:0|0:0,0:0:0
352,180,120848,1,12,0:0:0
252,184,121122,6,0,P|200:184|148:216,1,100,4|8,0:0|0:0,0:0:0
128,300,121667,2,0,P|68:260|56:188,1,150
80,144,122212,2,0,P|108:104|100:48,2,100,0|8|4,0:0|0:0|0:0,0:0:0
176,172,123031,1,8,0:0:0
264,124,123303,5,4,0:0:0
364,104,123576,2,0,P|412:108|460:132,1,100,8|4,0:0|0:0,0:0:0
388,204,124122,1,8,0:0:0
324,280,124394,2,0,P|370:302|418:306,2,100,4|12|4,0:0|0:0|0:0,0:0:0
128,240,125485,6,0,P|112:192|128:144,1,100,4|8,0:0|0:0,0:0:0
212,92,126031,2,0,P|228:140|212:188,1,100,0|8,0:0|0:0,0:0:0
240,280,126576,2,0,P|272:336|344:352,2,100,0|8|0,0:0|0:0|0:0,0:0:0
336,256,127394,1,8,0:0:0
404,184,127667,6,0,P|408:100|344:40,1,150,4|0,0:0|0:0,0:0:0
320,52,128212,2,0,P|276:80|224:80,1,100,0|8,0:0|0:0,0:0:0
132,52,128758,2,0,P|100:96|92:144,1,100,0|8,0:0|0:0,0:0:0
124,236,129303,1,0,0:0:0
208,288,129576,1,12,0:0:0
300,244,129849,6,0,P|392:216|464:292,1,200,4|0,0:0|0:0,0:0:0
368,316,130667,1,8,0:0:0
276,352,130940,2,0,P|224:368|168:372,2,100,0|8|0,0:0|0:0|0:0,0:0:0
288,252,131758,1,8,0:0:0
248,160,132031,6,0,P|216:112|116:80,1,150,4|0,0:0|0:0,0:0:0
92,112,132576,2,0,P|96:160|68:208,1,100,0|8,0:0|0:0,0:0:0
16,288,133122,2,0,P|80:368,2,100,0|8|4,0:0|0:0|0:0,0:0:0
116,280,133940,1,8,0:0:0
216,276,134212,6,0,P|268:268|308:240,1,100,4|8,0:0|0:0,0:0:0
232,172,134758,2,0,P|268:136|268:88,1,100,0|8,0:0|0:0,0:0:0
168,104,135303,2,0,P|176:52|140:8,2,100,0|8|0,0:0|0:0|0:0,0:0:0
72,76,136122,1,8,0:0:0
72,176,136394,6,0,P|80:256|156:296,1,150,4|0,0:0|0:0,0:0:0
184,288,136940,2,0,P|232:280|300:308,1,100,0|8,0:0|0:0,0:0:0
360,352,137485,2,0,P|376:304|368:252,1,100,0|8,0:0|0:0,0:0:0
324,168,138031,1,0,0:0:0
240,112,138303,5,12,0:0:0
152,68,138576,2,0,P|140:116|160:164,1,100,4|8,0:0|0:0,0:0:0
216,244,139122,2,0,P|234:289|222:337,1,100,0|8,0:0|0:0,0:0:0
132,296,139667,2,0,P|96:256|72:208,2,100,0|8|4,0:0|0:0|0:0,0:0:0
216,244,140485,1,8,0:0:0
300,192,140758,6,0,P|344:136|328:48,1,150,4|0,0:0|0:0,0:0:0
292,40,141303,2,0,P|244:36|188:84,1,100,4|8,0:0|0:0,0:0:0
156,152,141849,2,0,P|112:124|96:68,2,100,4|12|4,0:0|0:0|0:0,0:0:0
208,72,147303,6,0,P|196:120|208:168,1,100,0|2,0:0|0:0,0:0:0
308,168,147849,2,0,P|320:120|308:72,1,100,0|2,0:0|0:0,0:0:0
404,40,148394,2,0,P|420:128|388:244,1,200
316,296,149212,1,2,0:0:0
216,284,149485,6,0,P|164:272|124:240,1,100,0|2,0:0|0:0,0:0:0
28,248,150031,2,0,P|72:168|176:168,1,200,0|0,0:0|0:0,0:0:0
356,244,151121,1,2,0:0:0
356,144,151394,1,2,0:0:0
264,108,151667,6,0,P|224:84|172:76,1,100,4|8,0:0|0:0,0:0:0
76,100,152212,2,0,P|100:184|56:248,1,150
36,268,152758,2,0,P|60:340|176:356,1,200
252,300,153576,1,8,0:0:0
320,228,153849,6,0,P|372:168,2,75,4|0|0,0:0|0:0|0:0,0:0:0
284,260,154394,2,0,P|236:260|176:240,1,100,0|8,0:0|0:0,0:0:0
124,168,154940,2,0,P|92:212|88:264,2,100,0|8|0,0:0|0:0|0:0,0:0:0
216,128,155758,1,12,0:0:0
316,116,156031,6,0,P|432:100,1,100,4|8,0:0|0:0,0:0:0
476,180,156576,2,0,P|420:236|436:308,1,150
464,340,157122,2,0,P|264:380,1,200,0|0,0:0|0:0,0:0:0
172,352,157939,1,8,0:0:0
112,272,158212,6,0,P|72:220|80:140,1,150,4|0,0:0|0:0,0:0:0
128,132,158758,2,0,P|200:132|252:76,1,150
292,52,159303,2,0,P|340:40|384:60,2,100,0|8|4,0:0|0:0|0:0,0:0:0
332,144,160121,1,8,0:0:0
312,244,160394,6,0,P|292:360,1,100,4|8,0:0|0:0,0:0:0
196,360,160940,2,0,P|220:212,1,150
224,164,161485,2,0,P|220:100|96:40,1,200
120,136,162303,1,8,0:0:0
72,224,162576,6,0,P|32:292,2,75,4|0|0,0:0|0:0|0:0,0:0:0
104,180,163122,2,0,P|172:180|236:244,1,150
240,280,163667,2,0,P|272:316|324:332,2,100,0|8|0,0:0|0:0|0:0,0:0:0
328,228,164485,1,12,0:0:0
380,144,164758,6,0,P|436:44,1,100,4|8,0:0|0:0,0:0:0
328,56,165303,2,0,P|260:108|192:88,1,150
160,72,165849,2,0,P|108:88|72:136,2,100,0|8|4,0:0|0:0|0:0,0:0:0
164,172,166667,1,8,0:0:0
208,264,166940,5,4,0:0:0
300,304,167212,2,0,P|348:312|408:296,1,100,8|4,0:0|0:0,0:0:0
476,236,167758,1,8,0:0:0
416,156,168031,2,0,P|384:120|376:64,2,100,4|12|4,0:0|0:0|0:0,0:0:0
240,64,169122,6,0,P|209:99|195:162,1,100,4|8,0:0|0:0,0:0:0
200,252,169667,1,4,0:0:0
256,336,169940,1,8,0:0:0
356,348,170212,2,0,P|400:320|404:264|404:264|408:212|456:184,1,200,2|2,0:0|0:0,0:0:0
312,44,171303,5,4,0:0:0
